  0
SECTION
  2
HEADER
  9
$ACADVER
  1
AC1015
  9
$ACADMAINTVER
 70
     6
  9
$DWGCODEPAGE
  3
ANSI_932
  9
$INSBASE
 10
0.0
 20
0.0
 30
0.0
  9
$EXTMIN
 10
-420.0
 20
0.0
 30
0.0
  9
$EXTMAX
 10
0.0
 20
296.999756
 30
0.0
  9
$LIMMIN
 10
-420.0
 20
0.0
  9
$LIMMAX
 10
0.0
 20
296.999756
  9
$ORTHOMODE
 70
     0
  9
$REGENMODE
 70
     1
  9
$FILLMODE
 70
     1
  9
$QTEXTMODE
 70
     0
  9
$MIRRTEXT
 70
     1
  9
$LTSCALE
 40
1.0
  9
$ATTMODE
 70
     1
  9
$TEXTSIZE
 40
2.5
  9
$TRACEWID
 40
1.0
  9
$TEXTSTYLE
  7
Standard
  9
$CLAYER
  8
0
  9
$CELTYPE
  6
ByLayer
  9
$CECOLOR
 62
   256
  9
$CELTSCALE
 40
1.0
  9
$DISPSILH
 70
     0
  9
$DIMSCALE
 40
1.0
  9
$DIMASZ
 40
2.5
  9
$DIMEXO
 40
0.625
  9
$DIMDLI
 40
3.75
  9
$DIMRND
 40
0.0
  9
$DIMDLE
 40
0.0
  9
$DIMEXE
 40
1.25
  9
$DIMTP
 40
0.0
  9
$DIMTM
 40
0.0
  9
$DIMTXT
 40
2.5
  9
$DIMCEN
 40
2.5
  9
$DIMTSZ
 40
0.0
  9
$DIMTOL
 70
     0
  9
$DIMLIM
 70
     0
  9
$DIMTIH
 70
     0
  9
$DIMTOH
 70
     0
  9
$DIMSE1
 70
     0
  9
$DIMSE2
 70
     0
  9
$DIMTAD
 70
     1
  9
$DIMZIN
 70
     8
  9
$DIMBLK
  1

  9
$DIMASO
 70
     1
  9
$DIMSHO
 70
     1
  9
$DIMPOST
  1

  9
$DIMAPOST
  1

  9
$DIMALT
 70
     0
  9
$DIMALTD
 70
     3
  9
$DIMALTF
 40
0.03937007874016
  9
$DIMLFAC
 40
1.0
  9
$DIMTOFL
 70
     1
  9
$DIMTVP
 40
0.0
  9
$DIMTIX
 70
     0
  9
$DIMSOXD
 70
     0
  9
$DIMSAH
 70
     0
  9
$DIMBLK1
  1

  9
$DIMBLK2
  1

  9
$DIMSTYLE
  2
ISO-25
  9
$DIMCLRD
 70
     0
  9
$DIMCLRE
 70
     0
  9
$DIMCLRT
 70
     0
  9
$DIMTFAC
 40
1.0
  9
$DIMGAP
 40
0.625
  9
$DIMJUST
 70
     0
  9
$DIMSD1
 70
     0
  9
$DIMSD2
 70
     0
  9
$DIMTOLJ
 70
     0
  9
$DIMTZIN
 70
     8
  9
$DIMALTZ
 70
     0
  9
$DIMALTTZ
 70
     0
  9
$DIMUPT
 70
     0
  9
$DIMDEC
 70
     2
  9
$DIMTDEC
 70
     2
  9
$DIMALTU
 70
     2
  9
$DIMALTTD
 70
     3
  9
$DIMTXSTY
  7
Standard
  9
$DIMAUNIT
 70
     0
  9
$DIMADEC
 70
     0
  9
$DIMALTRND
 40
0.0
  9
$DIMAZIN
 70
     0
  9
$DIMDSEP
 70
    44
  9
$DIMATFIT
 70
     3
  9
$DIMFRAC
 70
     0
  9
$DIMLDRBLK
  1

  9
$DIMLUNIT
 70
     2
  9
$DIMLWD
 70
    -2
  9
$DIMLWE
 70
    -2
  9
$DIMTMOVE
 70
     0
  9
$LUNITS
 70
     2
  9
$LUPREC
 70
     4
  9
$SKETCHINC
 40
1.0
  9
$FILLETRAD
 40
10.0
  9
$AUNITS
 70
     0
  9
$AUPREC
 70
     0
  9
$MENU
  1
.
  9
$ELEVATION
 40
0.0
  9
$PELEVATION
 40
0.0
  9
$THICKNESS
 40
0.0
  9
$LIMCHECK
 70
     0
  9
$CHAMFERA
 40
0.0
  9
$CHAMFERB
 40
0.0
  9
$CHAMFERC
 40
0.0
  9
$CHAMFERD
 40
0.0
  9
$SKPOLY
 70
     0
  9
$TDCREATE
 40
2459480.409703727
  9
$TDUCREATE
 40
2459480.034703727
  9
$TDUPDATE
 40
2459480.409704271
  9
$TDUUPDATE
 40
2459480.034704271
  9
$TDINDWG
 40
0.0000000116
  9
$TDUSRTIMER
 40
0.0000000116
  9
$USRTIMER
 70
     1
  9
$ANGBASE
 50
0.0
  9
$ANGDIR
 70
     0
  9
$PDMODE
 70
     0
  9
$PDSIZE
 40
0.0
  9
$PLINEWID
 40
0.0
  9
$SPLFRAME
 70
     0
  9
$SPLINETYPE
 70
     6
  9
$SPLINESEGS
 70
     8
  9
$HANDSEED
  5
36D
  9
$SURFTAB1
 70
     6
  9
$SURFTAB2
 70
     6
  9
$SURFTYPE
 70
     6
  9
$SURFU
 70
     6
  9
$SURFV
 70
     6
  9
$UCSBASE
  2

  9
$UCSNAME
  2

  9
$UCSORG
 10
0.0
 20
0.0
 30
0.0
  9
$UCSXDIR
 10
1.0
 20
0.0
 30
0.0
  9
$UCSYDIR
 10
0.0
 20
1.0
 30
0.0
  9
$UCSORTHOREF
  2

  9
$UCSORTHOVIEW
 70
     0
  9
$UCSORGTOP
 10
0.0
 20
0.0
 30
0.0
  9
$UCSORGBOTTOM
 10
0.0
 20
0.0
 30
0.0
  9
$UCSORGLEFT
 10
0.0
 20
0.0
 30
0.0
  9
$UCSORGRIGHT
 10
0.0
 20
0.0
 30
0.0
  9
$UCSORGFRONT
 10
0.0
 20
0.0
 30
0.0
  9
$UCSORGBACK
 10
0.0
 20
0.0
 30
0.0
  9
$PUCSBASE
  2

  9
$PUCSNAME
  2

  9
$PUCSORG
 10
0.0
 20
0.0
 30
0.0
  9
$PUCSXDIR
 10
1.0
 20
0.0
 30
0.0
  9
$PUCSYDIR
 10
0.0
 20
1.0
 30
0.0
  9
$PUCSORTHOREF
  2

  9
$PUCSORTHOVIEW
 70
     0
  9
$PUCSORGTOP
 10
0.0
 20
0.0
 30
0.0
  9
$PUCSORGBOTTOM
 10
0.0
 20
0.0
 30
0.0
  9
$PUCSORGLEFT
 10
0.0
 20
0.0
 30
0.0
  9
$PUCSORGRIGHT
 10
0.0
 20
0.0
 30
0.0
  9
$PUCSORGFRONT
 10
0.0
 20
0.0
 30
0.0
  9
$PUCSORGBACK
 10
0.0
 20
0.0
 30
0.0
  9
$USERI1
 70
     0
  9
$USERI2
 70
     0
  9
$USERI3
 70
     0
  9
$USERI4
 70
     0
  9
$USERI5
 70
     0
  9
$USERR1
 40
0.0
  9
$USERR2
 40
0.0
  9
$USERR3
 40
0.0
  9
$USERR4
 40
0.0
  9
$USERR5
 40
0.0
  9
$WORLDVIEW
 70
     1
  9
$SHADEDGE
 70
     3
  9
$SHADEDIF
 70
    70
  9
$TILEMODE
 70
     1
  9
$MAXACTVP
 70
    64
  9
$PINSBASE
 10
0.0
 20
0.0
 30
0.0
  9
$PLIMCHECK
 70
     0
  9
$PEXTMIN
 10
1.000000000000000E+20
 20
1.000000000000000E+20
 30
1.000000000000000E+20
  9
$PEXTMAX
 10
-1.000000000000000E+20
 20
-1.000000000000000E+20
 30
-1.000000000000000E+20
  9
$PLIMMIN
 10
-420.0
 20
0.0
  9
$PLIMMAX
 10
0.0
 20
296.999756
  9
$UNITMODE
 70
     0
  9
$VISRETAIN
 70
     1
  9
$PLINEGEN
 70
     0
  9
$PSLTSCALE
 70
     1
  9
$TREEDEPTH
 70
  3020
  9
$CMLSTYLE
  2
Standard
  9
$CMLJUST
 70
     0
  9
$CMLSCALE
 40
20.0
  9
$PROXYGRAPHICS
 70
     1
  9
$MEASUREMENT
 70
     1
  9
$CELWEIGHT
370
    -1
  9
$ENDCAPS
280
     0
  9
$JOINSTYLE
280
     0
  9
$LWDISPLAY
290
     0
  9
$INSUNITS
 70
     4
  9
$HYPERLINKBASE
  1

  9
$STYLESHEET
  1

  9
$XEDIT
290
     1
  9
$CEPSNTYPE
380
     0
  9
$PSTYLEMODE
290
     1
  9
$FINGERPRINTGUID
  2
{b4f53c39-6bd5-4345-8283-733696aaf954}
  9
$VERSIONGUID
  2
{FAEB1C32-E019-11D5-929B-00C0DF256EC4}
  9
$EXTNAMES
290
     1
  9
$PSVPSCALE
 40
0.0
  9
$OLESTARTUP
290
     0
  0
ENDSEC
  0
SECTION
  2
CLASSES
  0
CLASS
  1
ACDBDICTIONARYWDFLT
  2
AcDbDictionaryWithDefault
  3
ObjectDBX Classes
 90
        0
280
     0
281
     0
  0
CLASS
  1
VISUALSTYLE
  2
AcDbVisualStyle
  3
ObjectDBX Classes
 90
     4095
280
     0
281
     0
  0
CLASS
  1
MATERIAL
  2
AcDbMaterial
  3
ObjectDBX Classes
 90
     1153
280
     0
281
     0
  0
CLASS
  1
SCALE
  2
AcDbScale
  3
ObjectDBX Classes
 90
     1153
280
     0
281
     0
  0
CLASS
  1
TABLESTYLE
  2
AcDbTableStyle
  3
ObjectDBX Classes
 90
     4095
280
     0
281
     0
  0
CLASS
  1
MLEADERSTYLE
  2
AcDbMLeaderStyle
  3
ACDB_MLEADERSTYLE_CLASS
 90
     4095
280
     0
281
     0
  0
CLASS
  1
SUN
  2
AcDbSun
  3
SCENEOE
 90
     1153
280
     0
281
     0
  0
CLASS
  1
DICTIONARYVAR
  2
AcDbDictionaryVar
  3
ObjectDBX Classes
 90
        0
280
     0
281
     0
  0
CLASS
  1
ACDBPLACEHOLDER
  2
AcDbPlaceHolder
  3
ObjectDBX Classes
 90
        0
280
     0
281
     0
  0
CLASS
  1
LAYOUT
  2
AcDbLayout
  3
ObjectDBX Classes
 90
        0
280
     0
281
     0
  0
ENDSEC
  0
SECTION
  2
TABLES
  0
TABLE
  2
VPORT
  5
8
102
{ACAD_XDICTIONARY
360
32F
102
}
330
0
100
AcDbSymbolTable
 70
     1
  0
VPORT
  5
29
330
8
100
AcDbSymbolTableRecord
100
AcDbViewportTableRecord
  2
*Active
 70
     0
 10
0.0
 20
0.0
 11
1.0
 21
1.0
 12
344.1869158878504
 22
148.5
 13
0.0
 23
0.0
 14
10.0
 24
10.0
 15
10.0
 25
10.0
 16
0.0
 26
0.0
 36
1.0
 17
0.0
 27
0.0
 37
0.0
 40
297.0
 41
1.972972972850329
 42
50.0
 43
0.0
 44
0.0
 50
0.0
 51
0.0
 71
     0
 72
   100
 73
     1
 74
     3
 75
     0
 76
     0
 77
     0
 78
     0
281
     0
 65
     1
110
0.0
120
0.0
130
0.0
111
1.0
121
0.0
131
0.0
112
0.0
122
1.0
132
0.0
 79
     0
146
0.0
  0
ENDTAB
  0
TABLE
  2
LTYPE
  5
5
330
0
100
AcDbSymbolTable
 70
     5
  0
LTYPE
  5
14
330
5
100
AcDbSymbolTableRecord
100
AcDbLinetypeTableRecord
  2
ByBlock
 70
     0
  3

 72
    65
 73
     0
 40
0.0
  0
LTYPE
  5
15
330
5
100
AcDbSymbolTableRecord
100
AcDbLinetypeTableRecord
  2
ByLayer
 70
     0
  3

 72
    65
 73
     0
 40
0.0
  0
LTYPE
  5
16
330
5
100
AcDbSymbolTableRecord
100
AcDbLinetypeTableRecord
  2
Continuous
 70
     0
  3
Solid line
 72
    65
 73
     0
 40
0.0
  0
LTYPE
  5
6E
330
5
100
AcDbSymbolTableRecord
100
AcDbLinetypeTableRecord
  2
CONTINOUS
 70
     0
  3
______________________________
 72
    65
 73
     0
 40
0.0
  0
LTYPE
  5
6F
330
5
100
AcDbSymbolTableRecord
100
AcDbLinetypeTableRecord
  2
DASHED
 70
     0
  3
__ __ __ __ __ __ __ __ __ __ __ __ __ __ __ __
 72
    65
 73
     2
 40
4.5
 49
3.0
 74
     0
 49
-1.5
 74
     0
  0
LTYPE
  5
70
330
5
100
AcDbSymbolTableRecord
100
AcDbLinetypeTableRecord
  2
PHANTOM
 70
     0
  3
______  __  __  ______  __  __  _____
 72
    65
 73
     6
 40
15.0
 49
7.5
 74
     0
 49
-1.5
 74
     0
 49
1.5
 74
     0
 49
-1.5
 74
     0
 49
1.5
 74
     0
 49
-1.5
 74
     0
  0
LTYPE
  5
71
330
5
100
AcDbSymbolTableRecord
100
AcDbLinetypeTableRecord
  2
CENTER
 70
     0
  3
____ _ ____ _ ____ _ ____ _ ____ _ ____
 72
    65
 73
     4
 40
12.0
 49
7.5
 74
     0
 49
-1.5
 74
     0
 49
1.5
 74
     0
 49
-1.5
 74
     0
  0
ENDTAB
  0
TABLE
  2
LAYER
  5
2
330
0
100
AcDbSymbolTable
 70
     3
  0
LAYER
  5
10
330
2
100
AcDbSymbolTableRecord
100
AcDbLayerTableRecord
  2
0
 70
     0
 62
     7
  6
Continuous
370
    -3
390
F
  0
LAYER
  5
294
330
2
100
AcDbSymbolTableRecord
100
AcDbLayerTableRecord
  2
Defpoints
 70
     0
 62
     7
  6
Continuous
290
     0
370
    -3
390
F
  0
LAYER
  5
2EE
330
2
100
AcDbSymbolTableRecord
100
AcDbLayerTableRecord
  2
AV
 70
     0
 62
     7
  6
Continuous
370
    -3
390
F
  0
ENDTAB
  0
TABLE
  2
STYLE
  5
3
330
0
100
AcDbSymbolTable
 70
     1
  0
STYLE
  5
11
330
3
100
AcDbSymbolTableRecord
100
AcDbTextStyleTableRecord
  2
Standard
 70
     0
 40
0.0
 41
1.0
 50
0.0
 71
     0
 42
2.5
  3
ROMANS
  4
BIGFONT
  0
ENDTAB
  0
TABLE
  2
VIEW
  5
6
330
0
100
AcDbSymbolTable
 70
     0
  0
ENDTAB
  0
TABLE
  2
UCS
  5
7
330
0
100
AcDbSymbolTable
 70
     0
  0
ENDTAB
  0
TABLE
  2
APPID
  5
9
330
0
100
AcDbSymbolTable
 70
     2
  0
APPID
  5
12
330
9
100
AcDbSymbolTableRecord
100
AcDbRegAppTableRecord
  2
ACAD
 70
     0
  0
APPID
  5
369
330
9
100
AcDbSymbolTableRecord
100
AcDbRegAppTableRecord
  2
ACAD_MLEADERVER
 70
     0
  0
ENDTAB
  0
TABLE
  2
DIMSTYLE
  5
A
330
0
100
AcDbSymbolTable
 70
     1
100
AcDbDimStyleTable
  0
DIMSTYLE
105
27
102
{ACAD_REACTORS
330
28E
330
2A1
330
2AE
330
2BB
330
2C7
330
2D4
330
2E1
102
}
330
A
100
AcDbSymbolTableRecord
100
AcDbDimStyleTableRecord
  2
ISO-25
 70
     0
 41
2.5
 42
0.625
 43
3.75
 44
1.25
 73
     0
 74
     0
 77
     1
 78
     8
140
2.5
141
2.5
143
0.03937007874016
147
0.625
171
     3
172
     1
178
     0
271
     2
272
     2
274
     3
278
    44
283
     0
284
     8
340
11
  0
ENDTAB
  0
TABLE
  2
BLOCK_RECORD
  5
1
330
0
100
AcDbSymbolTable
 70
    24
  0
BLOCK_RECORD
  5
1F
330
1
100
AcDbSymbolTableRecord
100
AcDbBlockTableRecord
  2
*Model_Space
340
22
  0
BLOCK_RECORD
  5
1B
330
1
100
AcDbSymbolTableRecord
100
AcDbBlockTableRecord
  2
*Paper_Space
340
1E
  0
BLOCK_RECORD
  5
23
330
1
100
AcDbSymbolTableRecord
100
AcDbBlockTableRecord
  2
*Paper_Space0
340
26
  0
BLOCK_RECORD
  5
72
330
1
100
AcDbSymbolTableRecord
100
AcDbBlockTableRecord
  2
UGA4670000
340
0
102
{BLKREFS
331
31D
102
}
  0
BLOCK_RECORD
  5
75
330
1
100
AcDbSymbolTableRecord
100
AcDbBlockTableRecord
  2
UGA4670001
340
0
102
{BLKREFS
331
280
102
}
  0
BLOCK_RECORD
  5
78
330
1
100
AcDbSymbolTableRecord
100
AcDbBlockTableRecord
  2
UGA4670002
340
0
102
{BLKREFS
331
281
102
}
  0
BLOCK_RECORD
  5
7B
330
1
100
AcDbSymbolTableRecord
100
AcDbBlockTableRecord
  2
UGA4670003
340
0
102
{BLKREFS
331
282
102
}
  0
BLOCK_RECORD
  5
7E
330
1
100
AcDbSymbolTableRecord
100
AcDbBlockTableRecord
  2
UGA4670004
340
0
102
{BLKREFS
331
283
102
}
  0
BLOCK_RECORD
  5
81
330
1
100
AcDbSymbolTableRecord
100
AcDbBlockTableRecord
  2
UGA4670005
340
0
102
{BLKREFS
331
284
102
}
  0
BLOCK_RECORD
  5
84
330
1
100
AcDbSymbolTableRecord
100
AcDbBlockTableRecord
  2
UGA4670006
340
0
102
{BLKREFS
331
285
102
}
  0
BLOCK_RECORD
  5
87
330
1
100
AcDbSymbolTableRecord
100
AcDbBlockTableRecord
  2
UGA4670007
340
0
102
{BLKREFS
331
286
102
}
  0
BLOCK_RECORD
  5
8A
330
1
100
AcDbSymbolTableRecord
100
AcDbBlockTableRecord
  2
UGA4670008
340
0
102
{BLKREFS
331
287
102
}
  0
BLOCK_RECORD
  5
8D
330
1
100
AcDbSymbolTableRecord
100
AcDbBlockTableRecord
  2
UGA4670009
340
0
102
{BLKREFS
331
288
102
}
  0
BLOCK_RECORD
  5
90
330
1
100
AcDbSymbolTableRecord
100
AcDbBlockTableRecord
  2
UGA4670010
340
0
102
{BLKREFS
331
289
102
}
  0
BLOCK_RECORD
  5
93
330
1
100
AcDbSymbolTableRecord
100
AcDbBlockTableRecord
  2
UGA4670011
340
0
102
{BLKREFS
331
28A
102
}
  0
BLOCK_RECORD
  5
96
330
1
100
AcDbSymbolTableRecord
100
AcDbBlockTableRecord
  2
UGA4670012
340
0
102
{BLKREFS
331
28B
102
}
  0
BLOCK_RECORD
  5
99
330
1
100
AcDbSymbolTableRecord
100
AcDbBlockTableRecord
  2
UGA4670013
340
0
102
{BLKREFS
331
28C
102
}
  0
BLOCK_RECORD
  5
9C
330
1
100
AcDbSymbolTableRecord
100
AcDbBlockTableRecord
  2
UGA4670014
340
0
102
{BLKREFS
331
28D
102
}
  0
BLOCK_RECORD
  5
28F
330
1
100
AcDbSymbolTableRecord
100
AcDbBlockTableRecord
  2
_Dot
340
0
102
{BLKREFS
331
29C
331
29B
331
2A9
331
2A8
331
2B6
331
2B5
331
2C2
331
2C1
331
2CF
331
2CE
331
2DC
331
2DB
331
2E9
331
2E8
102
}
  0
BLOCK_RECORD
  5
295
330
1
100
AcDbSymbolTableRecord
100
AcDbBlockTableRecord
  2
*D17
340
0
  0
BLOCK_RECORD
  5
2A2
330
1
100
AcDbSymbolTableRecord
100
AcDbBlockTableRecord
  2
*D18
340
0
  0
BLOCK_RECORD
  5
2AF
330
1
100
AcDbSymbolTableRecord
100
AcDbBlockTableRecord
  2
*D19
340
0
  0
BLOCK_RECORD
  5
2BC
330
1
100
AcDbSymbolTableRecord
100
AcDbBlockTableRecord
  2
*D20
340
0
  0
BLOCK_RECORD
  5
2C8
330
1
100
AcDbSymbolTableRecord
100
AcDbBlockTableRecord
  2
*D21
340
0
  0
BLOCK_RECORD
  5
2D5
330
1
100
AcDbSymbolTableRecord
100
AcDbBlockTableRecord
  2
*D22
340
0
  0
BLOCK_RECORD
  5
2E2
330
1
100
AcDbSymbolTableRecord
100
AcDbBlockTableRecord
  2
*D23
340
0
  0
ENDTAB
  0
ENDSEC
  0
SECTION
  2
BLOCKS
  0
BLOCK
  5
20
330
1F
100
AcDbEntity
  8
0
100
AcDbBlockBegin
  2
*Model_Space
 70
     0
 10
0.0
 20
0.0
 30
0.0
  3
*Model_Space
  1

  0
ENDBLK
  5
21
330
1F
100
AcDbEntity
  8
0
100
AcDbBlockEnd
  0
BLOCK
  5
1C
330
1B
100
AcDbEntity
 67
     1
  8
0
100
AcDbBlockBegin
  2
*Paper_Space
 70
     0
 10
0.0
 20
0.0
 30
0.0
  3
*Paper_Space
  1

  0
ENDBLK
  5
1D
330
1B
100
AcDbEntity
 67
     1
  8
0
100
AcDbBlockEnd
  0
BLOCK
  5
24
330
23
100
AcDbEntity
  8
0
100
AcDbBlockBegin
  2
*Paper_Space0
 70
     0
 10
0.0
 20
0.0
 30
0.0
  3
*Paper_Space0
  1

  0
ENDBLK
  5
25
330
23
100
AcDbEntity
  8
0
100
AcDbBlockEnd
  0
BLOCK
  5
73
330
72
100
AcDbEntity
  8
0
100
AcDbBlockBegin
  2
UGA4670000
 70
     0
 10
0.0
 20
0.0
 30
0.0
  3
UGA4670000
  1

  0
POINT
  5
9F
330
72
100
AcDbEntity
  8
0
 62
     0
100
AcDbPoint
 10
0.0
 20
0.0
 30
0.0
  0
LINE
  5
A0
330
72
100
AcDbEntity
  8
0
  6
Continuous
 62
     0
100
AcDbLine
 10
9.30908203125
 20
13.5
 30
0.0
 11
8.0
 21
13.5
 31
0.0
  0
LINE
  5
A1
330
72
100
AcDbEntity
  8
0
  6
Continuous
 62
     0
100
AcDbLine
 10
11.39990234375
 20
10.93637084960938
 30
0.0
 11
11.39990234375
 21
10.5
 31
0.0
  0
LINE
  5
A2
330
72
100
AcDbEntity
  8
0
  6
Continuous
 62
     0
100
AcDbLine
 10
10.500244140625
 20
4.500000953674316
 30
0.0
 11
8.850830078125
 21
4.500000953674316
 31
0.0
  0
LINE
  5
A3
330
72
100
AcDbEntity
  8
0
  6
Continuous
 62
     0
100
AcDbLine
 10
8.0
 20
13.5
 30
0.0
 11
8.0
 21
5.350908279418945
 31
0.0
  0
LINE
  5
A4
330
72
100
AcDbEntity
  8
0
  6
Continuous
 62
     0
100
AcDbLine
 10
10.500244140625
 20
4.500000953674316
 30
0.0
 11
10.500244140625
 21
3.000000953674316
 31
0.0
  0
LINE
  5
A5
330
72
100
AcDbEntity
  8
0
  6
Continuous
 62
     0
100
AcDbLine
 10
13.0
 20
10.5
 30
0.0
 11
11.39990234375
 21
10.5
 31
0.0
  0
LINE
  5
A6
330
72
100
AcDbEntity
  8
0
  6
Continuous
 62
     0
100
AcDbLine
 10
13.0
 20
15.0
 30
0.0
 11
13.0
 21
10.5
 31
0.0
  0
LINE
  5
A7
330
72
100
AcDbEntity
  8
0
  6
Continuous
 62
     0
100
AcDbLine
 10
10.500244140625
 20
3.000000953674316
 30
0.0
 11
6.5
 21
3.000000953674316
 31
0.0
  0
LINE
  5
A8
330
72
100
AcDbEntity
  8
0
  6
Continuous
 62
     0
100
AcDbLine
 10
13.0
 20
15.0
 30
0.0
 11
0.0
 21
15.0
 31
0.0
  0
LINE
  5
A9
330
72
100
AcDbEntity
  8
0
  6
Continuous
 62
     0
100
AcDbLine
 10
3.69091796875
 20
13.5
 30
0.0
 11
5.0
 21
13.5
 31
0.0
  0
LINE
  5
AA
330
72
100
AcDbEntity
  8
0
  6
Continuous
 62
     0
100
AcDbLine
 10
1.60009765625
 20
10.93637084960938
 30
0.0
 11
1.60009765625
 21
10.5
 31
0.0
  0
LINE
  5
AB
330
72
100
AcDbEntity
  8
0
  6
Continuous
 62
     0
100
AcDbLine
 10
2.499755859375
 20
4.500000953674316
 30
0.0
 11
4.149169921875
 21
4.500000953674316
 31
0.0
  0
LINE
  5
AC
330
72
100
AcDbEntity
  8
0
  6
Continuous
 62
     0
100
AcDbLine
 10
5.0
 20
13.5
 30
0.0
 11
5.0
 21
5.350908279418945
 31
0.0
  0
LINE
  5
AD
330
72
100
AcDbEntity
  8
0
  6
Continuous
 62
     0
100
AcDbLine
 10
2.499755859375
 20
4.500000953674316
 30
0.0
 11
2.499755859375
 21
3.000000953674316
 31
0.0
  0
LINE
  5
AE
330
72
100
AcDbEntity
  8
0
  6
Continuous
 62
     0
100
AcDbLine
 10
0.0
 20
10.5
 30
0.0
 11
1.60009765625
 21
10.5
 31
0.0
  0
LINE
  5
AF
330
72
100
AcDbEntity
  8
0
  6
Continuous
 62
     0
100
AcDbLine
 10
0.0
 20
15.0
 30
0.0
 11
0.0
 21
10.5
 31
0.0
  0
LINE
  5
B0
330
72
100
AcDbEntity
  8
0
  6
Continuous
 62
     0
100
AcDbLine
 10
2.499755859375
 20
3.000000953674316
 30
0.0
 11
6.5
 21
3.000000953674316
 31
0.0
  0
LINE
  5
B1
330
72
100
AcDbEntity
  8
0
  6
Continuous
 62
     0
100
AcDbLine
 10
38.30908203125
 20
13.5
 30
0.0
 11
37.0
 21
13.5
 31
0.0
  0
LINE
  5
B2
330
72
100
AcDbEntity
  8
0
  6
Continuous
 62
     0
100
AcDbLine
 10
40.39990234375
 20
10.93637084960938
 30
0.0
 11
40.39990234375
 21
10.5
 31
0.0
  0
LINE
  5
B3
330
72
100
AcDbEntity
  8
0
  6
Continuous
 62
     0
100
AcDbLine
 10
39.500244140625
 20
4.500000953674316
 30
0.0
 11
37.850830078125
 21
4.500000953674316
 31
0.0
  0
LINE
  5
B4
330
72
100
AcDbEntity
  8
0
  6
Continuous
 62
     0
100
AcDbLine
 10
37.0
 20
13.5
 30
0.0
 11
37.0
 21
5.350908279418945
 31
0.0
  0
LINE
  5
B5
330
72
100
AcDbEntity
  8
0
  6
Continuous
 62
     0
100
AcDbLine
 10
39.500244140625
 20
4.500000953674316
 30
0.0
 11
39.500244140625
 21
3.000000953674316
 31
0.0
  0
LINE
  5
B6
330
72
100
AcDbEntity
  8
0
  6
Continuous
 62
     0
100
AcDbLine
 10
42.0
 20
10.5
 30
0.0
 11
40.39990234375
 21
10.5
 31
0.0
  0
LINE
  5
B7
330
72
100
AcDbEntity
  8
0
  6
Continuous
 62
     0
100
AcDbLine
 10
42.0
 20
15.0
 30
0.0
 11
42.0
 21
10.5
 31
0.0
  0
LINE
  5
B8
330
72
100
AcDbEntity
  8
0
  6
Continuous
 62
     0
100
AcDbLine
 10
39.500244140625
 20
3.000000953674316
 30
0.0
 11
35.5
 21
3.000000953674316
 31
0.0
  0
LINE
  5
B9
330
72
100
AcDbEntity
  8
0
  6
Continuous
 62
     0
100
AcDbLine
 10
42.0
 20
15.0
 30
0.0
 11
35.5
 21
15.0
 31
0.0
  0
LINE
  5
BA
330
72
100
AcDbEntity
  8
0
  6
Continuous
 62
     0
100
AcDbLine
 10
32.69091796875
 20
13.5
 30
0.0
 11
34.0
 21
13.5
 31
0.0
  0
LINE
  5
BB
330
72
100
AcDbEntity
  8
0
  6
Continuous
 62
     0
100
AcDbLine
 10
30.60009765625
 20
10.93637084960938
 30
0.0
 11
30.60009765625
 21
10.5
 31
0.0
  0
LINE
  5
BC
330
72
100
AcDbEntity
  8
0
  6
Continuous
 62
     0
100
AcDbLine
 10
31.499755859375
 20
4.500000953674316
 30
0.0
 11
33.149169921875
 21
4.500000953674316
 31
0.0
  0
LINE
  5
BD
330
72
100
AcDbEntity
  8
0
  6
Continuous
 62
     0
100
AcDbLine
 10
34.0
 20
13.5
 30
0.0
 11
34.0
 21
5.350908279418945
 31
0.0
  0
LINE
  5
BE
330
72
100
AcDbEntity
  8
0
  6
Continuous
 62
     0
100
AcDbLine
 10
31.499755859375
 20
4.500000953674316
 30
0.0
 11
31.499755859375
 21
3.000000953674316
 31
0.0
  0
LINE
  5
BF
330
72
100
AcDbEntity
  8
0
  6
Continuous
 62
     0
100
AcDbLine
 10
29.0
 20
10.5
 30
0.0
 11
30.60009765625
 21
10.5
 31
0.0
  0
LINE
  5
C0
330
72
100
AcDbEntity
  8
0
  6
Continuous
 62
     0
100
AcDbLine
 10
29.0
 20
15.0
 30
0.0
 11
29.0
 21
10.5
 31
0.0
  0
LINE
  5
C1
330
72
100
AcDbEntity
  8
0
  6
Continuous
 62
     0
100
AcDbLine
 10
31.499755859375
 20
3.000000953674316
 30
0.0
 11
35.5
 21
3.000000953674316
 31
0.0
  0
LINE
  5
C2
330
72
100
AcDbEntity
  8
0
  6
Continuous
 62
     0
100
AcDbLine
 10
29.0
 20
15.0
 30
0.0
 11
35.5
 21
15.0
 31
0.0
  0
ARC
  5
C3
330
72
100
AcDbEntity
  8
0
  6
Continuous
 62
     0
100
AcDbCircle
 10
20.8271484375
 20
7.45269775390625
 30
0.0
 40
3.425454139709473
100
AcDbArc
 50
271.9278252189471
 51
347.4353650028576
  0
ARC
  5
C4
330
72
100
AcDbEntity
  8
0
  6
Continuous
 62
     0
100
AcDbCircle
 10
20.8271484375
 20
10.54730224609375
 30
0.0
 40
3.425454139709473
100
AcDbArc
 50
12.56463499714245
 51
88.0721747810529
  0
ARC
  5
C5
330
72
100
AcDbEntity
  8
0
  6
Continuous
 62
     0
100
AcDbCircle
 10
21.907958984375
 20
8.587905883789062
 30
0.0
 40
5.934543609619141
100
AcDbArc
 50
287.0437988333724
 51
348.2820352523723
  0
ARC
  5
C6
330
72
100
AcDbEntity
  8
0
  6
Continuous
 62
     0
100
AcDbCircle
 10
21.907958984375
 20
9.412094116210938
 30
0.0
 40
5.934543609619141
100
AcDbArc
 50
11.71796474762767
 51
72.9559826005742
  0
ARC
  5
C7
330
72
100
AcDbEntity
  8
0
  6
Continuous
 62
     0
100
AcDbCircle
 10
20.884765625
 20
11.92549133300781
 30
0.0
 40
9.42545223236084
100
AcDbArc
 50
270.3502154452142
 51
287.0437988333724
  0
ARC
  5
C8
330
72
100
AcDbEntity
  8
0
  6
Continuous
 62
     0
100
AcDbCircle
 10
20.884765625
 20
6.074508666992188
 30
0.0
 40
9.42545223236084
100
AcDbArc
 50
72.9559826005742
 51
89.64978455478577
  0
ARC
  5
C9
330
72
100
AcDbEntity
  8
0
  6
Continuous
 62
     0
100
AcDbCircle
 10
13.884765625
 20
9.0
 30
0.0
 40
10.53818130493164
100
AcDbArc
 50
347.435385493425
 51
12.56463499714245
  0
ARC
  5
CA
330
72
100
AcDbEntity
  8
0
  6
Continuous
 62
     0
100
AcDbCircle
 10
19.921142578125
 20
9.0
 30
0.0
 40
7.963635444641113
100
AcDbArc
 50
348.2820557429399
 51
11.71796474762767
  0
ARC
  5
CB
330
72
100
AcDbEntity
  8
0
  6
Continuous
 62
     0
100
AcDbCircle
 10
8.38916015625
 20
10.93637084960938
 30
0.0
 40
3.010909080505371
100
AcDbArc
 50
359.9999813306647
 51
47.6802767655788
  0
ARC
  5
CC
330
72
100
AcDbEntity
  8
0
  6
Continuous
 62
     0
100
AcDbCircle
 10
9.30908203125
 20
11.51454162597656
 30
0.0
 40
1.985454559326172
100
AcDbArc
 50
56.10670846538022
 51
90.00003665542401
  0
ARC
  5
CD
330
72
100
AcDbEntity
  8
0
  6
Continuous
 62
     0
100
AcDbCircle
 10
8.850830078125
 20
5.350908279418945
 30
0.0
 40
0.8509088754653931
100
AcDbArc
 50
180.0000223118003
 51
269.9999974955218
  0
ARC
  5
CE
330
72
100
AcDbEntity
  8
0
  6
Continuous
 62
     0
100
AcDbCircle
 10
21.0576171875
 20
7.45269775390625
 30
0.0
 40
3.425454139709473
100
AcDbArc
 50
192.5646334032807
 51
268.0721561117182
  0
ARC
  5
CF
330
72
100
AcDbEntity
  8
0
  6
Continuous
 62
     0
100
AcDbCircle
 10
21.0576171875
 20
10.54730224609375
 30
0.0
 40
3.425454139709473
100
AcDbArc
 50
91.92784388828177
 51
167.4353665967193
  0
ARC
  5
D0
330
72
100
AcDbEntity
  8
0
  6
Continuous
 62
     0
100
AcDbCircle
 10
19.976806640625
 20
8.587905883789062
 30
0.0
 40
5.934543609619141
100
AcDbArc
 50
191.7179631537659
 51
252.956182497293
  0
ARC
  5
D1
330
72
100
AcDbEntity
  8
0
  6
Continuous
 62
     0
100
AcDbCircle
 10
19.976806640625
 20
9.412094116210938
 30
0.0
 40
5.934543609619141
100
AcDbArc
 50
107.043817502707
 51
168.5072145227911
  0
ARC
  5
D2
330
72
100
AcDbEntity
  8
0
  6
Continuous
 62
     0
100
AcDbCircle
 10
21.0
 20
11.92549133300781
 30
0.0
 40
9.42545223236084
100
AcDbArc
 50
252.956182497293
 51
269.6497658854511
  0
ARC
  5
D3
330
72
100
AcDbEntity
  8
0
  6
Continuous
 62
     0
100
AcDbCircle
 10
21.0
 20
6.074508666992188
 30
0.0
 40
9.42545223236084
100
AcDbArc
 50
90.3502341145489
 51
107.0440360687605
  0
ARC
  5
D4
330
72
100
AcDbEntity
  8
0
  6
Continuous
 62
     0
100
AcDbCircle
 10
28.0
 20
9.0
 30
0.0
 40
10.53818130493164
100
AcDbArc
 50
167.4353665967193
 51
192.5646161004367
  0
ARC
  5
D5
330
72
100
AcDbEntity
  8
0
  6
Continuous
 62
     0
100
AcDbCircle
 10
21.963623046875
 20
9.0
 30
0.0
 40
7.963635444641113
100
AcDbArc
 50
168.2820368462341
 51
191.7179458509219
  0
ARC
  5
D6
330
72
100
AcDbEntity
  8
0
  6
Continuous
 62
     0
100
AcDbCircle
 10
4.61083984375
 20
10.93637084960938
 30
0.0
 40
3.010909080505371
100
AcDbArc
 50
132.3197248282829
 51
180.0000186693347
  0
ARC
  5
D7
330
72
100
AcDbEntity
  8
0
  6
Continuous
 62
     0
100
AcDbCircle
 10
3.69091796875
 20
11.51454162597656
 30
0.0
 40
1.985454559326172
100
AcDbArc
 50
89.99998201391067
 51
123.8932931284815
  0
ARC
  5
D8
330
72
100
AcDbEntity
  8
0
  6
Continuous
 62
     0
100
AcDbCircle
 10
4.149169921875
 20
5.350908279418945
 30
0.0
 40
0.8509088754653931
100
AcDbArc
 50
270.0000179860893
 51
0.0
  0
ARC
  5
D9
330
72
100
AcDbEntity
  8
0
  6
Continuous
 62
     0
100
AcDbCircle
 10
49.8271484375
 20
7.45269775390625
 30
0.0
 40
3.425454139709473
100
AcDbArc
 50
271.9278252189471
 51
347.4353650028576
  0
ARC
  5
DA
330
72
100
AcDbEntity
  8
0
  6
Continuous
 62
     0
100
AcDbCircle
 10
49.8271484375
 20
10.54730224609375
 30
0.0
 40
3.425454139709473
100
AcDbArc
 50
12.56463499714245
 51
88.0721747810529
  0
ARC
  5
DB
330
72
100
AcDbEntity
  8
0
  6
Continuous
 62
     0
100
AcDbCircle
 10
50.907958984375
 20
8.587905883789062
 30
0.0
 40
5.934543609619141
100
AcDbArc
 50
287.0437988333724
 51
348.2820352523723
  0
ARC
  5
DC
330
72
100
AcDbEntity
  8
0
  6
Continuous
 62
     0
100
AcDbCircle
 10
50.907958984375
 20
9.412094116210938
 30
0.0
 40
5.934543609619141
100
AcDbArc
 50
11.71796474762767
 51
72.9559826005742
  0
ARC
  5
DD
330
72
100
AcDbEntity
  8
0
  6
Continuous
 62
     0
100
AcDbCircle
 10
49.884765625
 20
11.92549133300781
 30
0.0
 40
9.42545223236084
100
AcDbArc
 50
270.3502154452142
 51
287.0437988333724
  0
ARC
  5
DE
330
72
100
AcDbEntity
  8
0
  6
Continuous
 62
     0
100
AcDbCircle
 10
49.884765625
 20
6.074508666992188
 30
0.0
 40
9.42545223236084
100
AcDbArc
 50
72.9559826005742
 51
89.64978455478577
  0
ARC
  5
DF
330
72
100
AcDbEntity
  8
0
  6
Continuous
 62
     0
100
AcDbCircle
 10
42.884765625
 20
9.0
 30
0.0
 40
10.53818130493164
100
AcDbArc
 50
347.435385493425
 51
12.56463499714245
  0
ARC
  5
E0
330
72
100
AcDbEntity
  8
0
  6
Continuous
 62
     0
100
AcDbCircle
 10
48.921142578125
 20
9.0
 30
0.0
 40
7.963635444641113
100
AcDbArc
 50
348.2820557429399
 51
11.71796474762767
  0
ARC
  5
E1
330
72
100
AcDbEntity
  8
0
  6
Continuous
 62
     0
100
AcDbCircle
 10
37.38916015625
 20
10.93637084960938
 30
0.0
 40
3.010909080505371
100
AcDbArc
 50
359.9999813306647
 51
47.6802767655788
  0
ARC
  5
E2
330
72
100
AcDbEntity
  8
0
  6
Continuous
 62
     0
100
AcDbCircle
 10
38.30908203125
 20
11.51454162597656
 30
0.0
 40
1.985454559326172
100
AcDbArc
 50
56.10670846538022
 51
90.00003665542401
  0
ARC
  5
E3
330
72
100
AcDbEntity
  8
0
  6
Continuous
 62
     0
100
AcDbCircle
 10
37.850830078125
 20
5.350908279418945
 30
0.0
 40
0.8509088754653931
100
AcDbArc
 50
180.0000223118003
 51
269.9999974955218
  0
ARC
  5
E4
330
72
100
AcDbEntity
  8
0
  6
Continuous
 62
     0
100
AcDbCircle
 10
50.0576171875
 20
7.45269775390625
 30
0.0
 40
3.425454139709473
100
AcDbArc
 50
192.5646334032807
 51
268.0721561117182
  0
ARC
  5
E5
330
72
100
AcDbEntity
  8
0
  6
Continuous
 62
     0
100
AcDbCircle
 10
50.0576171875
 20
10.54730224609375
 30
0.0
 40
3.425454139709473
100
AcDbArc
 50
91.92784388828177
 51
167.4353665967193
  0
ARC
  5
E6
330
72
100
AcDbEntity
  8
0
  6
Continuous
 62
     0
100
AcDbCircle
 10
48.976806640625
 20
8.587905883789062
 30
0.0
 40
5.934543609619141
100
AcDbArc
 50
191.7179631537659
 51
252.956182497293
  0
ARC
  5
E7
330
72
100
AcDbEntity
  8
0
  6
Continuous
 62
     0
100
AcDbCircle
 10
48.976806640625
 20
9.412094116210938
 30
0.0
 40
5.934543609619141
100
AcDbArc
 50
107.043817502707
 51
168.5072145227911
  0
ARC
  5
E8
330
72
100
AcDbEntity
  8
0
  6
Continuous
 62
     0
100
AcDbCircle
 10
50.0
 20
11.92549133300781
 30
0.0
 40
9.42545223236084
100
AcDbArc
 50
252.956182497293
 51
269.6497658854511
  0
ARC
  5
E9
330
72
100
AcDbEntity
  8
0
  6
Continuous
 62
     0
100
AcDbCircle
 10
50.0
 20
6.074508666992188
 30
0.0
 40
9.42545223236084
100
AcDbArc
 50
90.3502341145489
 51
107.0440360687605
  0
ARC
  5
EA
330
72
100
AcDbEntity
  8
0
  6
Continuous
 62
     0
100
AcDbCircle
 10
57.0
 20
9.0
 30
0.0
 40
10.53818130493164
100
AcDbArc
 50
167.4353665967193
 51
192.5646161004367
  0
ARC
  5
EB
330
72
100
AcDbEntity
  8
0
  6
Continuous
 62
     0
100
AcDbCircle
 10
50.963623046875
 20
9.0
 30
0.0
 40
7.963635444641113
100
AcDbArc
 50
168.2820368462341
 51
191.7179458509219
  0
ARC
  5
EC
330
72
100
AcDbEntity
  8
0
  6
Continuous
 62
     0
100
AcDbCircle
 10
33.61083984375
 20
10.93637084960938
 30
0.0
 40
3.010909080505371
100
AcDbArc
 50
132.3197248282829
 51
180.0000186693347
  0
ARC
  5
ED
330
72
100
AcDbEntity
  8
0
  6
Continuous
 62
     0
100
AcDbCircle
 10
32.69091796875
 20
11.51454162597656
 30
0.0
 40
1.985454559326172
100
AcDbArc
 50
89.99998201391067
 51
123.8932931284815
  0
ARC
  5
EE
330
72
100
AcDbEntity
  8
0
  6
Continuous
 62
     0
100
AcDbCircle
 10
33.149169921875
 20
5.350908279418945
 30
0.0
 40
0.8509088754653931
100
AcDbArc
 50
270.0000179860893
 51
0.0
  0
ENDBLK
  5
74
330
72
100
AcDbEntity
  8
0
100
AcDbBlockEnd
  0
BLOCK
  5
76
330
75
100
AcDbEntity
  8
0
100
AcDbBlockBegin
  2
UGA4670001
 70
     0
 10
0.0
 20
0.0
 30
0.0
  3
UGA4670001
  1

  0
LINE
  5
EF
330
75
100
AcDbEntity
  8
0
  6
Continuous
 62
     0
100
AcDbLine
 10
-329.4344841096635
 20
248.1615323756115
 30
0.0
 11
-329.4344841096635
 21
213.3615323756115
 31
0.0
  0
LINE
  5
F0
330
75
100
AcDbEntity
  8
0
  6
Continuous
 62
     0
100
AcDbLine
 10
-165.4344841096634
 20
248.1615323756115
 30
0.0
 11
-165.4344841096634
 21
213.3615323756115
 31
0.0
  0
LINE
  5
F1
330
75
100
AcDbEntity
  8
0
  6
Continuous
 62
     0
100
AcDbLine
 10
-167.4344841096634
 20
208.3615323756115
 30
0.0
 11
-327.4344841096635
 21
208.3615323756115
 31
0.0
  0
LINE
  5
F2
330
75
100
AcDbEntity
  8
0
  6
Continuous
 62
     0
100
AcDbLine
 10
-167.4344841096634
 20
211.3615323756115
 30
0.0
 11
-327.4344841096635
 21
211.3615323756115
 31
0.0
  0
LINE
  5
F3
330
75
100
AcDbEntity
  8
0
  6
Continuous
 62
     0
100
AcDbLine
 10
-162.4344841096634
 20
248.1615323756115
 30
0.0
 11
-162.4344841096634
 21
213.3615323756115
 31
0.0
  0
LINE
  5
F4
330
75
100
AcDbEntity
  8
0
  6
Continuous
 62
     0
100
AcDbLine
 10
-332.4344841096635
 20
248.1615323756115
 30
0.0
 11
-332.4344841096635
 21
213.3615323756115
 31
0.0
  0
LINE
  5
F5
330
75
100
AcDbEntity
  8
0
  6
Continuous
 62
     0
100
AcDbLine
 10
-332.4344841096635
 20
248.1615323756115
 30
0.0
 11
-329.4344841096635
 21
248.1615323756115
 31
0.0
  0
LINE
  5
F6
330
75
100
AcDbEntity
  8
0
  6
Continuous
 62
     0
100
AcDbLine
 10
-165.4344841096634
 20
248.1615323756115
 30
0.0
 11
-162.4344841096634
 21
248.1615323756115
 31
0.0
  0
LINE
  5
F7
330
75
100
AcDbEntity
  8
0
  6
CENTER
 62
     0
100
AcDbLine
 10
-333.7461825074006
 20
244.3615323756115
 30
0.0
 11
-327.8094833023372
 21
244.3615323756115
 31
0.0
  0
LINE
  5
F8
330
75
100
AcDbEntity
  8
0
  6
CENTER
 62
     0
100
AcDbLine
 10
-161.8283849291062
 20
244.3615323756115
 30
0.0
 11
-165.9928887243886
 21
244.3615323756115
 31
0.0
  0
LINE
  5
F9
330
75
100
AcDbEntity
  8
0
  6
DASHED
 62
     0
100
AcDbLine
 10
-332.4344841096635
 20
247.4615323756115
 30
0.0
 11
-332.1044841096635
 21
247.4615323756115
 31
0.0
  0
LINE
  5
FA
330
75
100
AcDbEntity
  8
0
  6
DASHED
 62
     0
100
AcDbLine
 10
-332.4344841096635
 20
241.2615323756115
 30
0.0
 11
-332.1044841096635
 21
241.2615323756115
 31
0.0
  0
LINE
  5
FB
330
75
100
AcDbEntity
  8
0
  6
DASHED
 62
     0
100
AcDbLine
 10
-331.1044841096635
 20
246.4615323756115
 30
0.0
 11
-329.4344841096635
 21
246.4615323756115
 31
0.0
  0
LINE
  5
FC
330
75
100
AcDbEntity
  8
0
  6
DASHED
 62
     0
100
AcDbLine
 10
-331.1044841096635
 20
242.2615323756115
 30
0.0
 11
-329.4344841096635
 21
242.2615323756115
 31
0.0
  0
LINE
  5
FD
330
75
100
AcDbEntity
  8
0
  6
DASHED
 62
     0
100
AcDbLine
 10
-331.1044841096635
 20
246.4615323756115
 30
0.0
 11
-331.1044841096635
 21
242.2615323756115
 31
0.0
  0
LINE
  5
FE
330
75
100
AcDbEntity
  8
0
  6
DASHED
 62
     0
100
AcDbLine
 10
-332.1044841096635
 20
247.4615323756115
 30
0.0
 11
-332.1044841096635
 21
241.2615323756115
 31
0.0
  0
LINE
  5
FF
330
75
100
AcDbEntity
  8
0
  6
DASHED
 62
     0
100
AcDbLine
 10
-332.1044841096634
 20
247.4615323756115
 30
0.0
 11
-331.1044841096634
 21
246.4615323756115
 31
0.0
  0
LINE
  5
100
330
75
100
AcDbEntity
  8
0
  6
DASHED
 62
     0
100
AcDbLine
 10
-332.1044841096633
 20
241.2615323756114
 30
0.0
 11
-331.1044841096633
 21
242.2615323756114
 31
0.0
  0
LINE
  5
101
330
75
100
AcDbEntity
  8
0
  6
DASHED
 62
     0
100
AcDbLine
 10
-162.4344841096634
 20
247.4615323756115
 30
0.0
 11
-162.7644841096634
 21
247.4615323756115
 31
0.0
  0
LINE
  5
102
330
75
100
AcDbEntity
  8
0
  6
DASHED
 62
     0
100
AcDbLine
 10
-162.4344841096634
 20
241.2615323756115
 30
0.0
 11
-162.7644841096634
 21
241.2615323756115
 31
0.0
  0
LINE
  5
103
330
75
100
AcDbEntity
  8
0
  6
DASHED
 62
     0
100
AcDbLine
 10
-163.7644841096634
 20
246.4615323756115
 30
0.0
 11
-165.4344841096634
 21
246.4615323756115
 31
0.0
  0
LINE
  5
104
330
75
100
AcDbEntity
  8
0
  6
DASHED
 62
     0
100
AcDbLine
 10
-163.7644841096634
 20
242.2615323756115
 30
0.0
 11
-165.4344841096634
 21
242.2615323756115
 31
0.0
  0
LINE
  5
105
330
75
100
AcDbEntity
  8
0
  6
DASHED
 62
     0
100
AcDbLine
 10
-163.7644841096634
 20
246.4615323756115
 30
0.0
 11
-163.7644841096634
 21
242.2615323756115
 31
0.0
  0
LINE
  5
106
330
75
100
AcDbEntity
  8
0
  6
DASHED
 62
     0
100
AcDbLine
 10
-162.7644841096634
 20
247.4615323756115
 30
0.0
 11
-162.7644841096634
 21
241.2615323756115
 31
0.0
  0
LINE
  5
107
330
75
100
AcDbEntity
  8
0
  6
DASHED
 62
     0
100
AcDbLine
 10
-163.7644841096634
 20
242.2615323756115
 30
0.0
 11
-162.7644841096634
 21
241.2615323756114
 31
0.0
  0
LINE
  5
108
330
75
100
AcDbEntity
  8
0
  6
DASHED
 62
     0
100
AcDbLine
 10
-163.7644841096633
 20
246.4615323756113
 30
0.0
 11
-162.7644841096633
 21
247.4615323756114
 31
0.0
  0
ARC
  5
109
330
75
100
AcDbEntity
  8
0
  6
Continuous
 62
     0
100
AcDbCircle
 10
-327.4344841096635
 20
213.3615323756115
 30
0.0
 40
2.0
100
AcDbArc
 50
180.0
 51
270.0
  0
ARC
  5
10A
330
75
100
AcDbEntity
  8
0
  6
Continuous
 62
     0
100
AcDbCircle
 10
-167.4344841096634
 20
213.3615323756115
 30
0.0
 40
2.0
100
AcDbArc
 50
270.0
 51
0.0
  0
ARC
  5
10B
330
75
100
AcDbEntity
  8
0
  6
Continuous
 62
     0
100
AcDbCircle
 10
-167.4344841096634
 20
213.3615323756115
 30
0.0
 40
5.0
100
AcDbArc
 50
270.0
 51
0.0
  0
ARC
  5
10C
330
75
100
AcDbEntity
  8
0
  6
Continuous
 62
     0
100
AcDbCircle
 10
-327.4344841096635
 20
213.3615323756115
 30
0.0
 40
5.0
100
AcDbArc
 50
180.0
 51
270.0
  0
ENDBLK
  5
77
330
75
100
AcDbEntity
  8
0
100
AcDbBlockEnd
  0
BLOCK
  5
79
330
78
100
AcDbEntity
  8
0
100
AcDbBlockBegin
  2
UGA4670002
 70
     0
 10
0.0
 20
0.0
 30
0.0
  3
UGA4670002
  1

  0
LINE
  5
10D
330
78
100
AcDbEntity
  8
0
  6
DASHED
 62
     0
100
AcDbLine
 10
-324.6894841096631
 20
242.3615323756111
 30
0.0
 11
-324.3894841096631
 21
242.6615323756111
 31
0.0
  0
LINE
  5
10E
330
78
100
AcDbEntity
  8
0
  6
DASHED
 62
     0
100
AcDbLine
 10
-332.1394841096634
 20
241.3615323756115
 30
0.0
 11
-332.1394841096634
 21
247.3615323756115
 31
0.0
  0
LINE
  5
10F
330
78
100
AcDbEntity
  8
0
  6
DASHED
 62
     0
100
AcDbLine
 10
-332.3894841096634
 20
241.3615323756115
 30
0.0
 11
-332.3894841096634
 21
247.3615323756115
 31
0.0
  0
LINE
  5
110
330
78
100
AcDbEntity
  8
0
  6
DASHED
 62
     0
100
AcDbLine
 10
-324.3894841096633
 20
246.0615323756114
 30
0.0
 11
-324.6894841096633
 21
246.3615323756115
 31
0.0
  0
LINE
  5
111
330
78
100
AcDbEntity
  8
0
  6
DASHED
 62
     0
100
AcDbLine
 10
-324.6894841096635
 20
242.3615323756115
 30
0.0
 11
-324.6894841096635
 21
246.3615323756115
 31
0.0
  0
LINE
  5
112
330
78
100
AcDbEntity
  8
0
  6
DASHED
 62
     0
100
AcDbLine
 10
-332.1394841096634
 20
247.3615323756115
 30
0.0
 11
-330.9894841096634
 21
246.3615323756115
 31
0.0
  0
LINE
  5
113
330
78
100
AcDbEntity
  8
0
  6
DASHED
 62
     0
100
AcDbLine
 10
-330.9894841096635
 20
242.6615323756115
 30
0.0
 11
-324.3894841096635
 21
242.6615323756115
 31
0.0
  0
LINE
  5
114
330
78
100
AcDbEntity
  8
0
  6
DASHED
 62
     0
100
AcDbLine
 10
-332.1394841096635
 20
241.3615323756118
 30
0.0
 11
-330.9894841096635
 21
242.3615323756118
 31
0.0
  0
LINE
  5
115
330
78
100
AcDbEntity
  8
0
  6
DASHED
 62
     0
100
AcDbLine
 10
-330.9894841096635
 20
242.3615323756115
 30
0.0
 11
-330.9894841096635
 21
246.3615323756115
 31
0.0
  0
LINE
  5
116
330
78
100
AcDbEntity
  8
0
  6
DASHED
 62
     0
100
AcDbLine
 10
-332.3894841096635
 20
241.3615323756115
 30
0.0
 11
-332.1394841096635
 21
241.3615323756115
 31
0.0
  0
LINE
  5
117
330
78
100
AcDbEntity
  8
0
  6
DASHED
 62
     0
100
AcDbLine
 10
-324.3894841096634
 20
242.6615323756115
 30
0.0
 11
-324.3894841096634
 21
246.0615323756115
 31
0.0
  0
LINE
  5
118
330
78
100
AcDbEntity
  8
0
  6
CENTER
 62
     0
100
AcDbLine
 10
-333.2293535729925
 20
244.3615323756115
 30
0.0
 11
-322.1928417654942
 21
244.3615323756115
 31
0.0
  0
LINE
  5
119
330
78
100
AcDbEntity
  8
0
  6
DASHED
 62
     0
100
AcDbLine
 10
-332.3894841096635
 20
247.3615323756115
 30
0.0
 11
-332.1394841096635
 21
247.3615323756115
 31
0.0
  0
LINE
  5
11A
330
78
100
AcDbEntity
  8
0
  6
DASHED
 62
     0
100
AcDbLine
 10
-330.9894841096635
 20
242.3615323756115
 30
0.0
 11
-324.6894841096635
 21
242.3615323756115
 31
0.0
  0
LINE
  5
11B
330
78
100
AcDbEntity
  8
0
  6
DASHED
 62
     0
100
AcDbLine
 10
-330.9894841096635
 20
246.0615323756115
 30
0.0
 11
-324.3894841096635
 21
246.0615323756115
 31
0.0
  0
LINE
  5
11C
330
78
100
AcDbEntity
  8
0
  6
DASHED
 62
     0
100
AcDbLine
 10
-330.9894841096635
 20
246.3615323756115
 30
0.0
 11
-324.6894841096635
 21
246.3615323756115
 31
0.0
  0
ENDBLK
  5
7A
330
78
100
AcDbEntity
  8
0
100
AcDbBlockEnd
  0
BLOCK
  5
7C
330
7B
100
AcDbEntity
  8
0
100
AcDbBlockBegin
  2
UGA4670003
 70
     0
 10
0.0
 20
0.0
 30
0.0
  3
UGA4670003
  1

  0
LINE
  5
11D
330
7B
100
AcDbEntity
  8
0
  6
Continuous
 62
     0
100
AcDbLine
 10
-56.88153246562291
 20
144.0241177568693
 30
0.0
 11
-56.88153246562291
 21
119.5241177568693
 31
0.0
  0
LINE
  5
11E
330
7B
100
AcDbEntity
  8
0
  6
DASHED
 62
     0
100
AcDbLine
 10
-64.88153246562291
 20
142.9017799743278
 30
0.0
 11
-64.88153246562291
 21
121.1464555394107
 31
0.0
  0
LINE
  5
11F
330
7B
100
AcDbEntity
  8
0
  6
DASHED
 62
     0
100
AcDbLine
 10
-59.88153246562291
 20
119.5851343200961
 30
0.0
 11
-59.88153246562291
 21
119.5241177568693
 31
0.0
  0
LINE
  5
120
330
7B
100
AcDbEntity
  8
0
  6
Continuous
 62
     0
100
AcDbLine
 10
-59.88153246562291
 20
119.5241177568693
 30
0.0
 11
-59.88153246562291
 21
105.5591802147697
 31
0.0
  0
LINE
  5
121
330
7B
100
AcDbEntity
  8
0
  6
CENTER
 62
     0
100
AcDbLine
 10
-60.88153246562291
 20
129.3141177568693
 30
0.0
 11
-60.88153246562291
 21
121.7341177568693
 31
0.0
  0
LINE
  5
122
330
7B
100
AcDbEntity
  8
0
  6
CENTER
 62
     0
100
AcDbLine
 10
-64.6715324656229
 20
125.5241177568693
 30
0.0
 11
-57.09153246562289
 21
125.5241177568693
 31
0.0
  0
LINE
  5
123
330
7B
100
AcDbEntity
  8
0
  6
CENTER
 62
     0
100
AcDbLine
 10
-60.88153246562291
 20
142.3141177568693
 30
0.0
 11
-60.88153246562291
 21
134.7341177568693
 31
0.0
  0
LINE
  5
124
330
7B
100
AcDbEntity
  8
0
  6
CENTER
 62
     0
100
AcDbLine
 10
-64.6715324656229
 20
138.5241177568693
 30
0.0
 11
-57.09153246562289
 21
138.5241177568693
 31
0.0
  0
LINE
  5
125
330
7B
100
AcDbEntity
  8
0
  6
DASHED
 62
     0
100
AcDbLine
 10
-57.58153246562281
 20
109.8241177568693
 30
0.0
 11
-59.58153246562283
 21
107.8241177568693
 31
0.0
  0
LINE
  5
126
330
7B
100
AcDbEntity
  8
0
  6
DASHED
 62
     0
100
AcDbLine
 10
-59.58153246562296
 20
116.8241177568693
 30
0.0
 11
-57.58153246562294
 21
114.8241177568692
 31
0.0
  0
LINE
  5
127
330
7B
100
AcDbEntity
  8
0
  6
DASHED
 62
     0
100
AcDbLine
 10
-57.5815324656229
 20
114.8241177568693
 30
0.0
 11
-57.5815324656229
 21
109.8241177568693
 31
0.0
  0
LINE
  5
128
330
7B
100
AcDbEntity
  8
0
  6
DASHED
 62
     0
100
AcDbLine
 10
-59.5815324656229
 20
116.8241177568693
 30
0.0
 11
-59.5815324656229
 21
107.8241177568693
 31
0.0
  0
LINE
  5
129
330
7B
100
AcDbEntity
  8
0
  6
DASHED
 62
     0
100
AcDbLine
 10
-59.58153246562296
 20
116.8241177568693
 30
0.0
 11
-59.88153246562291
 21
116.8241177568693
 31
0.0
  0
LINE
  5
12A
330
7B
100
AcDbEntity
  8
0
  6
CENTER
 62
     0
100
AcDbLine
 10
-55.96257506601847
 20
112.3241177568693
 30
0.0
 11
-61.00774435567334
 21
112.3241177568693
 31
0.0
  0
LINE
  5
12B
330
7B
100
AcDbEntity
  8
0
  6
DASHED
 62
     0
100
AcDbLine
 10
-56.88153246562291
 20
114.8241177568693
 30
0.0
 11
-57.5815324656229
 21
114.8241177568693
 31
0.0
  0
LINE
  5
12C
330
7B
100
AcDbEntity
  8
0
  6
DASHED
 62
     0
100
AcDbLine
 10
-59.5815324656229
 20
107.8241177568693
 30
0.0
 11
-59.88153246562291
 21
107.8241177568693
 31
0.0
  0
LINE
  5
12D
330
7B
100
AcDbEntity
  8
0
  6
DASHED
 62
     0
100
AcDbLine
 10
-56.88153246562291
 20
109.8241177568693
 30
0.0
 11
-57.5815324656229
 21
109.8241177568693
 31
0.0
  0
LINE
  5
12E
330
7B
100
AcDbEntity
  8
0
  6
DASHED
 62
     0
100
AcDbLine
 10
-63.89898487206023
 20
143.9016276694843
 30
0.0
 11
-57.08153246562293
 21
144.0206267438837
 31
0.0
  0
LINE
  5
12F
330
7B
100
AcDbEntity
  8
0
  6
DASHED
 62
     0
100
AcDbLine
 10
-63.89898487206018
 20
120.1466078442544
 30
0.0
 11
-57.08153246562289
 21
120.027608769855
 31
0.0
  0
LINE
  5
130
330
7B
100
AcDbEntity
  8
0
  6
Continuous
 62
     0
100
AcDbLine
 10
-58.89898487206018
 20
104.5593325196133
 30
0.0
 11
-56.88153246562289
 21
104.5241177568693
 31
0.0
  0
LINE
  5
131
330
7B
100
AcDbEntity
  8
0
  6
Continuous
 62
     0
100
AcDbLine
 10
-56.88153246562291
 20
119.5241177568693
 30
0.0
 11
-56.88153246562291
 21
104.5241177568693
 31
0.0
  0
LINE
  5
132
330
7B
100
AcDbEntity
  8
0
  6
Continuous
 62
     0
100
AcDbLine
 10
-57.08153246562289
 20
120.027608769855
 30
0.0
 11
-56.8815324656229
 21
120.0241177568694
 31
0.0
  0
LINE
  5
133
330
7B
100
AcDbEntity
  8
0
  6
Continuous
 62
     0
100
AcDbLine
 10
-57.08153246562293
 20
144.0206267438837
 30
0.0
 11
-56.88153246562295
 21
144.0241177568693
 31
0.0
  0
ARC
  5
134
330
7B
100
AcDbEntity
  8
0
  6
Continuous
 62
     0
100
AcDbCircle
 10
-58.88153246562291
 20
105.5591802147696
 30
0.0
 40
1.0
100
AcDbArc
 50
180.0
 51
268.9999999999998
  0
ARC
  5
135
330
7B
100
AcDbEntity
  8
0
  6
DASHED
 62
     0
100
AcDbCircle
 10
-63.88153246562291
 20
142.9017799743278
 30
0.0
 40
1.0
100
AcDbArc
 50
91.00000000000014
 51
180.0
  0
ARC
  5
136
330
7B
100
AcDbEntity
  8
0
  6
DASHED
 62
     0
100
AcDbCircle
 10
-63.88153246562291
 20
121.1464555394107
 30
0.0
 40
1.0
100
AcDbArc
 50
180.0
 51
268.9999999999998
  0
ARC
  5
137
330
7B
100
AcDbEntity
  8
0
  6
DASHED
 62
     0
100
AcDbCircle
 10
-60.38153246562291
 20
119.5851343200961
 30
0.0
 40
0.5
100
AcDbArc
 50
0.0
 51
88.99999999999987
  0
CIRCLE
  5
138
330
7B
100
AcDbEntity
  8
0
  6
DASHED
 62
     0
100
AcDbCircle
 10
-60.88153246562291
 20
138.5241177568693
 30
0.0
 40
2.0
  0
CIRCLE
  5
139
330
7B
100
AcDbEntity
  8
0
  6
DASHED
 62
     0
100
AcDbCircle
 10
-60.88153246562291
 20
138.5241177568693
 30
0.0
 40
1.75
  0
CIRCLE
  5
13A
330
7B
100
AcDbEntity
  8
0
  6
DASHED
 62
     0
100
AcDbCircle
 10
-60.88153246562291
 20
125.5241177568693
 30
0.0
 40
1.75
  0
CIRCLE
  5
13B
330
7B
100
AcDbEntity
  8
0
  6
DASHED
 62
     0
100
AcDbCircle
 10
-60.88153246562291
 20
125.5241177568693
 30
0.0
 40
2.0
  0
ENDBLK
  5
7D
330
7B
100
AcDbEntity
  8
0
100
AcDbBlockEnd
  0
BLOCK
  5
7F
330
7E
100
AcDbEntity
  8
0
100
AcDbBlockBegin
  2
UGA4670004
 70
     0
 10
0.0
 20
0.0
 30
0.0
  3
UGA4670004
  1

  0
LINE
  5
13C
330
7E
100
AcDbEntity
  8
0
  6
DASHED
 62
     0
100
AcDbLine
 10
-170.1794841096634
 20
246.3615323756115
 30
0.0
 11
-170.4794841096634
 21
246.0615323756115
 31
0.0
  0
LINE
  5
13D
330
7E
100
AcDbEntity
  8
0
  6
DASHED
 62
     0
100
AcDbLine
 10
-162.7294841096634
 20
247.3615323756115
 30
0.0
 11
-162.7294841096634
 21
241.3615323756115
 31
0.0
  0
LINE
  5
13E
330
7E
100
AcDbEntity
  8
0
  6
DASHED
 62
     0
100
AcDbLine
 10
-162.4794841096634
 20
247.3615323756115
 30
0.0
 11
-162.4794841096634
 21
241.3615323756115
 31
0.0
  0
LINE
  5
13F
330
7E
100
AcDbEntity
  8
0
  6
DASHED
 62
     0
100
AcDbLine
 10
-170.4794841096635
 20
242.6615323756115
 30
0.0
 11
-170.1794841096635
 21
242.3615323756115
 31
0.0
  0
LINE
  5
140
330
7E
100
AcDbEntity
  8
0
  6
DASHED
 62
     0
100
AcDbLine
 10
-170.1794841096633
 20
246.3615323756115
 30
0.0
 11
-170.1794841096633
 21
242.3615323756115
 31
0.0
  0
LINE
  5
141
330
7E
100
AcDbEntity
  8
0
  6
DASHED
 62
     0
100
AcDbLine
 10
-162.7294841096633
 20
241.3615323756115
 30
0.0
 11
-163.8794841096633
 21
242.3615323756116
 31
0.0
  0
LINE
  5
142
330
7E
100
AcDbEntity
  8
0
  6
DASHED
 62
     0
100
AcDbLine
 10
-163.8794841096634
 20
246.0615323756115
 30
0.0
 11
-170.4794841096634
 21
246.0615323756115
 31
0.0
  0
LINE
  5
143
330
7E
100
AcDbEntity
  8
0
  6
DASHED
 62
     0
100
AcDbLine
 10
-162.7294841096634
 20
247.3615323756116
 30
0.0
 11
-163.8794841096634
 21
246.3615323756115
 31
0.0
  0
LINE
  5
144
330
7E
100
AcDbEntity
  8
0
  6
DASHED
 62
     0
100
AcDbLine
 10
-163.8794841096634
 20
246.3615323756115
 30
0.0
 11
-163.8794841096634
 21
242.3615323756115
 31
0.0
  0
LINE
  5
145
330
7E
100
AcDbEntity
  8
0
  6
DASHED
 62
     0
100
AcDbLine
 10
-162.4794841096634
 20
247.3615323756115
 30
0.0
 11
-162.7294841096634
 21
247.3615323756115
 31
0.0
  0
LINE
  5
146
330
7E
100
AcDbEntity
  8
0
  6
DASHED
 62
     0
100
AcDbLine
 10
-170.4794841096634
 20
246.0615323756115
 30
0.0
 11
-170.4794841096634
 21
242.6615323756115
 31
0.0
  0
LINE
  5
147
330
7E
100
AcDbEntity
  8
0
  6
CENTER
 62
     0
100
AcDbLine
 10
-161.6396146463343
 20
244.3615323756115
 30
0.0
 11
-172.6761264538327
 21
244.3615323756115
 31
0.0
  0
LINE
  5
148
330
7E
100
AcDbEntity
  8
0
  6
DASHED
 62
     0
100
AcDbLine
 10
-162.4794841096634
 20
241.3615323756115
 30
0.0
 11
-162.7294841096634
 21
241.3615323756115
 31
0.0
  0
LINE
  5
149
330
7E
100
AcDbEntity
  8
0
  6
DASHED
 62
     0
100
AcDbLine
 10
-163.8794841096634
 20
246.3615323756115
 30
0.0
 11
-170.1794841096633
 21
246.3615323756115
 31
0.0
  0
LINE
  5
14A
330
7E
100
AcDbEntity
  8
0
  6
DASHED
 62
     0
100
AcDbLine
 10
-163.8794841096634
 20
242.6615323756115
 30
0.0
 11
-170.4794841096634
 21
242.6615323756115
 31
0.0
  0
LINE
  5
14B
330
7E
100
AcDbEntity
  8
0
  6
DASHED
 62
     0
100
AcDbLine
 10
-163.8794841096634
 20
242.3615323756115
 30
0.0
 11
-170.1794841096633
 21
242.3615323756115
 31
0.0
  0
ENDBLK
  5
80
330
7E
100
AcDbEntity
  8
0
100
AcDbBlockEnd
  0
BLOCK
  5
82
330
81
100
AcDbEntity
  8
0
100
AcDbBlockBegin
  2
UGA4670005
 70
     0
 10
0.0
 20
0.0
 30
0.0
  3
UGA4670005
  1

  0
LINE
  5
14C
330
81
100
AcDbEntity
  8
0
  6
DASHED
 62
     0
100
AcDbLine
 10
-332.4027387361053
 20
141.5241177568693
 30
0.0
 11
-332.1527387361053
 21
141.5241177568693
 31
0.0
  0
LINE
  5
14D
330
81
100
AcDbEntity
  8
0
  6
CENTER
 62
     0
100
AcDbLine
 10
-333.2426081994343
 20
138.5241177568693
 30
0.0
 11
-322.2060963919359
 21
138.5241177568693
 31
0.0
  0
LINE
  5
14E
330
81
100
AcDbEntity
  8
0
  6
DASHED
 62
     0
100
AcDbLine
 10
-324.4027387361052
 20
136.8241177568693
 30
0.0
 11
-324.4027387361052
 21
140.2241177568693
 31
0.0
  0
LINE
  5
14F
330
81
100
AcDbEntity
  8
0
  6
DASHED
 62
     0
100
AcDbLine
 10
-332.4027387361053
 20
135.5241177568693
 30
0.0
 11
-332.1527387361053
 21
135.5241177568693
 31
0.0
  0
LINE
  5
150
330
81
100
AcDbEntity
  8
0
  6
DASHED
 62
     0
100
AcDbLine
 10
-331.0027387361052
 20
136.5241177568693
 30
0.0
 11
-331.0027387361052
 21
140.5241177568693
 31
0.0
  0
LINE
  5
151
330
81
100
AcDbEntity
  8
0
  6
DASHED
 62
     0
100
AcDbLine
 10
-332.1527387361053
 20
135.5241177568693
 30
0.0
 11
-331.0027387361052
 21
136.5241177568693
 31
0.0
  0
LINE
  5
152
330
81
100
AcDbEntity
  8
0
  6
DASHED
 62
     0
100
AcDbLine
 10
-331.0027387361052
 20
136.8241177568693
 30
0.0
 11
-324.4027387361053
 21
136.8241177568693
 31
0.0
  0
LINE
  5
153
330
81
100
AcDbEntity
  8
0
  6
DASHED
 62
     0
100
AcDbLine
 10
-332.1527387361053
 20
141.5241177568693
 30
0.0
 11
-331.0027387361052
 21
140.5241177568693
 31
0.0
  0
LINE
  5
154
330
81
100
AcDbEntity
  8
0
  6
DASHED
 62
     0
100
AcDbLine
 10
-324.7027387361053
 20
136.5241177568693
 30
0.0
 11
-324.7027387361053
 21
140.5241177568693
 31
0.0
  0
LINE
  5
155
330
81
100
AcDbEntity
  8
0
  6
DASHED
 62
     0
100
AcDbLine
 10
-324.4027387361051
 20
140.2241177568692
 30
0.0
 11
-324.7027387361051
 21
140.5241177568693
 31
0.0
  0
LINE
  5
156
330
81
100
AcDbEntity
  8
0
  6
DASHED
 62
     0
100
AcDbLine
 10
-332.4027387361052
 20
135.5241177568693
 30
0.0
 11
-332.4027387361052
 21
141.5241177568693
 31
0.0
  0
LINE
  5
157
330
81
100
AcDbEntity
  8
0
  6
DASHED
 62
     0
100
AcDbLine
 10
-332.1527387361052
 20
135.5241177568693
 30
0.0
 11
-332.1527387361052
 21
141.5241177568693
 31
0.0
  0
LINE
  5
158
330
81
100
AcDbEntity
  8
0
  6
DASHED
 62
     0
100
AcDbLine
 10
-324.7027387361051
 20
136.5241177568691
 30
0.0
 11
-324.4027387361051
 21
136.8241177568691
 31
0.0
  0
LINE
  5
159
330
81
100
AcDbEntity
  8
0
  6
DASHED
 62
     0
100
AcDbLine
 10
-331.0027387361052
 20
140.5241177568693
 30
0.0
 11
-324.7027387361053
 21
140.5241177568693
 31
0.0
  0
LINE
  5
15A
330
81
100
AcDbEntity
  8
0
  6
DASHED
 62
     0
100
AcDbLine
 10
-331.0027387361052
 20
136.5241177568693
 30
0.0
 11
-324.7027387361053
 21
136.5241177568693
 31
0.0
  0
LINE
  5
15B
330
81
100
AcDbEntity
  8
0
  6
DASHED
 62
     0
100
AcDbLine
 10
-331.0027387361052
 20
140.2241177568693
 30
0.0
 11
-324.4027387361053
 21
140.2241177568693
 31
0.0
  0
ENDBLK
  5
83
330
81
100
AcDbEntity
  8
0
100
AcDbBlockEnd
  0
BLOCK
  5
85
330
84
100
AcDbEntity
  8
0
100
AcDbBlockBegin
  2
UGA4670006
 70
     0
 10
0.0
 20
0.0
 30
0.0
  3
UGA4670006
  1

  0
LINE
  5
15C
330
84
100
AcDbEntity
  8
0
  6
DASHED
 62
     0
100
AcDbLine
 10
-324.7027387361051
 20
123.5241177568691
 30
0.0
 11
-324.4027387361051
 21
123.8241177568691
 31
0.0
  0
LINE
  5
15D
330
84
100
AcDbEntity
  8
0
  6
DASHED
 62
     0
100
AcDbLine
 10
-332.1527387361052
 20
122.5241177568693
 30
0.0
 11
-332.1527387361052
 21
128.5241177568693
 31
0.0
  0
LINE
  5
15E
330
84
100
AcDbEntity
  8
0
  6
DASHED
 62
     0
100
AcDbLine
 10
-332.4027387361052
 20
122.5241177568693
 30
0.0
 11
-332.4027387361052
 21
128.5241177568693
 31
0.0
  0
LINE
  5
15F
330
84
100
AcDbEntity
  8
0
  6
DASHED
 62
     0
100
AcDbLine
 10
-324.4027387361051
 20
127.2241177568693
 30
0.0
 11
-324.7027387361051
 21
127.5241177568693
 31
0.0
  0
LINE
  5
160
330
84
100
AcDbEntity
  8
0
  6
DASHED
 62
     0
100
AcDbLine
 10
-324.7027387361053
 20
123.5241177568693
 30
0.0
 11
-324.7027387361053
 21
127.5241177568693
 31
0.0
  0
LINE
  5
161
330
84
100
AcDbEntity
  8
0
  6
DASHED
 62
     0
100
AcDbLine
 10
-332.1527387361053
 20
128.5241177568693
 30
0.0
 11
-331.0027387361053
 21
127.5241177568693
 31
0.0
  0
LINE
  5
162
330
84
100
AcDbEntity
  8
0
  6
DASHED
 62
     0
100
AcDbLine
 10
-331.0027387361052
 20
123.8241177568693
 30
0.0
 11
-324.4027387361053
 21
123.8241177568693
 31
0.0
  0
LINE
  5
163
330
84
100
AcDbEntity
  8
0
  6
DASHED
 62
     0
100
AcDbLine
 10
-332.1527387361053
 20
122.5241177568693
 30
0.0
 11
-331.0027387361053
 21
123.5241177568693
 31
0.0
  0
LINE
  5
164
330
84
100
AcDbEntity
  8
0
  6
DASHED
 62
     0
100
AcDbLine
 10
-331.0027387361052
 20
123.5241177568693
 30
0.0
 11
-331.0027387361052
 21
127.5241177568693
 31
0.0
  0
LINE
  5
165
330
84
100
AcDbEntity
  8
0
  6
DASHED
 62
     0
100
AcDbLine
 10
-332.4027387361053
 20
122.5241177568693
 30
0.0
 11
-332.1527387361053
 21
122.5241177568693
 31
0.0
  0
LINE
  5
166
330
84
100
AcDbEntity
  8
0
  6
DASHED
 62
     0
100
AcDbLine
 10
-324.4027387361052
 20
123.8241177568693
 30
0.0
 11
-324.4027387361052
 21
127.2241177568693
 31
0.0
  0
LINE
  5
167
330
84
100
AcDbEntity
  8
0
  6
CENTER
 62
     0
100
AcDbLine
 10
-333.2426081994343
 20
125.5241177568693
 30
0.0
 11
-322.2060963919359
 21
125.5241177568693
 31
0.0
  0
LINE
  5
168
330
84
100
AcDbEntity
  8
0
  6
DASHED
 62
     0
100
AcDbLine
 10
-332.4027387361053
 20
128.5241177568693
 30
0.0
 11
-332.1527387361053
 21
128.5241177568693
 31
0.0
  0
LINE
  5
169
330
84
100
AcDbEntity
  8
0
  6
DASHED
 62
     0
100
AcDbLine
 10
-331.0027387361052
 20
123.5241177568693
 30
0.0
 11
-324.7027387361053
 21
123.5241177568693
 31
0.0
  0
LINE
  5
16A
330
84
100
AcDbEntity
  8
0
  6
DASHED
 62
     0
100
AcDbLine
 10
-331.0027387361052
 20
127.2241177568693
 30
0.0
 11
-324.4027387361053
 21
127.2241177568693
 31
0.0
  0
LINE
  5
16B
330
84
100
AcDbEntity
  8
0
  6
DASHED
 62
     0
100
AcDbLine
 10
-331.0027387361052
 20
127.5241177568693
 30
0.0
 11
-324.7027387361053
 21
127.5241177568693
 31
0.0
  0
ENDBLK
  5
86
330
84
100
AcDbEntity
  8
0
100
AcDbBlockEnd
  0
BLOCK
  5
88
330
87
100
AcDbEntity
  8
0
100
AcDbBlockBegin
  2
UGA4670007
 70
     0
 10
0.0
 20
0.0
 30
0.0
  3
UGA4670007
  1

  0
LINE
  5
16C
330
87
100
AcDbEntity
  8
0
  6
CENTER
 62
     0
100
AcDbLine
 10
-161.6228692727762
 20
138.5241177568693
 30
0.0
 11
-172.6593810802746
 21
138.5241177568693
 31
0.0
  0
LINE
  5
16D
330
87
100
AcDbEntity
  8
0
  6
DASHED
 62
     0
100
AcDbLine
 10
-163.8627387361052
 20
140.5241177568693
 30
0.0
 11
-163.8627387361052
 21
136.5241177568693
 31
0.0
  0
LINE
  5
16E
330
87
100
AcDbEntity
  8
0
  6
DASHED
 62
     0
100
AcDbLine
 10
-162.4627387361052
 20
141.5241177568693
 30
0.0
 11
-162.4627387361052
 21
135.5241177568693
 31
0.0
  0
LINE
  5
16F
330
87
100
AcDbEntity
  8
0
  6
DASHED
 62
     0
100
AcDbLine
 10
-162.7127387361052
 20
141.5241177568693
 30
0.0
 11
-162.7127387361052
 21
135.5241177568693
 31
0.0
  0
LINE
  5
170
330
87
100
AcDbEntity
  8
0
  6
DASHED
 62
     0
100
AcDbLine
 10
-162.4627387361052
 20
141.5241177568693
 30
0.0
 11
-162.7127387361052
 21
141.5241177568693
 31
0.0
  0
LINE
  5
171
330
87
100
AcDbEntity
  8
0
  6
DASHED
 62
     0
100
AcDbLine
 10
-162.4627387361052
 20
135.5241177568693
 30
0.0
 11
-162.7127387361052
 21
135.5241177568693
 31
0.0
  0
LINE
  5
172
330
87
100
AcDbEntity
  8
0
  6
DASHED
 62
     0
100
AcDbLine
 10
-170.4627387361052
 20
140.2241177568693
 30
0.0
 11
-170.4627387361052
 21
136.8241177568693
 31
0.0
  0
LINE
  5
173
330
87
100
AcDbEntity
  8
0
  6
DASHED
 62
     0
100
AcDbLine
 10
-170.1627387361052
 20
140.5241177568693
 30
0.0
 11
-170.1627387361052
 21
136.5241177568693
 31
0.0
  0
LINE
  5
174
330
87
100
AcDbEntity
  8
0
  6
DASHED
 62
     0
100
AcDbLine
 10
-163.8627387361052
 20
140.5241177568693
 30
0.0
 11
-170.1627387361052
 21
140.5241177568693
 31
0.0
  0
LINE
  5
175
330
87
100
AcDbEntity
  8
0
  6
DASHED
 62
     0
100
AcDbLine
 10
-163.8627387361052
 20
136.5241177568693
 30
0.0
 11
-170.1627387361052
 21
136.5241177568693
 31
0.0
  0
LINE
  5
176
330
87
100
AcDbEntity
  8
0
  6
DASHED
 62
     0
100
AcDbLine
 10
-163.8627387361052
 20
140.2241177568693
 30
0.0
 11
-170.4627387361052
 21
140.2241177568693
 31
0.0
  0
LINE
  5
177
330
87
100
AcDbEntity
  8
0
  6
DASHED
 62
     0
100
AcDbLine
 10
-163.8627387361052
 20
136.8241177568693
 30
0.0
 11
-170.4627387361052
 21
136.8241177568693
 31
0.0
  0
LINE
  5
178
330
87
100
AcDbEntity
  8
0
  6
DASHED
 62
     0
100
AcDbLine
 10
-162.7127387361053
 20
141.5241177568693
 30
0.0
 11
-163.8627387361053
 21
140.5241177568693
 31
0.0
  0
LINE
  5
179
330
87
100
AcDbEntity
  8
0
  6
DASHED
 62
     0
100
AcDbLine
 10
-162.7127387361052
 20
135.5241177568693
 30
0.0
 11
-163.8627387361052
 21
136.5241177568693
 31
0.0
  0
LINE
  5
17A
330
87
100
AcDbEntity
  8
0
  6
DASHED
 62
     0
100
AcDbLine
 10
-170.1627387361053
 20
140.5241177568694
 30
0.0
 11
-170.4627387361053
 21
140.2241177568694
 31
0.0
  0
LINE
  5
17B
330
87
100
AcDbEntity
  8
0
  6
DASHED
 62
     0
100
AcDbLine
 10
-170.4627387361052
 20
136.8241177568693
 30
0.0
 11
-170.1627387361052
 21
136.5241177568693
 31
0.0
  0
ENDBLK
  5
89
330
87
100
AcDbEntity
  8
0
100
AcDbBlockEnd
  0
BLOCK
  5
8B
330
8A
100
AcDbEntity
  8
0
100
AcDbBlockBegin
  2
UGA4670008
 70
     0
 10
0.0
 20
0.0
 30
0.0
  3
UGA4670008
  1

  0
LINE
  5
17C
330
8A
100
AcDbEntity
  8
0
  6
DASHED
 62
     0
100
AcDbLine
 10
-162.4627387361052
 20
122.5241177568693
 30
0.0
 11
-162.7127387361052
 21
122.5241177568693
 31
0.0
  0
LINE
  5
17D
330
8A
100
AcDbEntity
  8
0
  6
CENTER
 62
     0
100
AcDbLine
 10
-161.6228692727762
 20
125.5241177568693
 30
0.0
 11
-172.6593810802746
 21
125.5241177568693
 31
0.0
  0
LINE
  5
17E
330
8A
100
AcDbEntity
  8
0
  6
DASHED
 62
     0
100
AcDbLine
 10
-170.4627387361052
 20
127.2241177568693
 30
0.0
 11
-170.4627387361052
 21
123.8241177568693
 31
0.0
  0
LINE
  5
17F
330
8A
100
AcDbEntity
  8
0
  6
DASHED
 62
     0
100
AcDbLine
 10
-162.4627387361052
 20
128.5241177568693
 30
0.0
 11
-162.7127387361052
 21
128.5241177568693
 31
0.0
  0
LINE
  5
180
330
8A
100
AcDbEntity
  8
0
  6
DASHED
 62
     0
100
AcDbLine
 10
-163.8627387361052
 20
127.5241177568693
 30
0.0
 11
-163.8627387361052
 21
123.5241177568693
 31
0.0
  0
LINE
  5
181
330
8A
100
AcDbEntity
  8
0
  6
DASHED
 62
     0
100
AcDbLine
 10
-162.7127387361053
 20
128.5241177568693
 30
0.0
 11
-163.8627387361053
 21
127.5241177568693
 31
0.0
  0
LINE
  5
182
330
8A
100
AcDbEntity
  8
0
  6
DASHED
 62
     0
100
AcDbLine
 10
-163.8627387361052
 20
127.2241177568693
 30
0.0
 11
-170.4627387361052
 21
127.2241177568693
 31
0.0
  0
LINE
  5
183
330
8A
100
AcDbEntity
  8
0
  6
DASHED
 62
     0
100
AcDbLine
 10
-162.7127387361053
 20
122.5241177568693
 30
0.0
 11
-163.8627387361053
 21
123.5241177568693
 31
0.0
  0
LINE
  5
184
330
8A
100
AcDbEntity
  8
0
  6
DASHED
 62
     0
100
AcDbLine
 10
-170.1627387361052
 20
127.5241177568693
 30
0.0
 11
-170.1627387361052
 21
123.5241177568693
 31
0.0
  0
LINE
  5
185
330
8A
100
AcDbEntity
  8
0
  6
DASHED
 62
     0
100
AcDbLine
 10
-170.4627387361053
 20
123.8241177568693
 30
0.0
 11
-170.1627387361053
 21
123.5241177568693
 31
0.0
  0
LINE
  5
186
330
8A
100
AcDbEntity
  8
0
  6
DASHED
 62
     0
100
AcDbLine
 10
-162.4627387361052
 20
128.5241177568693
 30
0.0
 11
-162.4627387361052
 21
122.5241177568693
 31
0.0
  0
LINE
  5
187
330
8A
100
AcDbEntity
  8
0
  6
DASHED
 62
     0
100
AcDbLine
 10
-162.7127387361052
 20
128.5241177568693
 30
0.0
 11
-162.7127387361052
 21
122.5241177568693
 31
0.0
  0
LINE
  5
188
330
8A
100
AcDbEntity
  8
0
  6
DASHED
 62
     0
100
AcDbLine
 10
-170.1627387361053
 20
127.5241177568694
 30
0.0
 11
-170.4627387361053
 21
127.2241177568694
 31
0.0
  0
LINE
  5
189
330
8A
100
AcDbEntity
  8
0
  6
DASHED
 62
     0
100
AcDbLine
 10
-163.8627387361052
 20
123.5241177568693
 30
0.0
 11
-170.1627387361052
 21
123.5241177568693
 31
0.0
  0
LINE
  5
18A
330
8A
100
AcDbEntity
  8
0
  6
DASHED
 62
     0
100
AcDbLine
 10
-163.8627387361052
 20
127.5241177568693
 30
0.0
 11
-170.1627387361052
 21
127.5241177568693
 31
0.0
  0
LINE
  5
18B
330
8A
100
AcDbEntity
  8
0
  6
DASHED
 62
     0
100
AcDbLine
 10
-163.8627387361052
 20
123.8241177568693
 30
0.0
 11
-170.4627387361052
 21
123.8241177568693
 31
0.0
  0
ENDBLK
  5
8C
330
8A
100
AcDbEntity
  8
0
100
AcDbBlockEnd
  0
BLOCK
  5
8E
330
8D
100
AcDbEntity
  8
0
100
AcDbBlockBegin
  2
UGA4670009
 70
     0
 10
0.0
 20
0.0
 30
0.0
  3
UGA4670009
  1

  0
LINE
  5
18C
330
8D
100
AcDbEntity
  8
0
  6
DASHED
 62
     0
100
AcDbLine
 10
-329.4327387361053
 20
143.0241177568693
 30
0.0
 11
-329.4327387361053
 21
121.0241177568693
 31
0.0
  0
LINE
  5
18D
330
8D
100
AcDbEntity
  8
0
  6
DASHED
 62
     0
100
AcDbLine
 10
-165.4327387361053
 20
143.0241177568693
 30
0.0
 11
-165.4327387361053
 21
121.0241177568693
 31
0.0
  0
LINE
  5
18E
330
8D
100
AcDbEntity
  8
0
  6
Continuous
 62
     0
100
AcDbLine
 10
-296.9327387361053
 20
104.5241177568693
 30
0.0
 11
-197.9327387361053
 21
104.5241177568693
 31
0.0
  0
LINE
  5
18F
330
8D
100
AcDbEntity
  8
0
  6
Continuous
 62
     0
100
AcDbLine
 10
-299.9327387361053
 20
119.0241177568693
 30
0.0
 11
-299.9327387361053
 21
107.5241177568693
 31
0.0
  0
LINE
  5
190
330
8D
100
AcDbEntity
  8
0
  6
Continuous
 62
     0
100
AcDbLine
 10
-194.9327387361053
 20
119.0241177568693
 30
0.0
 11
-194.9327387361053
 21
107.5241177568693
 31
0.0
  0
LINE
  5
191
330
8D
100
AcDbEntity
  8
0
  6
DASHED
 62
     0
100
AcDbLine
 10
-328.4327387361053
 20
144.0241177568693
 30
0.0
 11
-166.4327387361053
 21
144.0241177568693
 31
0.0
  0
LINE
  5
192
330
8D
100
AcDbEntity
  8
0
  6
DASHED
 62
     0
100
AcDbLine
 10
-328.4327387361053
 20
120.0241177568693
 30
0.0
 11
-300.9327387361053
 21
120.0241177568693
 31
0.0
  0
LINE
  5
193
330
8D
100
AcDbEntity
  8
0
  6
DASHED
 62
     0
100
AcDbLine
 10
-193.9327387361053
 20
120.0241177568693
 30
0.0
 11
-166.4327387361053
 21
120.0241177568693
 31
0.0
  0
LINE
  5
194
330
8D
100
AcDbEntity
  8
0
  6
CENTER
 62
     0
100
AcDbLine
 10
-292.4327387361053
 20
119.0641177568693
 30
0.0
 11
-292.4327387361053
 21
104.9841177568693
 31
0.0
  0
LINE
  5
195
330
8D
100
AcDbEntity
  8
0
  6
CENTER
 62
     0
100
AcDbLine
 10
-299.4727387361053
 20
112.0241177568693
 30
0.0
 11
-285.3927387361052
 21
112.0241177568693
 31
0.0
  0
LINE
  5
196
330
8D
100
AcDbEntity
  8
0
  6
CENTER
 62
     0
100
AcDbLine
 10
-202.4327387361053
 20
119.0641177568693
 30
0.0
 11
-202.4327387361053
 21
104.9841177568693
 31
0.0
  0
LINE
  5
197
330
8D
100
AcDbEntity
  8
0
  6
CENTER
 62
     0
100
AcDbLine
 10
-209.4727387361052
 20
112.0241177568693
 30
0.0
 11
-195.3927387361053
 21
112.0241177568693
 31
0.0
  0
LINE
  5
198
330
8D
100
AcDbEntity
  8
0
  6
CENTER
 62
     0
100
AcDbLine
 10
-330.5369647619983
 20
138.5241177568693
 30
0.0
 11
-318.8978834153477
 21
138.5241177568693
 31
0.0
  0
LINE
  5
199
330
8D
100
AcDbEntity
  8
0
  6
CENTER
 62
     0
100
AcDbLine
 10
-330.5369647619983
 20
125.5241177568693
 30
0.0
 11
-318.9558727758023
 21
125.5241177568693
 31
0.0
  0
LINE
  5
19A
330
8D
100
AcDbEntity
  8
0
  6
CENTER
 62
     0
100
AcDbLine
 10
-164.3285127102122
 20
125.5241177568693
 30
0.0
 11
-175.8438262598357
 21
125.5241177568693
 31
0.0
  0
LINE
  5
19B
330
8D
100
AcDbEntity
  8
0
  6
CENTER
 62
     0
100
AcDbLine
 10
-164.3285127102122
 20
138.5241177568693
 30
0.0
 11
-176.0328806426195
 21
138.5241177568693
 31
0.0
  0
LINE
  5
19C
330
8D
100
AcDbEntity
  8
0
  6
DASHED
 62
     0
100
AcDbLine
 10
-173.4327387361053
 20
140.2241177568693
 30
0.0
 11
-173.4327387361053
 21
136.8241177568693
 31
0.0
  0
LINE
  5
19D
330
8D
100
AcDbEntity
  8
0
  6
DASHED
 62
     0
100
AcDbLine
 10
-174.4327387361053
 20
140.2241177568693
 30
0.0
 11
-174.4327387361053
 21
136.8241177568693
 31
0.0
  0
LINE
  5
19E
330
8D
100
AcDbEntity
  8
0
  6
DASHED
 62
     0
100
AcDbLine
 10
-173.1827387361053
 20
140.5241177568693
 30
0.0
 11
-173.1827387361053
 21
136.5241177568693
 31
0.0
  0
LINE
  5
19F
330
8D
100
AcDbEntity
  8
0
  6
DASHED
 62
     0
100
AcDbLine
 10
-173.4327387361051
 20
140.2241177568691
 30
0.0
 11
-173.1827387361051
 21
140.5241177568691
 31
0.0
  0
LINE
  5
1A0
330
8D
100
AcDbEntity
  8
0
  6
DASHED
 62
     0
100
AcDbLine
 10
-173.4327387361053
 20
136.8241177568694
 30
0.0
 11
-173.1827387361052
 21
136.5241177568693
 31
0.0
  0
LINE
  5
1A1
330
8D
100
AcDbEntity
  8
0
  6
DASHED
 62
     0
100
AcDbLine
 10
-165.4327387361053
 20
140.5241177568693
 30
0.0
 11
-173.1827387361053
 21
140.5241177568693
 31
0.0
  0
LINE
  5
1A2
330
8D
100
AcDbEntity
  8
0
  6
DASHED
 62
     0
100
AcDbLine
 10
-165.4327387361053
 20
136.5241177568693
 30
0.0
 11
-173.1827387361053
 21
136.5241177568693
 31
0.0
  0
LINE
  5
1A3
330
8D
100
AcDbEntity
  8
0
  6
DASHED
 62
     0
100
AcDbLine
 10
-165.4327387361053
 20
136.8241177568693
 30
0.0
 11
-174.4327387361053
 21
136.8241177568693
 31
0.0
  0
LINE
  5
1A4
330
8D
100
AcDbEntity
  8
0
  6
DASHED
 62
     0
100
AcDbLine
 10
-165.4327387361053
 20
140.2241177568693
 30
0.0
 11
-174.4327387361053
 21
140.2241177568693
 31
0.0
  0
LINE
  5
1A5
330
8D
100
AcDbEntity
  8
0
  6
DASHED
 62
     0
100
AcDbLine
 10
-173.4327387361053
 20
127.2241177568693
 30
0.0
 11
-173.4327387361053
 21
123.8241177568693
 31
0.0
  0
LINE
  5
1A6
330
8D
100
AcDbEntity
  8
0
  6
DASHED
 62
     0
100
AcDbLine
 10
-174.4327387361053
 20
127.2241177568693
 30
0.0
 11
-174.4327387361053
 21
123.8241177568693
 31
0.0
  0
LINE
  5
1A7
330
8D
100
AcDbEntity
  8
0
  6
DASHED
 62
     0
100
AcDbLine
 10
-173.1827387361053
 20
127.5241177568693
 30
0.0
 11
-173.1827387361053
 21
123.5241177568693
 31
0.0
  0
LINE
  5
1A8
330
8D
100
AcDbEntity
  8
0
  6
DASHED
 62
     0
100
AcDbLine
 10
-173.4327387361052
 20
127.2241177568692
 30
0.0
 11
-173.1827387361052
 21
127.5241177568692
 31
0.0
  0
LINE
  5
1A9
330
8D
100
AcDbEntity
  8
0
  6
DASHED
 62
     0
100
AcDbLine
 10
-173.4327387361053
 20
123.8241177568694
 30
0.0
 11
-173.1827387361053
 21
123.5241177568693
 31
0.0
  0
LINE
  5
1AA
330
8D
100
AcDbEntity
  8
0
  6
DASHED
 62
     0
100
AcDbLine
 10
-165.4327387361053
 20
127.5241177568693
 30
0.0
 11
-173.1827387361053
 21
127.5241177568693
 31
0.0
  0
LINE
  5
1AB
330
8D
100
AcDbEntity
  8
0
  6
DASHED
 62
     0
100
AcDbLine
 10
-165.4327387361053
 20
123.5241177568693
 30
0.0
 11
-173.1827387361053
 21
123.5241177568693
 31
0.0
  0
LINE
  5
1AC
330
8D
100
AcDbEntity
  8
0
  6
DASHED
 62
     0
100
AcDbLine
 10
-165.4327387361053
 20
123.8241177568693
 30
0.0
 11
-174.4327387361053
 21
123.8241177568693
 31
0.0
  0
LINE
  5
1AD
330
8D
100
AcDbEntity
  8
0
  6
DASHED
 62
     0
100
AcDbLine
 10
-165.4327387361053
 20
127.2241177568693
 30
0.0
 11
-174.4327387361053
 21
127.2241177568693
 31
0.0
  0
LINE
  5
1AE
330
8D
100
AcDbEntity
  8
0
  6
DASHED
 62
     0
100
AcDbLine
 10
-321.4327387361053
 20
136.8241177568693
 30
0.0
 11
-321.4327387361053
 21
140.2241177568693
 31
0.0
  0
LINE
  5
1AF
330
8D
100
AcDbEntity
  8
0
  6
DASHED
 62
     0
100
AcDbLine
 10
-320.4327387361053
 20
136.8241177568693
 30
0.0
 11
-320.4327387361053
 21
140.2241177568693
 31
0.0
  0
LINE
  5
1B0
330
8D
100
AcDbEntity
  8
0
  6
DASHED
 62
     0
100
AcDbLine
 10
-321.6827387361053
 20
136.5241177568693
 30
0.0
 11
-321.6827387361053
 21
140.5241177568693
 31
0.0
  0
LINE
  5
1B1
330
8D
100
AcDbEntity
  8
0
  6
DASHED
 62
     0
100
AcDbLine
 10
-321.4327387361054
 20
136.8241177568694
 30
0.0
 11
-321.6827387361054
 21
136.5241177568694
 31
0.0
  0
LINE
  5
1B2
330
8D
100
AcDbEntity
  8
0
  6
DASHED
 62
     0
100
AcDbLine
 10
-321.4327387361054
 20
140.2241177568693
 30
0.0
 11
-321.6827387361053
 21
140.5241177568693
 31
0.0
  0
LINE
  5
1B3
330
8D
100
AcDbEntity
  8
0
  6
DASHED
 62
     0
100
AcDbLine
 10
-329.4327387361052
 20
136.5241177568693
 30
0.0
 11
-321.6827387361052
 21
136.5241177568693
 31
0.0
  0
LINE
  5
1B4
330
8D
100
AcDbEntity
  8
0
  6
DASHED
 62
     0
100
AcDbLine
 10
-329.4327387361052
 20
140.5241177568693
 30
0.0
 11
-321.6827387361052
 21
140.5241177568693
 31
0.0
  0
LINE
  5
1B5
330
8D
100
AcDbEntity
  8
0
  6
DASHED
 62
     0
100
AcDbLine
 10
-329.4327387361052
 20
140.2241177568693
 30
0.0
 11
-320.4327387361052
 21
140.2241177568693
 31
0.0
  0
LINE
  5
1B6
330
8D
100
AcDbEntity
  8
0
  6
DASHED
 62
     0
100
AcDbLine
 10
-329.4327387361052
 20
136.8241177568693
 30
0.0
 11
-320.4327387361052
 21
136.8241177568693
 31
0.0
  0
LINE
  5
1B7
330
8D
100
AcDbEntity
  8
0
  6
DASHED
 62
     0
100
AcDbLine
 10
-321.4327387361053
 20
123.8241177568694
 30
0.0
 11
-321.4327387361053
 21
127.2241177568693
 31
0.0
  0
LINE
  5
1B8
330
8D
100
AcDbEntity
  8
0
  6
DASHED
 62
     0
100
AcDbLine
 10
-320.4327387361053
 20
123.8241177568694
 30
0.0
 11
-320.4327387361053
 21
127.2241177568693
 31
0.0
  0
LINE
  5
1B9
330
8D
100
AcDbEntity
  8
0
  6
DASHED
 62
     0
100
AcDbLine
 10
-321.6827387361053
 20
123.5241177568693
 30
0.0
 11
-321.6827387361053
 21
127.5241177568693
 31
0.0
  0
LINE
  5
1BA
330
8D
100
AcDbEntity
  8
0
  6
DASHED
 62
     0
100
AcDbLine
 10
-321.4327387361054
 20
123.8241177568695
 30
0.0
 11
-321.6827387361054
 21
123.5241177568694
 31
0.0
  0
LINE
  5
1BB
330
8D
100
AcDbEntity
  8
0
  6
DASHED
 62
     0
100
AcDbLine
 10
-321.4327387361053
 20
127.2241177568692
 30
0.0
 11
-321.6827387361053
 21
127.5241177568693
 31
0.0
  0
LINE
  5
1BC
330
8D
100
AcDbEntity
  8
0
  6
DASHED
 62
     0
100
AcDbLine
 10
-329.4327387361052
 20
123.5241177568693
 30
0.0
 11
-321.6827387361052
 21
123.5241177568693
 31
0.0
  0
LINE
  5
1BD
330
8D
100
AcDbEntity
  8
0
  6
DASHED
 62
     0
100
AcDbLine
 10
-329.4327387361052
 20
127.5241177568693
 30
0.0
 11
-321.6827387361052
 21
127.5241177568693
 31
0.0
  0
LINE
  5
1BE
330
8D
100
AcDbEntity
  8
0
  6
DASHED
 62
     0
100
AcDbLine
 10
-329.4327387361052
 20
127.2241177568693
 30
0.0
 11
-320.4327387361052
 21
127.2241177568693
 31
0.0
  0
LINE
  5
1BF
330
8D
100
AcDbEntity
  8
0
  6
DASHED
 62
     0
100
AcDbLine
 10
-329.4327387361052
 20
123.8241177568693
 30
0.0
 11
-320.4327387361052
 21
123.8241177568693
 31
0.0
  0
LINE
  5
1C0
330
8D
100
AcDbEntity
  8
0
  6
DASHED
 62
     0
100
AcDbLine
 10
-175.4142341937276
 20
138.5241177568693
 30
0.0
 11
-174.4327387361052
 21
140.2241177568693
 31
0.0
  0
LINE
  5
1C1
330
8D
100
AcDbEntity
  8
0
  6
DASHED
 62
     0
100
AcDbLine
 10
-175.4142341937276
 20
138.5241177568693
 30
0.0
 11
-174.4327387361053
 21
136.8241177568693
 31
0.0
  0
LINE
  5
1C2
330
8D
100
AcDbEntity
  8
0
  6
DASHED
 62
     0
100
AcDbLine
 10
-175.4142341937276
 20
125.5241177568693
 30
0.0
 11
-174.4327387361052
 21
127.2241177568693
 31
0.0
  0
LINE
  5
1C3
330
8D
100
AcDbEntity
  8
0
  6
DASHED
 62
     0
100
AcDbLine
 10
-175.4142341937276
 20
125.5241177568693
 30
0.0
 11
-174.4327387361052
 21
123.8241177568692
 31
0.0
  0
LINE
  5
1C4
330
8D
100
AcDbEntity
  8
0
  6
DASHED
 62
     0
100
AcDbLine
 10
-319.4512432784829
 20
138.5241177568693
 30
0.0
 11
-320.4327387361053
 21
136.8241177568693
 31
0.0
  0
LINE
  5
1C5
330
8D
100
AcDbEntity
  8
0
  6
DASHED
 62
     0
100
AcDbLine
 10
-319.4512432784829
 20
138.5241177568693
 30
0.0
 11
-320.4327387361053
 21
140.2241177568693
 31
0.0
  0
LINE
  5
1C6
330
8D
100
AcDbEntity
  8
0
  6
DASHED
 62
     0
100
AcDbLine
 10
-319.4512432784828
 20
125.5241177568693
 30
0.0
 11
-320.4327387361052
 21
127.2241177568693
 31
0.0
  0
LINE
  5
1C7
330
8D
100
AcDbEntity
  8
0
  6
DASHED
 62
     0
100
AcDbLine
 10
-319.4512432784829
 20
125.5241177568694
 30
0.0
 11
-320.4327387361053
 21
123.8241177568694
 31
0.0
  0
ARC
  5
1C8
330
8D
100
AcDbEntity
  8
0
  6
Continuous
 62
     0
100
AcDbCircle
 10
-197.9327387361053
 20
107.5241177568693
 30
0.0
 40
3.0
100
AcDbArc
 50
270.0
 51
0.0
  0
ARC
  5
1C9
330
8D
100
AcDbEntity
  8
0
  6
Continuous
 62
     0
100
AcDbCircle
 10
-296.9327387361053
 20
107.5241177568693
 30
0.0
 40
3.0
100
AcDbArc
 50
180.0
 51
270.0
  0
ARC
  5
1CA
330
8D
100
AcDbEntity
  8
0
  6
Continuous
 62
     0
100
AcDbCircle
 10
-300.9327387361053
 20
119.0241177568693
 30
0.0
 40
1.0
100
AcDbArc
 50
0.0
 51
30.00000000000054
  0
ARC
  5
1CB
330
8D
100
AcDbEntity
  8
0
  6
DASHED
 62
     0
100
AcDbCircle
 10
-193.9327387361053
 20
119.0241177568693
 30
0.0
 40
1.0
100
AcDbArc
 50
90.00000000000001
 51
150.0000000000003
  0
CIRCLE
  5
1CC
330
8D
100
AcDbEntity
  8
0
  6
Continuous
 62
     0
100
AcDbCircle
 10
-292.4327387361053
 20
112.0241177568693
 30
0.0
 40
4.5
  0
CIRCLE
  5
1CD
330
8D
100
AcDbEntity
  8
0
  6
Continuous
 62
     0
100
AcDbCircle
 10
-292.4327387361053
 20
112.0241177568693
 30
0.0
 40
2.5
  0
CIRCLE
  5
1CE
330
8D
100
AcDbEntity
  8
0
  6
Continuous
 62
     0
100
AcDbCircle
 10
-202.4327387361053
 20
112.0241177568693
 30
0.0
 40
4.5
  0
CIRCLE
  5
1CF
330
8D
100
AcDbEntity
  8
0
  6
Continuous
 62
     0
100
AcDbCircle
 10
-202.4327387361053
 20
112.0241177568693
 30
0.0
 40
2.5
  0
ARC
  5
1D0
330
8D
100
AcDbEntity
  8
0
  6
DASHED
 62
     0
100
AcDbCircle
 10
-300.9327387361053
 20
119.0241177568693
 30
0.0
 40
1.0
100
AcDbArc
 50
30.00000000000054
 51
90.00000000000001
  0
ARC
  5
1D1
330
8D
100
AcDbEntity
  8
0
  6
Continuous
 62
     0
100
AcDbCircle
 10
-193.9327387361053
 20
119.0241177568693
 30
0.0
 40
1.0
100
AcDbArc
 50
150.0000000000003
 51
180.0
  0
ARC
  5
1D2
330
8D
100
AcDbEntity
  8
0
  6
DASHED
 62
     0
100
AcDbCircle
 10
-166.4327387361053
 20
121.0241177568693
 30
0.0
 40
1.0
100
AcDbArc
 50
270.0
 51
0.0
  0
ARC
  5
1D3
330
8D
100
AcDbEntity
  8
0
  6
DASHED
 62
     0
100
AcDbCircle
 10
-166.4327387361053
 20
143.0241177568693
 30
0.0
 40
1.0
100
AcDbArc
 50
0.0
 51
90.00000000000001
  0
ARC
  5
1D4
330
8D
100
AcDbEntity
  8
0
  6
DASHED
 62
     0
100
AcDbCircle
 10
-328.4327387361053
 20
143.0241177568693
 30
0.0
 40
1.0
100
AcDbArc
 50
90.00000000000001
 51
180.0
  0
ARC
  5
1D5
330
8D
100
AcDbEntity
  8
0
  6
DASHED
 62
     0
100
AcDbCircle
 10
-328.4327387361053
 20
121.0241177568693
 30
0.0
 40
1.0
100
AcDbArc
 50
180.0
 51
270.0
  0
ENDBLK
  5
8F
330
8D
100
AcDbEntity
  8
0
100
AcDbBlockEnd
  0
BLOCK
  5
91
330
90
100
AcDbEntity
  8
0
100
AcDbBlockBegin
  2
UGA4670010
 70
     0
 10
0.0
 20
0.0
 30
0.0
  3
UGA4670010
  1

  0
LINE
  5
1D6
330
90
100
AcDbEntity
  8
0
  6
Continuous
 62
     0
100
AcDbLine
 10
-329.4327387361053
 20
248.3615323756115
 30
0.0
 11
-165.4327387361053
 21
248.3615323756115
 31
0.0
  0
LINE
  5
1D7
330
90
100
AcDbEntity
  8
0
  6
DASHED
 62
     0
100
AcDbLine
 10
-321.4327387361053
 20
246.0615323756115
 30
0.0
 11
-321.4327387361053
 21
242.6615323756115
 31
0.0
  0
LINE
  5
1D8
330
90
100
AcDbEntity
  8
0
  6
DASHED
 62
     0
100
AcDbLine
 10
-321.6827387361053
 20
246.3615323756115
 30
0.0
 11
-321.6827387361053
 21
242.3615323756115
 31
0.0
  0
LINE
  5
1D9
330
90
100
AcDbEntity
  8
0
  6
CENTER
 62
     0
100
AcDbLine
 10
-330.5369647619983
 20
244.3615323756115
 30
0.0
 11
-318.8342657299888
 21
244.3615323756115
 31
0.0
  0
LINE
  5
1DA
330
90
100
AcDbEntity
  8
0
  6
DASHED
 62
     0
100
AcDbLine
 10
-320.4327387361053
 20
246.0615323756115
 30
0.0
 11
-320.4327387361053
 21
242.6615323756115
 31
0.0
  0
LINE
  5
1DB
330
90
100
AcDbEntity
  8
0
  6
Continuous
 62
     0
100
AcDbLine
 10
-166.4938648890264
 20
240.3615323756115
 30
0.0
 11
-328.3716125831841
 21
240.3615323756115
 31
0.0
  0
LINE
  5
1DC
330
90
100
AcDbEntity
  8
0
  6
DASHED
 62
     0
100
AcDbLine
 10
-173.1827387361053
 20
246.3615323756115
 30
0.0
 11
-173.1827387361053
 21
242.3615323756115
 31
0.0
  0
LINE
  5
1DD
330
90
100
AcDbEntity
  8
0
  6
DASHED
 62
     0
100
AcDbLine
 10
-174.4327387361053
 20
246.0615323756115
 30
0.0
 11
-174.4327387361053
 21
242.6615323756115
 31
0.0
  0
LINE
  5
1DE
330
90
100
AcDbEntity
  8
0
  6
CENTER
 62
     0
100
AcDbLine
 10
-164.3285127102122
 20
244.3615323756115
 30
0.0
 11
-176.1136781702801
 21
244.3615323756115
 31
0.0
  0
LINE
  5
1DF
330
90
100
AcDbEntity
  8
0
  6
DASHED
 62
     0
100
AcDbLine
 10
-173.4327387361053
 20
246.0615323756115
 30
0.0
 11
-173.4327387361053
 21
242.6615323756115
 31
0.0
  0
LINE
  5
1E0
330
90
100
AcDbEntity
  8
0
  6
DASHED
 62
     0
100
AcDbLine
 10
-194.9327387361053
 20
248.3615323756115
 30
0.0
 11
-194.9327387361053
 21
246.3615323756115
 31
0.0
  0
LINE
  5
1E1
330
90
100
AcDbEntity
  8
0
  6
DASHED
 62
     0
100
AcDbLine
 10
-299.9327387361053
 20
248.3615323756115
 30
0.0
 11
-299.9327387361053
 21
246.3615323756115
 31
0.0
  0
LINE
  5
1E2
330
90
100
AcDbEntity
  8
0
  6
CENTER
 62
     0
100
AcDbLine
 10
-292.4327387361053
 20
249.2804897752159
 30
0.0
 11
-292.4327387361053
 21
244.2353204855611
 31
0.0
  0
LINE
  5
1E3
330
90
100
AcDbEntity
  8
0
  6
DASHED
 62
     0
100
AcDbLine
 10
-287.9327387361053
 20
245.6615323756115
 30
0.0
 11
-287.9327387361053
 21
245.3615323756115
 31
0.0
  0
LINE
  5
1E4
330
90
100
AcDbEntity
  8
0
  6
DASHED
 62
     0
100
AcDbLine
 10
-296.9327387361053
 20
245.6615323756114
 30
0.0
 11
-296.9327387361053
 21
245.3615323756115
 31
0.0
  0
LINE
  5
1E5
330
90
100
AcDbEntity
  8
0
  6
DASHED
 62
     0
100
AcDbLine
 10
-294.9327387361053
 20
248.3615323756115
 30
0.0
 11
-294.9327387361053
 21
247.6615323756115
 31
0.0
  0
LINE
  5
1E6
330
90
100
AcDbEntity
  8
0
  6
DASHED
 62
     0
100
AcDbLine
 10
-289.9327387361053
 20
248.3615323756115
 30
0.0
 11
-289.9327387361053
 21
247.6615323756115
 31
0.0
  0
LINE
  5
1E7
330
90
100
AcDbEntity
  8
0
  6
DASHED
 62
     0
100
AcDbLine
 10
-296.9327387361053
 20
245.6615323756115
 30
0.0
 11
-287.9327387361053
 21
245.6615323756115
 31
0.0
  0
LINE
  5
1E8
330
90
100
AcDbEntity
  8
0
  6
DASHED
 62
     0
100
AcDbLine
 10
-296.9327387361051
 20
245.6615323756112
 30
0.0
 11
-294.9327387361051
 21
247.6615323756112
 31
0.0
  0
LINE
  5
1E9
330
90
100
AcDbEntity
  8
0
  6
DASHED
 62
     0
100
AcDbLine
 10
-289.9327387361053
 20
247.6615323756115
 30
0.0
 11
-287.9327387361053
 21
245.6615323756114
 31
0.0
  0
LINE
  5
1EA
330
90
100
AcDbEntity
  8
0
  6
DASHED
 62
     0
100
AcDbLine
 10
-294.9327387361052
 20
247.6615323756115
 30
0.0
 11
-289.9327387361053
 21
247.6615323756115
 31
0.0
  0
LINE
  5
1EB
330
90
100
AcDbEntity
  8
0
  6
DASHED
 62
     0
100
AcDbLine
 10
-204.9327387361051
 20
247.6615323756115
 30
0.0
 11
-206.9327387361052
 21
245.6615323756114
 31
0.0
  0
LINE
  5
1EC
330
90
100
AcDbEntity
  8
0
  6
DASHED
 62
     0
100
AcDbLine
 10
-197.9327387361053
 20
245.6615323756115
 30
0.0
 11
-199.9327387361053
 21
247.6615323756114
 31
0.0
  0
LINE
  5
1ED
330
90
100
AcDbEntity
  8
0
  6
DASHED
 62
     0
100
AcDbLine
 10
-199.9327387361053
 20
247.6615323756115
 30
0.0
 11
-204.9327387361053
 21
247.6615323756115
 31
0.0
  0
LINE
  5
1EE
330
90
100
AcDbEntity
  8
0
  6
DASHED
 62
     0
100
AcDbLine
 10
-197.9327387361053
 20
245.6615323756115
 30
0.0
 11
-206.9327387361053
 21
245.6615323756115
 31
0.0
  0
LINE
  5
1EF
330
90
100
AcDbEntity
  8
0
  6
DASHED
 62
     0
100
AcDbLine
 10
-197.9327387361053
 20
245.6615323756114
 30
0.0
 11
-197.9327387361053
 21
245.3615323756115
 31
0.0
  0
LINE
  5
1F0
330
90
100
AcDbEntity
  8
0
  6
CENTER
 62
     0
100
AcDbLine
 10
-202.4327387361053
 20
249.2804897752159
 30
0.0
 11
-202.4327387361053
 21
244.2353204855611
 31
0.0
  0
LINE
  5
1F1
330
90
100
AcDbEntity
  8
0
  6
DASHED
 62
     0
100
AcDbLine
 10
-199.9327387361053
 20
248.3615323756115
 30
0.0
 11
-199.9327387361053
 21
247.6615323756115
 31
0.0
  0
LINE
  5
1F2
330
90
100
AcDbEntity
  8
0
  6
DASHED
 62
     0
100
AcDbLine
 10
-206.9327387361053
 20
245.6615323756115
 30
0.0
 11
-206.9327387361053
 21
245.3615323756115
 31
0.0
  0
LINE
  5
1F3
330
90
100
AcDbEntity
  8
0
  6
DASHED
 62
     0
100
AcDbLine
 10
-204.9327387361053
 20
248.3615323756115
 30
0.0
 11
-204.9327387361053
 21
247.6615323756115
 31
0.0
  0
LINE
  5
1F4
330
90
100
AcDbEntity
  8
0
  6
Continuous
 62
     0
100
AcDbLine
 10
-165.4939029659622
 20
241.3528058401131
 30
0.0
 11
-165.4327387361053
 21
248.3615323756115
 31
0.0
  0
LINE
  5
1F5
330
90
100
AcDbEntity
  8
0
  6
DASHED
 62
     0
100
AcDbLine
 10
-298.9327387361053
 20
245.3615323756115
 30
0.0
 11
-195.9327387361053
 21
245.3615323756115
 31
0.0
  0
LINE
  5
1F6
330
90
100
AcDbEntity
  8
0
  6
Continuous
 62
     0
100
AcDbLine
 10
-329.3715745062482
 20
241.3528058401131
 30
0.0
 11
-329.4327387361051
 21
248.3615323756114
 31
0.0
  0
LINE
  5
1F7
330
90
100
AcDbEntity
  8
0
  6
DASHED
 62
     0
100
AcDbLine
 10
-329.4152850005236
 20
246.3615323756115
 30
0.0
 11
-321.6827387361053
 21
246.3615323756115
 31
0.0
  0
LINE
  5
1F8
330
90
100
AcDbEntity
  8
0
  6
DASHED
 62
     0
100
AcDbLine
 10
-329.3803775293606
 20
242.3615323756115
 30
0.0
 11
-321.6827387361053
 21
242.3615323756115
 31
0.0
  0
LINE
  5
1F9
330
90
100
AcDbEntity
  8
0
  6
DASHED
 62
     0
100
AcDbLine
 10
-329.4152850005236
 20
246.0615323756115
 30
0.0
 11
-320.4327387361053
 21
246.0615323756115
 31
0.0
  0
LINE
  5
1FA
330
90
100
AcDbEntity
  8
0
  6
DASHED
 62
     0
100
AcDbLine
 10
-329.3803775293606
 20
242.6615323756115
 30
0.0
 11
-320.4327387361053
 21
242.6615323756115
 31
0.0
  0
LINE
  5
1FB
330
90
100
AcDbEntity
  8
0
  6
DASHED
 62
     0
100
AcDbLine
 10
-321.6827387361052
 20
246.3615323756115
 30
0.0
 11
-321.4327387361052
 21
246.0615323756115
 31
0.0
  0
LINE
  5
1FC
330
90
100
AcDbEntity
  8
0
  6
DASHED
 62
     0
100
AcDbLine
 10
-321.6827387361051
 20
242.3615323756113
 30
0.0
 11
-321.4327387361051
 21
242.6615323756113
 31
0.0
  0
LINE
  5
1FD
330
90
100
AcDbEntity
  8
0
  6
DASHED
 62
     0
100
AcDbLine
 10
-165.4501924716868
 20
246.3615323756115
 30
0.0
 11
-173.1827387361053
 21
246.3615323756115
 31
0.0
  0
LINE
  5
1FE
330
90
100
AcDbEntity
  8
0
  6
DASHED
 62
     0
100
AcDbLine
 10
-165.4850999428499
 20
242.3615323756115
 30
0.0
 11
-173.1827387361053
 21
242.3615323756115
 31
0.0
  0
LINE
  5
1FF
330
90
100
AcDbEntity
  8
0
  6
DASHED
 62
     0
100
AcDbLine
 10
-165.4528105320241
 20
246.0615323756115
 30
0.0
 11
-174.4327387361053
 21
246.0615323756115
 31
0.0
  0
LINE
  5
200
330
90
100
AcDbEntity
  8
0
  6
DASHED
 62
     0
100
AcDbLine
 10
-165.4824818825126
 20
242.6615323756115
 30
0.0
 11
-174.4327387361053
 21
242.6615323756115
 31
0.0
  0
LINE
  5
201
330
90
100
AcDbEntity
  8
0
  6
DASHED
 62
     0
100
AcDbLine
 10
-173.4327387361051
 20
246.0615323756114
 30
0.0
 11
-173.1827387361051
 21
246.3615323756114
 31
0.0
  0
LINE
  5
202
330
90
100
AcDbEntity
  8
0
  6
DASHED
 62
     0
100
AcDbLine
 10
-173.4327387361052
 20
242.6615323756115
 30
0.0
 11
-173.1827387361052
 21
242.3615323756115
 31
0.0
  0
LINE
  5
203
330
90
100
AcDbEntity
  8
0
  6
DASHED
 62
     0
100
AcDbLine
 10
-175.4142341937276
 20
244.3615323756115
 30
0.0
 11
-174.4327387361052
 21
246.0615323756115
 31
0.0
  0
LINE
  5
204
330
90
100
AcDbEntity
  8
0
  6
DASHED
 62
     0
100
AcDbLine
 10
-174.4327387361053
 20
242.6615323756115
 30
0.0
 11
-175.4142341937276
 21
244.3615323756115
 31
0.0
  0
LINE
  5
205
330
90
100
AcDbEntity
  8
0
  6
DASHED
 62
     0
100
AcDbLine
 10
-319.4512432784828
 20
244.3615323756115
 30
0.0
 11
-320.4327387361052
 21
246.0615323756115
 31
0.0
  0
LINE
  5
206
330
90
100
AcDbEntity
  8
0
  6
DASHED
 62
     0
100
AcDbLine
 10
-320.4327387361053
 20
242.6615323756116
 30
0.0
 11
-319.451243278483
 21
244.3615323756115
 31
0.0
  0
ARC
  5
207
330
90
100
AcDbEntity
  8
0
  6
DASHED
 62
     0
100
AcDbCircle
 10
-298.9327387361053
 20
246.3615323756115
 30
0.0
 40
1.0
100
AcDbArc
 50
180.0
 51
270.0
  0
ARC
  5
208
330
90
100
AcDbEntity
  8
0
  6
DASHED
 62
     0
100
AcDbCircle
 10
-195.9327387361053
 20
246.3615323756115
 30
0.0
 40
1.0
100
AcDbArc
 50
270.0
 51
0.0
  0
ARC
  5
209
330
90
100
AcDbEntity
  8
0
  6
Continuous
 62
     0
100
AcDbCircle
 10
-166.4938648890264
 20
241.3615323756115
 30
0.0
 40
1.0
100
AcDbArc
 50
270.0
 51
359.5000000000003
  0
ARC
  5
20A
330
90
100
AcDbEntity
  8
0
  6
Continuous
 62
     0
100
AcDbCircle
 10
-328.3716125831841
 20
241.3615323756115
 30
0.0
 40
1.0
100
AcDbArc
 50
180.4999999999997
 51
270.0
  0
ENDBLK
  5
92
330
90
100
AcDbEntity
  8
0
100
AcDbBlockEnd
  0
BLOCK
  5
94
330
93
100
AcDbEntity
  8
0
100
AcDbBlockBegin
  2
UGA4670011
 70
     0
 10
0.0
 20
0.0
 30
0.0
  3
UGA4670011
  1

  0
LINE
  5
20B
330
93
100
AcDbEntity
  8
0
  6
Continuous
 62
     0
100
AcDbLine
 10
-332.4327387361053
 20
144.0241177568693
 30
0.0
 11
-332.4327387361053
 21
120.0241177568693
 31
0.0
  0
LINE
  5
20C
330
93
100
AcDbEntity
  8
0
  6
Continuous
 62
     0
100
AcDbLine
 10
-162.4327387361052
 20
144.0241177568693
 30
0.0
 11
-162.4327387361052
 21
120.0241177568693
 31
0.0
  0
LINE
  5
20D
330
93
100
AcDbEntity
  8
0
  6
Continuous
 62
     0
100
AcDbLine
 10
-331.9327387361053
 20
144.5241177568693
 30
0.0
 11
-329.9327387361053
 21
144.5241177568693
 31
0.0
  0
LINE
  5
20E
330
93
100
AcDbEntity
  8
0
  6
Continuous
 62
     0
100
AcDbLine
 10
-331.9327387361053
 20
119.5241177568693
 30
0.0
 11
-329.9327387361053
 21
119.5241177568693
 31
0.0
  0
LINE
  5
20F
330
93
100
AcDbEntity
  8
0
  6
DASHED
 62
     0
100
AcDbLine
 10
-329.4327387361053
 20
144.0241177568693
 30
0.0
 11
-329.4327387361053
 21
120.0241177568693
 31
0.0
  0
LINE
  5
210
330
93
100
AcDbEntity
  8
0
  6
DASHED
 62
     0
100
AcDbLine
 10
-165.4327387361052
 20
144.0241177568693
 30
0.0
 11
-165.4327387361052
 21
120.0241177568693
 31
0.0
  0
LINE
  5
211
330
93
100
AcDbEntity
  8
0
  6
CENTER
 62
     0
100
AcDbLine
 10
-333.0388379166624
 20
138.5241177568693
 30
0.0
 11
-328.8743341213799
 21
138.5241177568693
 31
0.0
  0
LINE
  5
212
330
93
100
AcDbEntity
  8
0
  6
CENTER
 62
     0
100
AcDbLine
 10
-333.0388379166624
 20
125.5241177568693
 30
0.0
 11
-328.8743341213799
 21
125.5241177568693
 31
0.0
  0
LINE
  5
213
330
93
100
AcDbEntity
  8
0
  6
CENTER
 62
     0
100
AcDbLine
 10
-161.826639555548
 20
138.5241177568693
 30
0.0
 11
-165.9911433508305
 21
138.5241177568693
 31
0.0
  0
LINE
  5
214
330
93
100
AcDbEntity
  8
0
  6
CENTER
 62
     0
100
AcDbLine
 10
-161.826639555548
 20
125.5241177568693
 30
0.0
 11
-165.9911433508305
 21
125.5241177568693
 31
0.0
  0
LINE
  5
215
330
93
100
AcDbEntity
  8
0
  6
Continuous
 62
     0
100
AcDbLine
 10
-331.9327387361053
 20
144.1767884187971
 30
0.0
 11
-162.9327387361052
 21
144.1767884187971
 31
0.0
  0
LINE
  5
216
330
93
100
AcDbEntity
  8
0
  6
Continuous
 62
     0
100
AcDbLine
 10
-164.9327387361052
 20
144.5241177568693
 30
0.0
 11
-162.9327387361052
 21
144.5241177568693
 31
0.0
  0
LINE
  5
217
330
93
100
AcDbEntity
  8
0
  6
Continuous
 62
     0
100
AcDbLine
 10
-331.9327387361053
 20
119.8714470949415
 30
0.0
 11
-162.9327387361052
 21
119.8714470949415
 31
0.0
  0
LINE
  5
218
330
93
100
AcDbEntity
  8
0
  6
Continuous
 62
     0
100
AcDbLine
 10
-164.9327387361052
 20
119.5241177568693
 30
0.0
 11
-162.9327387361052
 21
119.5241177568693
 31
0.0
  0
LINE
  5
219
330
93
100
AcDbEntity
  8
0
  6
DASHED
 62
     0
100
AcDbLine
 10
-162.4327387361052
 20
141.6241177568693
 30
0.0
 11
-162.7627387361052
 21
141.6241177568693
 31
0.0
  0
LINE
  5
21A
330
93
100
AcDbEntity
  8
0
  6
DASHED
 62
     0
100
AcDbLine
 10
-162.4327387361052
 20
135.4241177568693
 30
0.0
 11
-162.7627387361052
 21
135.4241177568693
 31
0.0
  0
LINE
  5
21B
330
93
100
AcDbEntity
  8
0
  6
DASHED
 62
     0
100
AcDbLine
 10
-163.7627387361052
 20
140.6241177568693
 30
0.0
 11
-163.7627387361052
 21
136.4241177568693
 31
0.0
  0
LINE
  5
21C
330
93
100
AcDbEntity
  8
0
  6
DASHED
 62
     0
100
AcDbLine
 10
-162.7627387361052
 20
141.6241177568693
 30
0.0
 11
-162.7627387361052
 21
135.4241177568693
 31
0.0
  0
LINE
  5
21D
330
93
100
AcDbEntity
  8
0
  6
DASHED
 62
     0
100
AcDbLine
 10
-163.7627387361052
 20
140.6241177568693
 30
0.0
 11
-165.4327387361052
 21
140.6241177568693
 31
0.0
  0
LINE
  5
21E
330
93
100
AcDbEntity
  8
0
  6
DASHED
 62
     0
100
AcDbLine
 10
-163.7627387361052
 20
136.4241177568693
 30
0.0
 11
-165.4327387361052
 21
136.4241177568693
 31
0.0
  0
LINE
  5
21F
330
93
100
AcDbEntity
  8
0
  6
DASHED
 62
     0
100
AcDbLine
 10
-163.7627387361051
 20
140.6241177568692
 30
0.0
 11
-162.7627387361051
 21
141.6241177568692
 31
0.0
  0
LINE
  5
220
330
93
100
AcDbEntity
  8
0
  6
DASHED
 62
     0
100
AcDbLine
 10
-163.7627387361051
 20
136.4241177568693
 30
0.0
 11
-162.7627387361051
 21
135.4241177568692
 31
0.0
  0
LINE
  5
221
330
93
100
AcDbEntity
  8
0
  6
DASHED
 62
     0
100
AcDbLine
 10
-162.7627387361052
 20
128.6241177568693
 30
0.0
 11
-162.7627387361052
 21
122.4241177568693
 31
0.0
  0
LINE
  5
222
330
93
100
AcDbEntity
  8
0
  6
DASHED
 62
     0
100
AcDbLine
 10
-163.7627387361052
 20
127.6241177568693
 30
0.0
 11
-163.7627387361052
 21
123.4241177568693
 31
0.0
  0
LINE
  5
223
330
93
100
AcDbEntity
  8
0
  6
DASHED
 62
     0
100
AcDbLine
 10
-163.7627387361052
 20
123.4241177568693
 30
0.0
 11
-165.4327387361052
 21
123.4241177568693
 31
0.0
  0
LINE
  5
224
330
93
100
AcDbEntity
  8
0
  6
DASHED
 62
     0
100
AcDbLine
 10
-163.7627387361052
 20
127.6241177568693
 30
0.0
 11
-165.4327387361052
 21
127.6241177568693
 31
0.0
  0
LINE
  5
225
330
93
100
AcDbEntity
  8
0
  6
DASHED
 62
     0
100
AcDbLine
 10
-163.7627387361051
 20
127.6241177568692
 30
0.0
 11
-162.7627387361051
 21
128.6241177568692
 31
0.0
  0
LINE
  5
226
330
93
100
AcDbEntity
  8
0
  6
DASHED
 62
     0
100
AcDbLine
 10
-162.4327387361052
 20
128.6241177568693
 30
0.0
 11
-162.7627387361052
 21
128.6241177568693
 31
0.0
  0
LINE
  5
227
330
93
100
AcDbEntity
  8
0
  6
DASHED
 62
     0
100
AcDbLine
 10
-162.4327387361052
 20
122.4241177568693
 30
0.0
 11
-162.7627387361052
 21
122.4241177568693
 31
0.0
  0
LINE
  5
228
330
93
100
AcDbEntity
  8
0
  6
DASHED
 62
     0
100
AcDbLine
 10
-163.7627387361052
 20
123.4241177568692
 30
0.0
 11
-162.7627387361052
 21
122.4241177568692
 31
0.0
  0
LINE
  5
229
330
93
100
AcDbEntity
  8
0
  6
DASHED
 62
     0
100
AcDbLine
 10
-332.1027387361053
 20
135.4241177568693
 30
0.0
 11
-332.1027387361053
 21
141.6241177568693
 31
0.0
  0
LINE
  5
22A
330
93
100
AcDbEntity
  8
0
  6
DASHED
 62
     0
100
AcDbLine
 10
-331.1027387361053
 20
136.4241177568693
 30
0.0
 11
-331.1027387361053
 21
140.6241177568693
 31
0.0
  0
LINE
  5
22B
330
93
100
AcDbEntity
  8
0
  6
DASHED
 62
     0
100
AcDbLine
 10
-331.1027387361053
 20
140.6241177568693
 30
0.0
 11
-329.4327387361053
 21
140.6241177568693
 31
0.0
  0
LINE
  5
22C
330
93
100
AcDbEntity
  8
0
  6
DASHED
 62
     0
100
AcDbLine
 10
-331.1027387361053
 20
136.4241177568693
 30
0.0
 11
-329.4327387361053
 21
136.4241177568693
 31
0.0
  0
LINE
  5
22D
330
93
100
AcDbEntity
  8
0
  6
DASHED
 62
     0
100
AcDbLine
 10
-331.1027387361051
 20
136.4241177568692
 30
0.0
 11
-332.1027387361051
 21
135.4241177568692
 31
0.0
  0
LINE
  5
22E
330
93
100
AcDbEntity
  8
0
  6
DASHED
 62
     0
100
AcDbLine
 10
-332.4327387361053
 20
135.4241177568693
 30
0.0
 11
-332.1027387361053
 21
135.4241177568693
 31
0.0
  0
LINE
  5
22F
330
93
100
AcDbEntity
  8
0
  6
DASHED
 62
     0
100
AcDbLine
 10
-332.4327387361053
 20
141.6241177568693
 30
0.0
 11
-332.1027387361053
 21
141.6241177568693
 31
0.0
  0
LINE
  5
230
330
93
100
AcDbEntity
  8
0
  6
DASHED
 62
     0
100
AcDbLine
 10
-331.1027387361052
 20
140.6241177568693
 30
0.0
 11
-332.1027387361052
 21
141.6241177568693
 31
0.0
  0
LINE
  5
231
330
93
100
AcDbEntity
  8
0
  6
DASHED
 62
     0
100
AcDbLine
 10
-331.1027387361052
 20
127.6241177568693
 30
0.0
 11
-332.1027387361052
 21
128.6241177568693
 31
0.0
  0
LINE
  5
232
330
93
100
AcDbEntity
  8
0
  6
DASHED
 62
     0
100
AcDbLine
 10
-332.4327387361053
 20
128.6241177568693
 30
0.0
 11
-332.1027387361053
 21
128.6241177568693
 31
0.0
  0
LINE
  5
233
330
93
100
AcDbEntity
  8
0
  6
DASHED
 62
     0
100
AcDbLine
 10
-332.4327387361053
 20
122.4241177568693
 30
0.0
 11
-332.1027387361053
 21
122.4241177568693
 31
0.0
  0
LINE
  5
234
330
93
100
AcDbEntity
  8
0
  6
DASHED
 62
     0
100
AcDbLine
 10
-331.1027387361052
 20
123.4241177568693
 30
0.0
 11
-332.1027387361052
 21
122.4241177568693
 31
0.0
  0
LINE
  5
235
330
93
100
AcDbEntity
  8
0
  6
DASHED
 62
     0
100
AcDbLine
 10
-331.1027387361053
 20
123.4241177568693
 30
0.0
 11
-329.4327387361053
 21
123.4241177568693
 31
0.0
  0
LINE
  5
236
330
93
100
AcDbEntity
  8
0
  6
DASHED
 62
     0
100
AcDbLine
 10
-331.1027387361053
 20
127.6241177568693
 30
0.0
 11
-329.4327387361053
 21
127.6241177568693
 31
0.0
  0
LINE
  5
237
330
93
100
AcDbEntity
  8
0
  6
DASHED
 62
     0
100
AcDbLine
 10
-331.1027387361053
 20
123.4241177568693
 30
0.0
 11
-331.1027387361053
 21
127.6241177568693
 31
0.0
  0
LINE
  5
238
330
93
100
AcDbEntity
  8
0
  6
DASHED
 62
     0
100
AcDbLine
 10
-332.1027387361053
 20
122.4241177568693
 30
0.0
 11
-332.1027387361053
 21
128.6241177568693
 31
0.0
  0
ARC
  5
239
330
93
100
AcDbEntity
  8
0
  6
Continuous
 62
     0
100
AcDbCircle
 10
-331.9327387361053
 20
144.0241177568693
 30
0.0
 40
0.5
100
AcDbArc
 50
90.00000000000001
 51
180.0
  0
ARC
  5
23A
330
93
100
AcDbEntity
  8
0
  6
Continuous
 62
     0
100
AcDbCircle
 10
-331.9327387361053
 20
120.0241177568693
 30
0.0
 40
0.5
100
AcDbArc
 50
180.0
 51
270.0
  0
ARC
  5
23B
330
93
100
AcDbEntity
  8
0
  6
Continuous
 62
     0
100
AcDbCircle
 10
-162.9327387361052
 20
144.0241177568693
 30
0.0
 40
0.5
100
AcDbArc
 50
0.0
 51
90.00000000000001
  0
ARC
  5
23C
330
93
100
AcDbEntity
  8
0
  6
Continuous
 62
     0
100
AcDbCircle
 10
-162.9327387361052
 20
120.0241177568693
 30
0.0
 40
0.5
100
AcDbArc
 50
270.0
 51
0.0
  0
ARC
  5
23D
330
93
100
AcDbEntity
  8
0
  6
DASHED
 62
     0
100
AcDbCircle
 10
-329.9327387361053
 20
144.0241177568693
 30
0.0
 40
0.5
100
AcDbArc
 50
0.0
 51
17.77869993952983
  0
ARC
  5
23E
330
93
100
AcDbEntity
  8
0
  6
Continuous
 62
     0
100
AcDbCircle
 10
-329.9327387361053
 20
120.0241177568693
 30
0.0
 40
0.5
100
AcDbArc
 50
270.0
 51
342.2213000604717
  0
ARC
  5
23F
330
93
100
AcDbEntity
  8
0
  6
Continuous
 62
     0
100
AcDbCircle
 10
-164.9327387361052
 20
144.0241177568693
 30
0.0
 40
0.5
100
AcDbArc
 50
90.00000000000001
 51
162.2213000604702
  0
ARC
  5
240
330
93
100
AcDbEntity
  8
0
  6
DASHED
 62
     0
100
AcDbCircle
 10
-164.9327387361052
 20
120.0241177568693
 30
0.0
 40
0.5
100
AcDbArc
 50
180.0
 51
197.7786999395273
  0
ARC
  5
241
330
93
100
AcDbEntity
  8
0
  6
Continuous
 62
     0
100
AcDbCircle
 10
-162.9327387361052
 20
143.6767884187971
 30
0.0
 40
0.5
100
AcDbArc
 50
0.0
 51
90.00000000000001
  0
ARC
  5
242
330
93
100
AcDbEntity
  8
0
  6
DASHED
 62
     0
100
AcDbCircle
 10
-164.9327387361052
 20
144.0241177568693
 30
0.0
 40
0.5
100
AcDbArc
 50
162.2213000604702
 51
180.0
  0
ARC
  5
243
330
93
100
AcDbEntity
  8
0
  6
Continuous
 62
     0
100
AcDbCircle
 10
-331.9327387361053
 20
143.6767884187971
 30
0.0
 40
0.5
100
AcDbArc
 50
90.00000000000001
 51
180.0
  0
ARC
  5
244
330
93
100
AcDbEntity
  8
0
  6
Continuous
 62
     0
100
AcDbCircle
 10
-329.9327387361053
 20
144.0241177568693
 30
0.0
 40
0.5
100
AcDbArc
 50
17.77869993952983
 51
90.00000000000001
  0
ARC
  5
245
330
93
100
AcDbEntity
  8
0
  6
Continuous
 62
     0
100
AcDbCircle
 10
-162.9327387361052
 20
120.3714470949415
 30
0.0
 40
0.5
100
AcDbArc
 50
270.0
 51
0.0
  0
ARC
  5
246
330
93
100
AcDbEntity
  8
0
  6
Continuous
 62
     0
100
AcDbCircle
 10
-164.9327387361052
 20
120.0241177568693
 30
0.0
 40
0.5
100
AcDbArc
 50
197.7786999395273
 51
270.0
  0
ARC
  5
247
330
93
100
AcDbEntity
  8
0
  6
Continuous
 62
     0
100
AcDbCircle
 10
-331.9327387361053
 20
120.3714470949415
 30
0.0
 40
0.5
100
AcDbArc
 50
180.0
 51
270.0
  0
ARC
  5
248
330
93
100
AcDbEntity
  8
0
  6
DASHED
 62
     0
100
AcDbCircle
 10
-329.9327387361053
 20
120.0241177568693
 30
0.0
 40
0.5
100
AcDbArc
 50
342.2213000604717
 51
0.0
  0
ENDBLK
  5
95
330
93
100
AcDbEntity
  8
0
100
AcDbBlockEnd
  0
BLOCK
  5
97
330
96
100
AcDbEntity
  8
0
100
AcDbBlockBegin
  2
UGA4670012
 70
     0
 10
0.0
 20
0.0
 30
0.0
  3
UGA4670012
  1

  0
LINE
  5
249
330
96
100
AcDbEntity
  8
0
  6
Continuous
 62
     0
100
AcDbLine
 10
-96.88153246562291
 20
143.6811328134996
 30
0.0
 11
-96.88153246562291
 21
120.367102700239
 31
0.0
  0
LINE
  5
24A
330
96
100
AcDbEntity
  8
0
  6
Continuous
 62
     0
100
AcDbLine
 10
-57.0815324656229
 20
144.5241177568693
 30
0.0
 11
-57.0815324656229
 21
119.5241177568693
 31
0.0
  0
LINE
  5
24B
330
96
100
AcDbEntity
  8
0
  6
CENTER
 62
     0
100
AcDbLine
 10
-55.84153246562292
 20
138.5241177568693
 30
0.0
 11
-65.9215324656229
 21
138.5241177568693
 31
0.0
  0
LINE
  5
24C
330
96
100
AcDbEntity
  8
0
  6
CENTER
 62
     0
100
AcDbLine
 10
-60.88153246562291
 20
143.5641177568693
 30
0.0
 11
-60.88153246562291
 21
133.4841177568693
 31
0.0
  0
LINE
  5
24D
330
96
100
AcDbEntity
  8
0
  6
CENTER
 62
     0
100
AcDbLine
 10
-60.88153246562291
 20
130.5641177568693
 30
0.0
 11
-60.88153246562291
 21
120.4841177568693
 31
0.0
  0
LINE
  5
24E
330
96
100
AcDbEntity
  8
0
  6
CENTER
 62
     0
100
AcDbLine
 10
-55.84153246562292
 20
125.5241177568693
 30
0.0
 11
-65.9215324656229
 21
125.5241177568693
 31
0.0
  0
LINE
  5
24F
330
96
100
AcDbEntity
  8
0
  6
DASHED
 62
     0
100
AcDbLine
 10
-93.88153246562291
 20
143.6985865490811
 30
0.0
 11
-93.88153246562291
 21
120.3496489646575
 31
0.0
  0
LINE
  5
250
330
96
100
AcDbEntity
  8
0
  6
Continuous
 62
     0
100
AcDbLine
 10
-96.38589573337212
 20
144.1811137750317
 30
0.0
 11
-57.08153246562289
 21
144.5241177568693
 31
0.0
  0
LINE
  5
251
330
96
100
AcDbEntity
  8
0
  6
Continuous
 62
     0
100
AcDbLine
 10
-96.38589573337211
 20
119.867121738707
 30
0.0
 11
-57.08153246562289
 21
119.5241177568694
 31
0.0
  0
ARC
  5
252
330
96
100
AcDbEntity
  8
0
  6
DASHED
 62
     0
100
AcDbCircle
 10
-94.38153246562291
 20
143.6985865490811
 30
0.0
 40
0.5
100
AcDbArc
 50
0.0
 51
90.50000000000132
  0
ARC
  5
253
330
96
100
AcDbEntity
  8
0
  6
Continuous
 62
     0
100
AcDbCircle
 10
-96.38153246562291
 20
143.6811328134996
 30
0.0
 40
0.5
100
AcDbArc
 50
90.50000000000132
 51
180.0
  0
ARC
  5
254
330
96
100
AcDbEntity
  8
0
  6
DASHED
 62
     0
100
AcDbCircle
 10
-94.38153246562291
 20
120.3496489646575
 30
0.0
 40
0.5
100
AcDbArc
 50
269.4999999999987
 51
0.0
  0
ARC
  5
255
330
96
100
AcDbEntity
  8
0
  6
Continuous
 62
     0
100
AcDbCircle
 10
-96.38153246562291
 20
120.367102700239
 30
0.0
 40
0.5
100
AcDbArc
 50
180.0
 51
269.4999999999987
  0
CIRCLE
  5
256
330
96
100
AcDbEntity
  8
0
  6
Continuous
 62
     0
100
AcDbCircle
 10
-60.88153246562291
 20
138.5241177568693
 30
0.0
 40
3.1
  0
CIRCLE
  5
257
330
96
100
AcDbEntity
  8
0
  6
Continuous
 62
     0
100
AcDbCircle
 10
-60.88153246562291
 20
125.5241177568693
 30
0.0
 40
3.1
  0
CIRCLE
  5
258
330
96
100
AcDbEntity
  8
0
  6
DASHED
 62
     0
100
AcDbCircle
 10
-60.88153246562291
 20
138.5241177568693
 30
0.0
 40
2.1
  0
CIRCLE
  5
259
330
96
100
AcDbEntity
  8
0
  6
DASHED
 62
     0
100
AcDbCircle
 10
-60.88153246562291
 20
125.5241177568693
 30
0.0
 40
2.1
  0
ENDBLK
  5
98
330
96
100
AcDbEntity
  8
0
100
AcDbBlockEnd
  0
BLOCK
  5
9A
330
99
100
AcDbEntity
  8
0
100
AcDbBlockBegin
  2
UGA4670013
 70
     0
 10
0.0
 20
0.0
 30
0.0
  3
UGA4670013
  1

  0
LINE
  5
25A
330
99
100
AcDbEntity
  8
0
  6
CENTER
 62
     0
100
AcDbLine
 10
-60.88153246562291
 20
142.560049003571
 30
0.0
 11
-60.88153246562291
 21
134.77215635058
 31
0.0
  0
LINE
  5
25B
330
99
100
AcDbEntity
  8
0
  6
CENTER
 62
     0
100
AcDbLine
 10
-64.67336986011276
 20
138.5241177568693
 30
0.0
 11
-57.11958219669071
 21
138.5241177568693
 31
0.0
  0
LINE
  5
25C
330
99
100
AcDbEntity
  8
0
  6
Continuous
 62
     0
100
AcDbLine
 10
-61.23153246562291
 20
140.5741177568693
 30
0.0
 11
-60.5315324656229
 21
140.5741177568693
 31
0.0
  0
LINE
  5
25D
330
99
100
AcDbEntity
  8
0
  6
Continuous
 62
     0
100
AcDbLine
 10
-61.23153246562291
 20
136.4741177568693
 30
0.0
 11
-60.5315324656229
 21
136.4741177568693
 31
0.0
  0
LINE
  5
25E
330
99
100
AcDbEntity
  8
0
  6
Continuous
 62
     0
100
AcDbLine
 10
-62.93153246562292
 20
138.8741177568693
 30
0.0
 11
-62.93153246562292
 21
138.1741177568693
 31
0.0
  0
LINE
  5
25F
330
99
100
AcDbEntity
  8
0
  6
Continuous
 62
     0
100
AcDbLine
 10
-58.8315324656229
 20
138.8741177568693
 30
0.0
 11
-58.8315324656229
 21
138.1741177568693
 31
0.0
  0
LINE
  5
260
330
99
100
AcDbEntity
  8
0
  6
Continuous
 62
     0
100
AcDbLine
 10
-62.93153246562291
 20
138.8741177568693
 30
0.0
 11
-61.8315324656229
 21
138.8741177568693
 31
0.0
  0
LINE
  5
261
330
99
100
AcDbEntity
  8
0
  6
Continuous
 62
     0
100
AcDbLine
 10
-62.93153246562291
 20
138.1741177568693
 30
0.0
 11
-61.8315324656229
 21
138.1741177568693
 31
0.0
  0
LINE
  5
262
330
99
100
AcDbEntity
  8
0
  6
Continuous
 62
     0
100
AcDbLine
 10
-61.23153246562288
 20
140.5741177568693
 30
0.0
 11
-61.23153246562288
 21
139.4741177568693
 31
0.0
  0
LINE
  5
263
330
99
100
AcDbEntity
  8
0
  6
Continuous
 62
     0
100
AcDbLine
 10
-60.53153246562289
 20
140.5741177568693
 30
0.0
 11
-60.53153246562289
 21
139.4741177568693
 31
0.0
  0
LINE
  5
264
330
99
100
AcDbEntity
  8
0
  6
Continuous
 62
     0
100
AcDbLine
 10
-61.23153246562288
 20
137.5741177568693
 30
0.0
 11
-61.23153246562288
 21
136.4741177568693
 31
0.0
  0
LINE
  5
265
330
99
100
AcDbEntity
  8
0
  6
Continuous
 62
     0
100
AcDbLine
 10
-60.53153246562289
 20
137.5741177568693
 30
0.0
 11
-60.53153246562289
 21
136.4741177568693
 31
0.0
  0
LINE
  5
266
330
99
100
AcDbEntity
  8
0
  6
Continuous
 62
     0
100
AcDbLine
 10
-59.93153246562291
 20
138.8741177568693
 30
0.0
 11
-58.83153246562291
 21
138.8741177568693
 31
0.0
  0
LINE
  5
267
330
99
100
AcDbEntity
  8
0
  6
Continuous
 62
     0
100
AcDbLine
 10
-59.93153246562291
 20
138.1741177568693
 30
0.0
 11
-58.83153246562291
 21
138.1741177568693
 31
0.0
  0
ARC
  5
268
330
99
100
AcDbEntity
  8
0
  6
Continuous
 62
     0
100
AcDbCircle
 10
-61.8315324656229
 20
139.4741177568693
 30
0.0
 40
0.6000000000000001
100
AcDbArc
 50
270.0
 51
0.0
  0
ARC
  5
269
330
99
100
AcDbEntity
  8
0
  6
Continuous
 62
     0
100
AcDbCircle
 10
-59.93153246562292
 20
137.5741177568693
 30
0.0
 40
0.6000000000000001
100
AcDbArc
 50
90.00000000000001
 51
180.0
  0
ARC
  5
26A
330
99
100
AcDbEntity
  8
0
  6
Continuous
 62
     0
100
AcDbCircle
 10
-61.8315324656229
 20
137.5741177568693
 30
0.0
 40
0.6000000000000001
100
AcDbArc
 50
0.0
 51
90.00000000000001
  0
ARC
  5
26B
330
99
100
AcDbEntity
  8
0
  6
Continuous
 62
     0
100
AcDbCircle
 10
-59.93153246562292
 20
139.4741177568693
 30
0.0
 40
0.6000000000000001
100
AcDbArc
 50
180.0
 51
270.0
  0
CIRCLE
  5
26C
330
99
100
AcDbEntity
  8
0
  6
Continuous
 62
     0
100
AcDbCircle
 10
-60.88153246562291
 20
138.5241177568693
 30
0.0
 40
3.0
  0
ENDBLK
  5
9B
330
99
100
AcDbEntity
  8
0
100
AcDbBlockEnd
  0
BLOCK
  5
9D
330
9C
100
AcDbEntity
  8
0
100
AcDbBlockBegin
  2
UGA4670014
 70
     0
 10
0.0
 20
0.0
 30
0.0
  3
UGA4670014
  1

  0
LINE
  5
26D
330
9C
100
AcDbEntity
  8
0
  6
CENTER
 62
     0
100
AcDbLine
 10
-60.88153246562291
 20
129.560049003571
 30
0.0
 11
-60.88153246562291
 21
121.77215635058
 31
0.0
  0
LINE
  5
26E
330
9C
100
AcDbEntity
  8
0
  6
CENTER
 62
     0
100
AcDbLine
 10
-64.67336986011276
 20
125.5241177568693
 30
0.0
 11
-57.11958219669071
 21
125.5241177568693
 31
0.0
  0
LINE
  5
26F
330
9C
100
AcDbEntity
  8
0
  6
Continuous
 62
     0
100
AcDbLine
 10
-62.93153246562292
 20
125.8741177568693
 30
0.0
 11
-62.93153246562292
 21
125.1741177568693
 31
0.0
  0
LINE
  5
270
330
9C
100
AcDbEntity
  8
0
  6
Continuous
 62
     0
100
AcDbLine
 10
-58.8315324656229
 20
125.8741177568693
 30
0.0
 11
-58.8315324656229
 21
125.1741177568693
 31
0.0
  0
LINE
  5
271
330
9C
100
AcDbEntity
  8
0
  6
Continuous
 62
     0
100
AcDbLine
 10
-61.23153246562291
 20
127.5741177568693
 30
0.0
 11
-60.5315324656229
 21
127.5741177568693
 31
0.0
  0
LINE
  5
272
330
9C
100
AcDbEntity
  8
0
  6
Continuous
 62
     0
100
AcDbLine
 10
-61.23153246562291
 20
123.4741177568693
 30
0.0
 11
-60.5315324656229
 21
123.4741177568693
 31
0.0
  0
LINE
  5
273
330
9C
100
AcDbEntity
  8
0
  6
Continuous
 62
     0
100
AcDbLine
 10
-61.23153246562288
 20
127.5741177568693
 30
0.0
 11
-61.23153246562288
 21
126.4741177568693
 31
0.0
  0
LINE
  5
274
330
9C
100
AcDbEntity
  8
0
  6
Continuous
 62
     0
100
AcDbLine
 10
-60.53153246562289
 20
127.5741177568693
 30
0.0
 11
-60.53153246562289
 21
126.4741177568693
 31
0.0
  0
LINE
  5
275
330
9C
100
AcDbEntity
  8
0
  6
Continuous
 62
     0
100
AcDbLine
 10
-62.93153246562291
 20
125.1741177568693
 30
0.0
 11
-61.8315324656229
 21
125.1741177568693
 31
0.0
  0
LINE
  5
276
330
9C
100
AcDbEntity
  8
0
  6
Continuous
 62
     0
100
AcDbLine
 10
-62.93153246562291
 20
125.8741177568693
 30
0.0
 11
-61.8315324656229
 21
125.8741177568693
 31
0.0
  0
LINE
  5
277
330
9C
100
AcDbEntity
  8
0
  6
Continuous
 62
     0
100
AcDbLine
 10
-59.93153246562291
 20
125.1741177568693
 30
0.0
 11
-58.83153246562291
 21
125.1741177568693
 31
0.0
  0
LINE
  5
278
330
9C
100
AcDbEntity
  8
0
  6
Continuous
 62
     0
100
AcDbLine
 10
-59.93153246562291
 20
125.8741177568693
 30
0.0
 11
-58.83153246562291
 21
125.8741177568693
 31
0.0
  0
LINE
  5
279
330
9C
100
AcDbEntity
  8
0
  6
Continuous
 62
     0
100
AcDbLine
 10
-61.23153246562288
 20
124.5741177568693
 30
0.0
 11
-61.23153246562288
 21
123.4741177568693
 31
0.0
  0
LINE
  5
27A
330
9C
100
AcDbEntity
  8
0
  6
Continuous
 62
     0
100
AcDbLine
 10
-60.53153246562289
 20
124.5741177568693
 30
0.0
 11
-60.53153246562289
 21
123.4741177568693
 31
0.0
  0
ARC
  5
27B
330
9C
100
AcDbEntity
  8
0
  6
Continuous
 62
     0
100
AcDbCircle
 10
-61.8315324656229
 20
126.4741177568693
 30
0.0
 40
0.6000000000000001
100
AcDbArc
 50
270.0
 51
0.0
  0
ARC
  5
27C
330
9C
100
AcDbEntity
  8
0
  6
Continuous
 62
     0
100
AcDbCircle
 10
-59.93153246562292
 20
126.4741177568693
 30
0.0
 40
0.6000000000000001
100
AcDbArc
 50
180.0
 51
270.0
  0
ARC
  5
27D
330
9C
100
AcDbEntity
  8
0
  6
Continuous
 62
     0
100
AcDbCircle
 10
-59.93153246562292
 20
124.5741177568693
 30
0.0
 40
0.6000000000000001
100
AcDbArc
 50
90.00000000000001
 51
180.0
  0
ARC
  5
27E
330
9C
100
AcDbEntity
  8
0
  6
Continuous
 62
     0
100
AcDbCircle
 10
-61.8315324656229
 20
124.5741177568693
 30
0.0
 40
0.6000000000000001
100
AcDbArc
 50
0.0
 51
90.00000000000001
  0
CIRCLE
  5
27F
330
9C
100
AcDbEntity
  8
0
  6
Continuous
 62
     0
100
AcDbCircle
 10
-60.88153246562291
 20
125.5241177568693
 30
0.0
 40
3.0
  0
ENDBLK
  5
9E
330
9C
100
AcDbEntity
  8
0
100
AcDbBlockEnd
  0
BLOCK
  5
290
330
28F
100
AcDbEntity
  8
0
100
AcDbBlockBegin
  2
_Dot
 70
     0
 10
0.0
 20
0.0
 30
0.0
  3
_Dot
  1

  0
LWPOLYLINE
  5
292
330
28F
100
AcDbEntity
  8
0
  6
ByBlock
 62
     0
100
AcDbPolyline
 90
        2
 70
     1
 43
0.5
 10
-0.25
 20
0.0
 42
1.0
 10
0.25
 20
0.0
 42
1.0
  0
LINE
  5
293
330
28F
100
AcDbEntity
  8
0
  6
ByBlock
 62
     0
370
    -2
100
AcDbLine
 10
-0.5
 20
0.0
 30
0.0
 11
-1.0
 21
0.0
 31
0.0
  0
ENDBLK
  5
291
330
28F
100
AcDbEntity
  8
0
100
AcDbBlockEnd
  0
BLOCK
  5
296
330
295
100
AcDbEntity
  8
0
100
AcDbBlockBegin
  2
*D17
 70
     1
 10
0.0
 20
0.0
 30
0.0
  3
*D17
  1

  0
LINE
  5
298
330
295
100
AcDbEntity
  8
0
 62
     0
370
    -2
100
AcDbLine
 10
-159.8944841096634
 20
248.3615323756115
 30
0.0
 11
-145.6710630604295
 21
248.3615323756115
 31
0.0
  0
LINE
  5
299
330
295
100
AcDbEntity
  8
0
 62
     0
370
    -2
100
AcDbLine
 10
-159.8944841096634
 20
208.3615323756115
 30
0.0
 11
-145.6710630604295
 21
208.3615323756115
 31
0.0
  0
LINE
  5
29A
330
295
100
AcDbEntity
  8
0
 62
     0
370
    -2
100
AcDbLine
 10
-147.6710630604295
 20
247.3615323756115
 30
0.0
 11
-147.6710630604295
 21
209.3615323756115
 31
0.0
  0
INSERT
  5
29B
330
295
100
AcDbEntity
  8
0
 62
     0
370
    -2
100
AcDbBlockReference
  2
_Dot
 10
-147.6710630604295
 20
248.3615323756115
 30
0.0
 50
90.00000000000004
  0
INSERT
  5
29C
330
295
100
AcDbEntity
  8
0
 62
     0
370
    -2
100
AcDbBlockReference
  2
_Dot
 10
-147.6710630604295
 20
208.3615323756115
 30
0.0
 50
270.0000000000001
  0
MTEXT
  5
29D
330
295
100
AcDbEntity
  8
0
 62
     0
100
AcDbMText
 10
-149.9210630604295
 20
228.3625323756115
 30
0.0
 40
3.0
 41
0.0
 71
     5
 72
     1
  1
40
 11
-7.105427357600996E-16
 21
1.0
 31
0.0
 73
     1
 44
1.0
  0
POINT
  5
29E
330
295
100
AcDbEntity
  8
Defpoints
 62
     0
100
AcDbPoint
 10
-162.4344841096634
 20
248.3615323756115
 30
0.0
  0
POINT
  5
29F
330
295
100
AcDbEntity
  8
Defpoints
 62
     0
100
AcDbPoint
 10
-162.4344841096634
 20
208.3615323756115
 30
0.0
  0
POINT
  5
2A0
330
295
100
AcDbEntity
  8
Defpoints
 62
     0
100
AcDbPoint
 10
-147.6720630604295
 20
208.3615323756115
 30
0.0
  0
ENDBLK
  5
297
330
295
100
AcDbEntity
  8
0
100
AcDbBlockEnd
  0
BLOCK
  5
2A3
330
2A2
100
AcDbEntity
  8
0
100
AcDbBlockBegin
  2
*D18
 70
     1
 10
0.0
 20
0.0
 30
0.0
  3
*D18
  1

  0
LINE
  5
2A5
330
2A2
100
AcDbEntity
  8
0
 62
     0
370
    -2
100
AcDbLine
 10
-332.4327387361053
 20
146.5641177568693
 30
0.0
 11
-332.4327387361053
 21
163.1209295104834
 31
0.0
  0
LINE
  5
2A6
330
2A2
100
AcDbEntity
  8
0
 62
     0
370
    -2
100
AcDbLine
 10
-162.4327387361052
 20
146.5641177568693
 30
0.0
 11
-162.4327387361052
 21
163.1209295104834
 31
0.0
  0
LINE
  5
2A7
330
2A2
100
AcDbEntity
  8
0
 62
     0
370
    -2
100
AcDbLine
 10
-331.4327387361053
 20
161.1209295104834
 30
0.0
 11
-163.4327387361052
 21
161.1209295104834
 31
0.0
  0
INSERT
  5
2A8
330
2A2
100
AcDbEntity
  8
0
 62
     0
370
    -2
100
AcDbBlockReference
  2
_Dot
 10
-332.4327387361053
 20
161.1209295104834
 30
0.0
 50
180.0
  0
INSERT
  5
2A9
330
2A2
100
AcDbEntity
  8
0
 62
     0
370
    -2
100
AcDbBlockReference
  2
_Dot
 10
-162.4327387361052
 20
161.1209295104834
 30
0.0
 50
360.0
  0
MTEXT
  5
2AA
330
2A2
100
AcDbEntity
  8
0
 62
     0
100
AcDbMText
 10
-247.4317387361052
 20
163.3709295104834
 30
0.0
 40
3.0
 41
0.0
 71
     5
 72
     1
  1
170
 73
     1
 44
1.0
  0
POINT
  5
2AB
330
2A2
100
AcDbEntity
  8
Defpoints
 62
     0
100
AcDbPoint
 10
-332.4327387361053
 20
144.0241177568693
 30
0.0
  0
POINT
  5
2AC
330
2A2
100
AcDbEntity
  8
Defpoints
 62
     0
100
AcDbPoint
 10
-162.4327387361052
 20
144.0241177568693
 30
0.0
  0
POINT
  5
2AD
330
2A2
100
AcDbEntity
  8
Defpoints
 62
     0
100
AcDbPoint
 10
-162.4327387361052
 20
161.1209295104834
 30
0.0
  0
ENDBLK
  5
2A4
330
2A2
100
AcDbEntity
  8
0
100
AcDbBlockEnd
  0
BLOCK
  5
2B0
330
2AF
100
AcDbEntity
  8
0
100
AcDbBlockBegin
  2
*D19
 70
     1
 10
0.0
 20
0.0
 30
0.0
  3
*D19
  1

  0
LINE
  5
2B2
330
2AF
100
AcDbEntity
  8
0
 62
     0
370
    -2
100
AcDbLine
 10
-332.4327387361053
 20
101.9841177568693
 30
0.0
 11
-332.4327387361053
 21
80.83508161607732
 31
0.0
  0
LINE
  5
2B3
330
2AF
100
AcDbEntity
  8
0
 62
     0
370
    -2
100
AcDbLine
 10
-292.4327387361053
 20
101.9841177568693
 30
0.0
 11
-292.4327387361053
 21
80.83508161607732
 31
0.0
  0
LINE
  5
2B4
330
2AF
100
AcDbEntity
  8
0
 62
     0
370
    -2
100
AcDbLine
 10
-331.4327387361053
 20
82.8350816160773
 30
0.0
 11
-293.4327387361053
 21
82.8350816160773
 31
0.0
  0
INSERT
  5
2B5
330
2AF
100
AcDbEntity
  8
0
 62
     0
370
    -2
100
AcDbBlockReference
  2
_Dot
 10
-332.4327387361053
 20
82.8350816160773
 30
0.0
 50
180.0
  0
INSERT
  5
2B6
330
2AF
100
AcDbEntity
  8
0
 62
     0
370
    -2
100
AcDbBlockReference
  2
_Dot
 10
-292.4327387361053
 20
82.8350816160773
 30
0.0
  0
MTEXT
  5
2B7
330
2AF
100
AcDbEntity
  8
0
 62
     0
100
AcDbMText
 10
-312.4317387361053
 20
85.0850816160773
 30
0.0
 40
3.0
 41
0.0
 71
     5
 72
     1
  1
40
 73
     1
 44
1.0
  0
POINT
  5
2B8
330
2AF
100
AcDbEntity
  8
Defpoints
 62
     0
100
AcDbPoint
 10
-332.4327387361053
 20
104.5241177568693
 30
0.0
  0
POINT
  5
2B9
330
2AF
100
AcDbEntity
  8
Defpoints
 62
     0
100
AcDbPoint
 10
-292.4327387361053
 20
104.5241177568693
 30
0.0
  0
POINT
  5
2BA
330
2AF
100
AcDbEntity
  8
Defpoints
 62
     0
100
AcDbPoint
 10
-292.4327387361053
 20
82.8340816160773
 30
0.0
  0
ENDBLK
  5
2B1
330
2AF
100
AcDbEntity
  8
0
100
AcDbBlockEnd
  0
BLOCK
  5
2BD
330
2BC
100
AcDbEntity
  8
0
100
AcDbBlockBegin
  2
*D20
 70
     1
 10
0.0
 20
0.0
 30
0.0
  3
*D20
  1

  0
LINE
  5
2BF
330
2BC
100
AcDbEntity
  8
0
 62
     0
370
    -2
100
AcDbLine
 10
-202.4327387361053
 20
102.4441177568693
 30
0.0
 11
-202.4327387361053
 21
80.83508161607732
 31
0.0
  0
LINE
  5
2C0
330
2BC
100
AcDbEntity
  8
0
 62
     0
370
    -2
100
AcDbLine
 10
-291.4327387361053
 20
82.83508161607732
 30
0.0
 11
-203.4327387361053
 21
82.8350816160773
 31
0.0
  0
INSERT
  5
2C1
330
2BC
100
AcDbEntity
  8
0
 62
     0
370
    -2
100
AcDbBlockReference
  2
_Dot
 10
-292.4327387361053
 20
82.83508161607732
 30
0.0
 50
180.0
  0
INSERT
  5
2C2
330
2BC
100
AcDbEntity
  8
0
 62
     0
370
    -2
100
AcDbBlockReference
  2
_Dot
 10
-202.4327387361053
 20
82.8350816160773
 30
0.0
 50
360.0
  0
MTEXT
  5
2C3
330
2BC
100
AcDbEntity
  8
0
 62
     0
100
AcDbMText
 10
-247.4317387361052
 20
85.0850816160773
 30
0.0
 40
3.0
 41
0.0
 71
     5
 72
     1
  1
90
 73
     1
 44
1.0
  0
POINT
  5
2C4
330
2BC
100
AcDbEntity
  8
Defpoints
 62
     0
100
AcDbPoint
 10
-292.4327387361053
 20
100.9543973298309
 30
0.0
  0
POINT
  5
2C5
330
2BC
100
AcDbEntity
  8
Defpoints
 62
     0
100
AcDbPoint
 10
-202.4327387361053
 20
104.9841177568693
 30
0.0
  0
POINT
  5
2C6
330
2BC
100
AcDbEntity
  8
Defpoints
 62
     0
100
AcDbPoint
 10
-202.4327387361053
 20
82.8340816160773
 30
0.0
  0
ENDBLK
  5
2BE
330
2BC
100
AcDbEntity
  8
0
100
AcDbBlockEnd
  0
BLOCK
  5
2C9
330
2C8
100
AcDbEntity
  8
0
100
AcDbBlockBegin
  2
*D21
 70
     1
 10
0.0
 20
0.0
 30
0.0
  3
*D21
  1

  0
LINE
  5
2CB
330
2C8
100
AcDbEntity
  8
0
 62
     0
370
    -2
100
AcDbLine
 10
-160.3927387361052
 20
144.5241177568693
 30
0.0
 11
-145.6710630604295
 21
144.5241177568693
 31
0.0
  0
LINE
  5
2CC
330
2C8
100
AcDbEntity
  8
0
 62
     0
370
    -2
100
AcDbLine
 10
-160.3927387361052
 20
119.5241177568693
 30
0.0
 11
-145.6710630604295
 21
119.5241177568693
 31
0.0
  0
LINE
  5
2CD
330
2C8
100
AcDbEntity
  8
0
 62
     0
370
    -2
100
AcDbLine
 10
-147.6710630604295
 20
143.5241177568693
 30
0.0
 11
-147.6710630604295
 21
120.5241177568693
 31
0.0
  0
INSERT
  5
2CE
330
2C8
100
AcDbEntity
  8
0
 62
     0
370
    -2
100
AcDbBlockReference
  2
_Dot
 10
-147.6710630604295
 20
144.5241177568693
 30
0.0
 50
90.0
  0
INSERT
  5
2CF
330
2C8
100
AcDbEntity
  8
0
 62
     0
370
    -2
100
AcDbBlockReference
  2
_Dot
 10
-147.6710630604295
 20
119.5241177568693
 30
0.0
 50
270.0
  0
MTEXT
  5
2D0
330
2C8
100
AcDbEntity
  8
0
 62
     0
100
AcDbMText
 10
-149.9210630604295
 20
132.0251177568693
 30
0.0
 40
3.0
 41
0.0
 71
     5
 72
     1
  1
25
 11
0.0
 21
1.0
 31
0.0
 73
     1
 44
1.0
  0
POINT
  5
2D1
330
2C8
100
AcDbEntity
  8
Defpoints
 62
     0
100
AcDbPoint
 10
-162.9327387361052
 20
144.5241177568693
 30
0.0
  0
POINT
  5
2D2
330
2C8
100
AcDbEntity
  8
Defpoints
 62
     0
100
AcDbPoint
 10
-162.9327387361052
 20
119.5241177568693
 30
0.0
  0
POINT
  5
2D3
330
2C8
100
AcDbEntity
  8
Defpoints
 62
     0
100
AcDbPoint
 10
-147.6720630604295
 20
119.5241177568693
 30
0.0
  0
ENDBLK
  5
2CA
330
2C8
100
AcDbEntity
  8
0
100
AcDbBlockEnd
  0
BLOCK
  5
2D6
330
2D5
100
AcDbEntity
  8
0
100
AcDbBlockBegin
  2
*D22
 70
     1
 10
0.0
 20
0.0
 30
0.0
  3
*D22
  1

  0
LINE
  5
2D8
330
2D5
100
AcDbEntity
  8
0
 62
     0
370
    -2
100
AcDbLine
 10
-159.8927387361052
 20
104.5241177568693
 30
0.0
 11
-125.6720630604296
 21
104.5241177568693
 31
0.0
  0
LINE
  5
2D9
330
2D5
100
AcDbEntity
  8
0
 62
     0
370
    -2
100
AcDbLine
 10
-160.3927387361052
 20
144.5241177568693
 30
0.0
 11
-125.6720630604295
 21
144.5241177568693
 31
0.0
  0
LINE
  5
2DA
330
2D5
100
AcDbEntity
  8
0
 62
     0
370
    -2
100
AcDbLine
 10
-127.6720630604296
 20
105.5241177568693
 30
0.0
 11
-127.6720630604295
 21
143.5241177568693
 31
0.0
  0
INSERT
  5
2DB
330
2D5
100
AcDbEntity
  8
0
 62
     0
370
    -2
100
AcDbBlockReference
  2
_Dot
 10
-127.6720630604296
 20
104.5241177568693
 30
0.0
 50
270.0
  0
INSERT
  5
2DC
330
2D5
100
AcDbEntity
  8
0
 62
     0
370
    -2
100
AcDbBlockReference
  2
_Dot
 10
-127.6720630604295
 20
144.5241177568693
 30
0.0
 50
89.99999999999999
  0
MTEXT
  5
2DD
330
2D5
100
AcDbEntity
  8
0
 62
     0
100
AcDbMText
 10
-129.9220630604295
 20
124.5251177568693
 30
0.0
 40
3.0
 41
0.0
 71
     5
 72
     1
  1
40
 11
3.552713678800504E-16
 21
1.0
 31
0.0
 73
     1
 44
1.0
  0
POINT
  5
2DE
330
2D5
100
AcDbEntity
  8
Defpoints
 62
     0
100
AcDbPoint
 10
-162.4327387361052
 20
104.5241177568693
 30
0.0
  0
POINT
  5
2DF
330
2D5
100
AcDbEntity
  8
Defpoints
 62
     0
100
AcDbPoint
 10
-162.9327387361052
 20
144.5241177568693
 30
0.0
  0
POINT
  5
2E0
330
2D5
100
AcDbEntity
  8
Defpoints
 62
     0
100
AcDbPoint
 10
-127.6720630604295
 20
144.5241177568693
 30
0.0
  0
ENDBLK
  5
2D7
330
2D5
100
AcDbEntity
  8
0
100
AcDbBlockEnd
  0
BLOCK
  5
2E3
330
2E2
100
AcDbEntity
  8
0
100
AcDbBlockBegin
  2
*D23
 70
     1
 10
0.0
 20
0.0
 30
0.0
  3
*D23
  1

  0
LINE
  5
2E5
330
2E2
100
AcDbEntity
  8
0
 62
     0
370
    -2
100
AcDbLine
 10
-127.2120630604295
 20
144.5241177568693
 30
0.0
 11
-139.6623502008216
 21
144.5241177568693
 31
0.0
  0
LINE
  5
2E6
330
2E2
100
AcDbEntity
  8
0
 62
     0
370
    -2
100
AcDbLine
 10
-159.8927387361052
 20
112.0241177568693
 30
0.0
 11
-135.6623502008216
 21
112.0241177568693
 31
0.0
  0
LINE
  5
2E7
330
2E2
100
AcDbEntity
  8
0
 62
     0
370
    -2
100
AcDbLine
 10
-137.6623502008216
 20
143.5241177568693
 30
0.0
 11
-137.6623502008216
 21
113.0241177568693
 31
0.0
  0
INSERT
  5
2E8
330
2E2
100
AcDbEntity
  8
0
 62
     0
370
    -2
100
AcDbBlockReference
  2
_Dot
 10
-137.6623502008216
 20
144.5241177568693
 30
0.0
 50
90.0
  0
INSERT
  5
2E9
330
2E2
100
AcDbEntity
  8
0
 62
     0
370
    -2
100
AcDbBlockReference
  2
_Dot
 10
-137.6623502008216
 20
112.0241177568693
 30
0.0
 50
270.0
  0
MTEXT
  5
2EA
330
2E2
100
AcDbEntity
  8
0
 62
     0
100
AcDbMText
 10
-139.9123502008216
 20
128.2751177568693
 30
0.0
 40
3.0
 41
0.0
 71
     5
 72
     1
  1
32.5
 11
0.0
 21
1.0
 31
0.0
 73
     1
 44
1.0
  0
POINT
  5
2EB
330
2E2
100
AcDbEntity
  8
Defpoints
 62
     0
100
AcDbPoint
 10
-124.6720630604295
 20
144.5241177568693
 30
0.0
  0
POINT
  5
2EC
330
2E2
100
AcDbEntity
  8
Defpoints
 62
     0
100
AcDbPoint
 10
-162.4327387361052
 20
112.0241177568693
 30
0.0
  0
POINT
  5
2ED
330
2E2
100
AcDbEntity
  8
Defpoints
 62
     0
100
AcDbPoint
 10
-137.6643502008216
 20
112.0241177568693
 30
0.0
  0
ENDBLK
  5
2E4
330
2E2
100
AcDbEntity
  8
0
100
AcDbBlockEnd
  0
ENDSEC
  0
SECTION
  2
ENTITIES
  0
INSERT
  5
280
330
1F
100
AcDbEntity
  8
0
 62
     7
100
AcDbBlockReference
  2
UGA4670001
 10
0.0
 20
0.0
 30
0.0
  0
INSERT
  5
281
330
1F
100
AcDbEntity
  8
0
 62
     7
100
AcDbBlockReference
  2
UGA4670002
 10
0.0
 20
0.0
 30
0.0
  0
INSERT
  5
282
330
1F
100
AcDbEntity
  8
0
 62
     7
100
AcDbBlockReference
  2
UGA4670003
 10
0.0
 20
0.0
 30
0.0
  0
INSERT
  5
283
330
1F
100
AcDbEntity
  8
0
 62
     7
100
AcDbBlockReference
  2
UGA4670004
 10
0.0
 20
0.0
 30
0.0
  0
INSERT
  5
284
330
1F
100
AcDbEntity
  8
0
 62
     7
100
AcDbBlockReference
  2
UGA4670005
 10
0.0
 20
0.0
 30
0.0
  0
INSERT
  5
285
330
1F
100
AcDbEntity
  8
0
 62
     7
100
AcDbBlockReference
  2
UGA4670006
 10
0.0
 20
0.0
 30
0.0
  0
INSERT
  5
286
330
1F
100
AcDbEntity
  8
0
 62
     7
100
AcDbBlockReference
  2
UGA4670007
 10
0.0
 20
0.0
 30
0.0
  0
INSERT
  5
287
330
1F
100
AcDbEntity
  8
0
 62
     7
100
AcDbBlockReference
  2
UGA4670008
 10
0.0
 20
0.0
 30
0.0
  0
INSERT
  5
288
330
1F
100
AcDbEntity
  8
0
 62
     7
100
AcDbBlockReference
  2
UGA4670009
 10
0.0
 20
0.0
 30
0.0
  0
INSERT
  5
289
330
1F
100
AcDbEntity
  8
0
 62
     7
100
AcDbBlockReference
  2
UGA4670010
 10
0.0
 20
0.0
 30
0.0
  0
INSERT
  5
28A
330
1F
100
AcDbEntity
  8
0
 62
     7
100
AcDbBlockReference
  2
UGA4670011
 10
0.0
 20
0.0
 30
0.0
  0
INSERT
  5
28B
330
1F
100
AcDbEntity
  8
0
 62
     7
100
AcDbBlockReference
  2
UGA4670012
 10
0.0
 20
0.0
 30
0.0
  0
INSERT
  5
28C
330
1F
100
AcDbEntity
  8
0
 62
     7
100
AcDbBlockReference
  2
UGA4670013
 10
0.0
 20
0.0
 30
0.0
  0
INSERT
  5
28D
330
1F
100
AcDbEntity
  8
0
 62
     7
100
AcDbBlockReference
  2
UGA4670014
 10
0.0
 20
0.0
 30
0.0
  0
DIMENSION
  5
28E
330
1F
100
AcDbEntity
  8
0
 62
     7
100
AcDbDimension
  2
*D17
 10
-147.6710630604295
 20
208.3615323756115
 30
0.0
 11
-147.6710630604295
 21
228.3625323756115
 31
0.0
 70
   160
 71
     5
 42
40.00000000000003
  3
ISO-25
100
AcDbAlignedDimension
 13
-162.4344841096634
 23
248.3615323756115
 33
0.0
 14
-162.4344841096634
 24
208.3615323756115
 34
0.0
 50
90.00000000000001
100
AcDbRotatedDimension
1001
ACAD
1000
DSTYLE
1002
{
1070
   278
1070
    46
1070
   147
1040
0.75
1070
    77
1070
     1
1070
    74
1070
     0
1070
    73
1070
     0
1070
    42
1040
2.54
1070
    44
1040
2.0
1070
    76
1070
     0
1070
    75
1070
     0
1070
   279
1070
     0
1070
   271
1070
     0
1070
   144
1040
1.0
1070
   173
1070
     1
1070
    41
1040
1.0
1070
   140
1040
3.0
1070
   344
1005
28F
1070
   343
1005
28F
1002
}
  0
DIMENSION
  5
2A1
330
1F
100
AcDbEntity
  8
0
 62
     7
100
AcDbDimension
  2
*D18
 10
-162.4327387361052
 20
161.1209295104834
 30
0.0
 11
-247.4317387361052
 21
161.1209295104834
 31
0.0
 70
   160
 71
     5
 42
170.0
  3
ISO-25
100
AcDbAlignedDimension
 13
-332.4327387361053
 23
144.0241177568693
 33
0.0
 14
-162.4327387361052
 24
144.0241177568693
 34
0.0
 50
180.0
100
AcDbRotatedDimension
1001
ACAD
1000
DSTYLE
1002
{
1070
   278
1070
    46
1070
   147
1040
0.75
1070
    77
1070
     1
1070
    74
1070
     0
1070
    73
1070
     0
1070
    42
1040
2.54
1070
    44
1040
2.0
1070
    76
1070
     0
1070
    75
1070
     0
1070
   279
1070
     0
1070
   271
1070
     0
1070
   144
1040
1.0
1070
   173
1070
     1
1070
    41
1040
1.0
1070
   140
1040
3.0
1070
   344
1005
28F
1070
   343
1005
28F
1002
}
  0
DIMENSION
  5
2AE
330
1F
100
AcDbEntity
  8
0
 62
     7
100
AcDbDimension
  2
*D19
 10
-292.4327387361053
 20
82.8350816160773
 30
0.0
 11
-312.4317387361053
 21
82.8350816160773
 31
0.0
 70
   160
 71
     5
 42
40.0
  3
ISO-25
100
AcDbAlignedDimension
 13
-332.4327387361053
 23
104.5241177568693
 33
0.0
 14
-292.4327387361053
 24
104.5241177568693
 34
0.0
 50
180.0
100
AcDbRotatedDimension
1001
ACAD
1000
DSTYLE
1002
{
1070
   278
1070
    46
1070
   147
1040
0.75
1070
    77
1070
     1
1070
    74
1070
     0
1070
    73
1070
     0
1070
    42
1040
2.54
1070
    44
1040
1.999999999999986
1070
    76
1070
     0
1070
    75
1070
     0
1070
   279
1070
     0
1070
   271
1070
     0
1070
   144
1040
1.0
1070
   173
1070
     1
1070
    41
1040
1.0
1070
   140
1040
3.0
1070
   344
1005
28F
1070
   343
1005
28F
1002
}
  0
DIMENSION
  5
2BB
330
1F
100
AcDbEntity
  8
0
 62
     7
100
AcDbDimension
  2
*D20
 10
-202.4327387361053
 20
82.8350816160773
 30
0.0
 11
-247.4317387361052
 21
82.8350816160773
 31
0.0
 70
   160
 71
     5
 42
90.0
  3
ISO-25
100
AcDbAlignedDimension
 13
-292.4327387361053
 23
100.9543973298309
 33
0.0
 14
-202.4327387361053
 24
104.9841177568693
 34
0.0
 50
180.0
100
AcDbRotatedDimension
1001
ACAD
1000
DSTYLE
1002
{
1070
   278
1070
    46
1070
   147
1040
0.75
1070
    77
1070
     1
1070
    74
1070
     0
1070
    73
1070
     0
1070
    42
1040
2.54
1070
    44
1040
1.999999999999986
1070
    76
1070
     0
1070
    75
1070
     1
1070
   279
1070
     0
1070
   271
1070
     0
1070
   144
1040
1.0
1070
   173
1070
     1
1070
    41
1040
1.0
1070
   140
1040
3.0
1070
   344
1005
28F
1070
   343
1005
28F
1002
}
  0
DIMENSION
  5
2C7
330
1F
100
AcDbEntity
  8
0
 62
     7
100
AcDbDimension
  2
*D21
 10
-147.6710630604295
 20
119.5241177568693
 30
0.0
 11
-147.6710630604295
 21
132.0251177568693
 31
0.0
 70
   160
 71
     5
 42
24.99999999999997
  3
ISO-25
100
AcDbAlignedDimension
 13
-162.9327387361052
 23
144.5241177568693
 33
0.0
 14
-162.9327387361052
 24
119.5241177568693
 34
0.0
 50
90.00000000000001
100
AcDbRotatedDimension
1001
ACAD
1000
DSTYLE
1002
{
1070
   278
1070
    46
1070
   147
1040
0.75
1070
    77
1070
     1
1070
    74
1070
     0
1070
    73
1070
     0
1070
    42
1040
2.54
1070
    44
1040
2.0
1070
    76
1070
     0
1070
    75
1070
     0
1070
   279
1070
     0
1070
   271
1070
     0
1070
   144
1040
1.0
1070
   173
1070
     1
1070
    41
1040
1.0
1070
   140
1040
3.0
1070
   344
1005
28F
1070
   343
1005
28F
1002
}
  0
DIMENSION
  5
2D4
330
1F
100
AcDbEntity
  8
0
 62
     7
100
AcDbDimension
  2
*D22
 10
-127.6720630604295
 20
144.5241177568693
 30
0.0
 11
-127.6720630604295
 21
124.5251177568693
 31
0.0
 70
   160
 71
     5
 42
39.99999999999997
  3
ISO-25
100
AcDbAlignedDimension
 13
-162.4327387361052
 23
104.5241177568693
 33
0.0
 14
-162.9327387361052
 24
144.5241177568693
 34
0.0
 50
270.0
100
AcDbRotatedDimension
1001
ACAD
1000
DSTYLE
1002
{
1070
   278
1070
    46
1070
   147
1040
0.75
1070
    77
1070
     1
1070
    74
1070
     0
1070
    73
1070
     0
1070
    42
1040
2.54
1070
    44
1040
2.0
1070
    76
1070
     0
1070
    75
1070
     0
1070
   279
1070
     0
1070
   271
1070
     0
1070
   144
1040
1.0
1070
   173
1070
     1
1070
    41
1040
1.0
1070
   140
1040
3.0
1070
   344
1005
28F
1070
   343
1005
28F
1002
}
  0
DIMENSION
  5
2E1
330
1F
100
AcDbEntity
  8
0
 62
     7
100
AcDbDimension
  2
*D23
 10
-137.6623502008216
 20
112.0241177568693
 30
0.0
 11
-137.6623502008216
 21
128.2751177568693
 31
0.0
 70
   160
 71
     5
 42
32.49999999999999
  3
ISO-25
100
AcDbAlignedDimension
 13
-124.6720630604295
 23
144.5241177568693
 33
0.0
 14
-162.4327387361052
 24
112.0241177568693
 34
0.0
 50
90.00000000000001
100
AcDbRotatedDimension
1001
ACAD
1000
DSTYLE
1002
{
1070
   278
1070
    46
1070
   147
1040
0.75
1070
    77
1070
     1
1070
    74
1070
     0
1070
    73
1070
     0
1070
    42
1040
2.54
1070
    44
1040
2.0
1070
    76
1070
     0
1070
    75
1070
     0
1070
   279
1070
     0
1070
    78
1070
     0
1070
   271
1070
     1
1070
   144
1040
1.0
1070
   173
1070
     1
1070
    41
1040
1.0
1070
   140
1040
3.0
1070
   344
1005
28F
1070
   343
1005
28F
1002
}
  0
LINE
  5
2EF
330
1F
100
AcDbEntity
  8
AV
  6
Continuous
 62
     7
100
AcDbLine
 10
-15.0
 20
281.999755859375
 30
0.0
 11
-15.0
 21
14.999755859375
 31
0.0
  0
LINE
  5
2F0
330
1F
100
AcDbEntity
  8
AV
  6
Continuous
 62
     7
100
AcDbLine
 10
-405.0
 20
281.999755859375
 30
0.0
 11
-15.0
 21
281.999755859375
 31
0.0
  0
LINE
  5
2F1
330
1F
100
AcDbEntity
  8
AV
  6
Continuous
 62
     7
100
AcDbLine
 10
-405.0
 20
14.999755859375
 30
0.0
 11
-15.0
 21
14.999755859375
 31
0.0
  0
LINE
  5
2F2
330
1F
100
AcDbEntity
  8
AV
  6
Continuous
 62
     7
100
AcDbLine
 10
-405.0
 20
281.999755859375
 30
0.0
 11
-405.0
 21
14.999755859375
 31
0.0
  0
LINE
  5
2F3
330
1F
100
AcDbEntity
  8
AV
  6
Continuous
 62
     7
100
AcDbLine
 10
-171.0
 20
54.999755859375
 30
0.0
 11
-15.0
 21
54.999755859375
 31
0.0
  0
LINE
  5
2F4
330
1F
100
AcDbEntity
  8
AV
  6
Continuous
 62
     7
100
AcDbLine
 10
-100.0
 20
34.999755859375
 30
0.0
 11
-15.0
 21
34.999755859375
 31
0.0
  0
LINE
  5
2F5
330
1F
100
AcDbEntity
  8
AV
  6
Continuous
 62
     7
100
AcDbLine
 10
-171.0
 20
54.999755859375
 30
0.0
 11
-171.0
 21
14.999755859375
 31
0.0
  0
LINE
  5
2F6
330
1F
100
AcDbEntity
  8
AV
  6
Continuous
 62
     7
100
AcDbLine
 10
-117.75
 20
54.999755859375
 30
0.0
 11
-117.75
 21
29.999755859375
 31
0.0
  0
LINE
  5
2F7
330
1F
100
AcDbEntity
  8
AV
  6
Continuous
 62
     7
100
AcDbLine
 10
-171.0
 20
44.999755859375
 30
0.0
 11
-100.0
 21
44.999755859375
 31
0.0
  0
LINE
  5
2F8
330
1F
100
AcDbEntity
  8
AV
  6
Continuous
 62
     7
100
AcDbLine
 10
-100.0
 20
54.999755859375
 30
0.0
 11
-100.0
 21
14.999755859375
 31
0.0
  0
LINE
  5
2F9
330
1F
100
AcDbEntity
  8
AV
  6
Continuous
 62
     7
100
AcDbLine
 10
-153.25
 20
44.999755859375
 30
0.0
 11
-153.25
 21
29.999755859375
 31
0.0
  0
LINE
  5
2FA
330
1F
100
AcDbEntity
  8
AV
  6
Continuous
 62
     7
100
AcDbLine
 10
-135.5
 20
54.999755859375
 30
0.0
 11
-135.5
 21
29.999755859375
 31
0.0
  0
LINE
  5
2FB
330
1F
100
AcDbEntity
  8
AV
  6
Continuous
 62
     7
100
AcDbLine
 10
-171.0
 20
29.999755859375
 30
0.0
 11
-100.0
 21
29.999755859375
 31
0.0
  0
LINE
  5
2FC
330
1F
100
AcDbEntity
  8
AV
  6
Continuous
 62
     7
100
AcDbLine
 10
-20.99324573988179
 20
269.9621769897689
 30
0.0
 11
-20.99324573988179
 21
251.9621769897689
 31
0.0
  0
LINE
  5
2FD
330
1F
100
AcDbEntity
  8
AV
  6
Continuous
 62
     7
100
AcDbLine
 10
-60.99324573988179
 20
269.9621769897689
 30
0.0
 11
-60.99324573988179
 21
251.9621769897689
 31
0.0
  0
LINE
  5
2FE
330
1F
100
AcDbEntity
  8
AV
  6
Continuous
 62
     7
100
AcDbLine
 10
-102.9932457398818
 20
251.9621769897689
 30
0.0
 11
-20.99324573988179
 21
251.9621769897689
 31
0.0
  0
LINE
  5
2FF
330
1F
100
AcDbEntity
  8
AV
  6
Continuous
 62
     7
100
AcDbLine
 10
-102.9932457398818
 20
269.9621769897689
 30
0.0
 11
-102.9932457398818
 21
251.9621769897689
 31
0.0
  0
LINE
  5
300
330
1F
100
AcDbEntity
  8
AV
  6
Continuous
 62
     7
100
AcDbLine
 10
-102.9932457398818
 20
269.9621769897689
 30
0.0
 11
-20.99324573988179
 21
269.9621769897689
 31
0.0
  0
LINE
  5
301
330
1F
100
AcDbEntity
  8
AV
  6
Continuous
 62
     7
100
AcDbLine
 10
-102.9932457398818
 20
263.9621769897689
 30
0.0
 11
-20.99324573988179
 21
263.9621769897689
 31
0.0
  0
LINE
  5
302
330
1F
100
AcDbEntity
  8
AV
  6
Continuous
 62
     7
100
AcDbLine
 10
-102.9932457398818
 20
257.9621769897689
 30
0.0
 11
-20.99324573988179
 21
257.9621769897689
 31
0.0
  0
MTEXT
  5
303
330
1F
100
AcDbEntity
  8
AV
 62
     7
100
AcDbMText
 10
-67.50000104308128
 20
22.24306404676599
 30
0.0
 40
3.5
 41
0.0
 71
     7
 72
     1
  1
{\W0.833333;UGA467}
 73
     1
 44
1.0
  0
MTEXT
  5
304
330
1F
100
AcDbEntity
  8
AV
 62
     7
100
AcDbMText
 10
-65.75000095367432
 20
45.74306404676599
 30
0.0
 40
3.5
 41
0.0
 71
     7
 72
     1
  1
{\W0.833333;タオル掛け}
 73
     1
 44
1.0
  0
MTEXT
  5
305
330
1F
100
AcDbEntity
  8
AV
 62
     7
100
AcDbMText
 10
-20.15047826050532
 20
11.31623944288644
 30
0.0
 40
2.0
 41
0.0
 71
     7
 72
     1
  1
{\W0.833333;Ａ3}
 73
     1
 44
1.0
  0
MTEXT
  5
306
330
1F
100
AcDbEntity
  8
AV
 62
     7
100
AcDbMText
 10
-97.53571438789368
 20
30.999755859375
 30
0.0
 40
3.0
 41
0.0
 71
     7
 72
     1
  1
{\W0.833333;品番}
 73
     1
 44
1.0
  0
MTEXT
  5
307
330
1F
100
AcDbEntity
  8
AV
 62
     7
100
AcDbMText
 10
-168.5357143878937
 20
25.999755859375
 30
0.0
 40
3.0
 41
0.0
 71
     7
 72
     1
  1
{\W0.833333;備考}
 73
     1
 44
1.0
  0
MTEXT
  5
308
330
1F
100
AcDbEntity
  8
AV
 62
     7
100
AcDbMText
 10
-20.15047826050532
 20
11.31623944288644
 30
0.0
 40
2.0
 41
0.0
 71
     7
 72
     1
  1
{\W0.833333;Ａ3}
 73
     1
 44
1.0
  0
MTEXT
  5
309
330
1F
100
AcDbEntity
  8
AV
 62
     7
100
AcDbMText
 10
-110.3325219154358
 20
33.249755859375
 30
0.0
 40
3.5
 41
0.0
 71
     7
 72
     1
  1
{\W0.453074;１：2}
 73
     1
 44
1.0
  0
MTEXT
  5
30A
330
1F
100
AcDbEntity
  8
AV
 62
     7
100
AcDbMText
 10
-97.53571438789368
 20
50.999755859375
 30
0.0
 40
3.0
 41
0.0
 71
     7
 72
     1
  1
{\W0.833333;名称}
 73
     1
 44
1.0
  0
MTEXT
  5
30B
330
1F
100
AcDbEntity
  8
AV
 62
     7
100
AcDbMText
 10
-135.2912567853928
 20
33.249755859375
 30
0.0
 40
3.5
 41
0.0
 71
     7
 72
     1
  1
{\W0.453074;’07.10.05}
 73
     1
 44
1.0
  0
MTEXT
  5
30C
102
{ACAD_XDICTIONARY
360
329
102
}
330
1F
100
AcDbEntity
  8
AV
 62
     7
100
AcDbMText
 10
-160.2500004768372
 20
31.999755859375
 30
0.0
 40
3.5
 41
2.700001029968262
 71
     7
 72
     1
  1
{\fＭＳ Ｐゴシック|b0|i0|c0|p0;\W0.83333x;\U+5BFA}\P{\fＭＳ Ｐゴシック|b0|i0|c0|p0;\W0.83333x;\U+524D}
 73
     1
 44
0.7875
  0
MTEXT
  5
30D
330
1F
100
AcDbEntity
  8
AV
 62
     7
100
AcDbMText
 10
-132.5714201927185
 20
48.49975824356079
 30
0.0
 40
2.999995231628418
 41
0.0
 71
     7
 72
     1
  1
{\W0.833333;第三角法}
 73
     1
 44
1.0
  0
MTEXT
  5
30E
330
1F
100
AcDbEntity
  8
AV
 62
     7
100
AcDbMText
 10
-169.0357143878937
 20
40.999755859375
 30
0.0
 40
3.0
 41
0.0
 71
     7
 72
     1
  1
{\W0.833333;製図}
 73
     1
 44
1.0
  0
MTEXT
  5
30F
330
1F
100
AcDbEntity
  8
AV
 62
     7
100
AcDbMText
 10
-133.5357143878937
 20
40.999755859375
 30
0.0
 40
3.0
 41
0.0
 71
     7
 72
     1
  1
{\W0.833333;日付}
 73
     1
 44
1.0
  0
MTEXT
  5
310
330
1F
100
AcDbEntity
  8
AV
 62
     7
100
AcDbMText
 10
-151.2857143878937
 20
40.999755859375
 30
0.0
 40
3.0
 41
0.0
 71
     7
 72
     1
  1
{\W0.833333;検図}
 73
     1
 44
1.0
  0
MTEXT
  5
311
102
{ACAD_XDICTIONARY
360
32B
102
}
330
1F
100
AcDbEntity
  8
AV
 62
     7
100
AcDbMText
 10
-142.5000004768372
 20
31.999755859375
 30
0.0
 40
3.5
 41
2.700001029968262
 71
     7
 72
     1
  1
{\fＭＳ Ｐゴシック|b0|i0|c0|p0;\W0.83333x;\U+672B}\P{\fＭＳ Ｐゴシック|b0|i0|c0|p0;\W0.83333x;\U+6C38}
 73
     1
 44
0.7875
  0
MTEXT
  5
312
330
1F
100
AcDbEntity
  8
AV
 62
     7
100
AcDbMText
 10
-115.7857143878937
 20
40.999755859375
 30
0.0
 40
3.0
 41
0.0
 71
     7
 72
     1
  1
{\W0.833333;尺度}
 73
     1
 44
1.0
  0
MTEXT
  5
313
330
1F
100
AcDbEntity
  8
AV
 62
     7
100
AcDbMText
 10
-106.7500004768372
 20
47.249755859375
 30
0.0
 40
3.5
 41
0.0
 71
     7
 72
     1
  1
{\W0.833333;ｍｍ}
 73
     1
 44
1.0
  0
MTEXT
  5
314
330
1F
100
AcDbEntity
  8
AV
 62
     7
100
AcDbMText
 10
-115.7857143878937
 20
50.999755859375
 30
0.0
 40
3.0
 41
0.0
 71
     7
 72
     1
  1
{\W0.833333;単位}
 73
     1
 44
1.0
  0
MTEXT
  5
315
330
1F
100
AcDbEntity
  8
AV
 62
     7
100
AcDbMText
 10
-102.6777109583932
 20
271.8468606910516
 30
0.0
 40
3.0
 41
0.0
 71
     7
 72
     1
  1
{\W0.833333;同梱部材}
 73
     1
 44
1.0
  0
MTEXT
  5
316
330
1F
100
AcDbEntity
  8
AV
 62
     7
100
AcDbMText
 10
-81.99324573988179
 20
266.9621769897689
 30
0.0
 40
3.0
 41
0.0
 71
     5
 72
     1
  1
{\W0.833333;品　名}
 73
     1
 44
1.0
  0
MTEXT
  5
317
330
1F
100
AcDbEntity
  8
AV
 62
     7
100
AcDbMText
 10
-81.99324573988179
 20
254.9621769897689
 30
0.0
 40
2.5
 41
0.0
 71
     5
 72
     1
  1
{\W0.888889;施工・取扱説明書}
 73
     1
 44
1.0
  0
MTEXT
  5
318
330
1F
100
AcDbEntity
  8
AV
 62
     7
100
AcDbMText
 10
-40.99324573988179
 20
266.9621769897689
 30
0.0
 40
3.0
 41
0.0
 71
     5
 72
     1
  1
{\W0.888889;数量（仕様）}
 73
     1
 44
1.0
  0
MTEXT
  5
319
330
1F
100
AcDbEntity
  8
AV
 62
     7
100
AcDbMText
 10
-43.15991236681202
 20
259.7121769897689
 30
0.0
 40
2.5
 41
0.0
 71
     7
 72
     1
  1
{\W0.888889;2ヶ}
 73
     1
 44
1.0
  0
MTEXT
  5
31A
330
1F
100
AcDbEntity
  8
AV
 62
     7
100
AcDbMText
 10
-81.99324573988179
 20
260.9621769897689
 30
0.0
 40
2.5
 41
0.0
 71
     5
 72
     1
  1
{\W0.888889;+皿TPねじ4×40}
 73
     1
 44
1.0
  0
MTEXT
  5
31B
330
1F
100
AcDbEntity
  8
AV
 62
     7
100
AcDbMText
 10
-43.15991236681202
 20
253.7121769897689
 30
0.0
 40
2.5
 41
0.0
 71
     7
 72
     1
  1
{\W0.888889;1ヶ}
 73
     1
 44
1.0
  0
MTEXT
  5
31C
102
{ACAD_XDICTIONARY
360
32D
102
}
330
1F
100
AcDbEntity
  8
AV
 62
     7
100
AcDbMText
 10
-65.49259120963575
 20
61.03600867281652
 30
0.0
 40
3.0
 41
41.19120165824891
 71
     7
 72
     1
  1
{\fＭＳ Ｐゴシック|b0|i0|c0|p0;\W0.83333x;\U+30FB\U+6750\U+8CEA\U+FF1A\U+4E9C\U+925B\U+5408\U+91D1\U+30C0\U+30A4\U+30AB\U+30B9\U+30C8}\P{\fＭＳ Ｐゴシック|b0|i0|c0|p0;\W0.83333x;\U+30FB\U+8868\U+9762\U+FF1A\U+30AF\U+30ED\U+30E0\U+3081\U+3063\U+304D\U+4ED5\U+4E0A\U+3052}
 73
     1
 44
0.84
  0
INSERT
  5
31D
330
1F
100
AcDbEntity
  8
AV
 62
     7
100
AcDbBlockReference
  2
UGA4670000
 10
-167.5
 20
45.499755859375
 30
0.0
 41
0.5
 42
0.5
 43
0.5
  0
ENDSEC
  0
SECTION
  2
OBJECTS
  0
DICTIONARY
  5
C
330
0
100
AcDbDictionary
281
     1
  3
ACAD_GROUP
350
D
  3
ACAD_LAYOUT
350
1A
  3
ACAD_MATERIAL
350
43
  3
ACAD_MLEADERSTYLE
350
6B
  3
ACAD_MLINESTYLE
350
17
  3
ACAD_PLOTSETTINGS
350
19
  3
ACAD_PLOTSTYLENAME
350
E
  3
ACAD_SCALELIST
350
47
  3
ACAD_TABLESTYLE
350
69
  3
ACAD_VISUALSTYLE
350
2A
  3
ACDB_RECOMPOSE_DATA
350
36C
  3
AcDbVariableDictionary
350
31E
  3
DWGPROPS
350
328
  0
DICTIONARY
  5
32F
330
8
100
AcDbDictionary
280
     1
281
     1
  3
ACAD_XREC_ROUNDTRIP
360
330
  0
DICTIONARY
  5
329
330
30C
100
AcDbDictionary
280
     1
281
     1
  3
ACAD_MTEXT_RT
360
32A
  0
DICTIONARY
  5
32B
330
311
100
AcDbDictionary
280
     1
281
     1
  3
ACAD_MTEXT_RT
360
32C
  0
DICTIONARY
  5
32D
330
31C
100
AcDbDictionary
280
     1
281
     1
  3
ACAD_MTEXT_RT
360
32E
  0
DICTIONARY
  5
D
102
{ACAD_REACTORS
330
C
102
}
330
C
100
AcDbDictionary
281
     1
  0
DICTIONARY
  5
1A
102
{ACAD_REACTORS
330
C
102
}
330
C
100
AcDbDictionary
281
     1
  3
Layout1
350
1E
  3
Layout2
350
26
  3
Model
350
22
  0
DICTIONARY
  5
43
102
{ACAD_REACTORS
330
C
102
}
330
C
100
AcDbDictionary
281
     1
  3
ByBlock
350
45
  3
ByLayer
350
44
  3
Global
350
46
  0
DICTIONARY
  5
6B
102
{ACAD_REACTORS
330
C
102
}
330
C
100
AcDbDictionary
281
     1
  3
Standard
350
6C
  0
DICTIONARY
  5
17
102
{ACAD_REACTORS
330
C
102
}
330
C
100
AcDbDictionary
281
     1
  3
Standard
350
18
  0
DICTIONARY
  5
19
102
{ACAD_REACTORS
330
C
102
}
330
C
100
AcDbDictionary
281
     1
  0
ACDBDICTIONARYWDFLT
  5
E
102
{ACAD_REACTORS
330
C
102
}
330
C
100
AcDbDictionary
281
     1
  3
Normal
350
F
100
AcDbDictionaryWithDefault
340
F
  0
DICTIONARY
  5
47
102
{ACAD_REACTORS
330
C
102
}
330
C
100
AcDbDictionary
281
     1
  3
A0
350
48
  3
A1
350
49
  3
A2
350
4A
  3
A3
350
4B
  3
A4
350
4C
  3
A5
350
4D
  3
A6
350
4E
  3
A7
350
4F
  3
A8
350
50
  3
A9
350
51
  3
B0
350
52
  3
B1
350
53
  3
B2
350
54
  3
B3
350
55
  3
B4
350
56
  3
B5
350
57
  3
B6
350
58
  3
B7
350
59
  3
B8
350
5A
  3
B9
350
5B
  3
C0
350
5C
  3
C1
350
5D
  3
C2
350
5E
  3
C3
350
5F
  3
C4
350
60
  3
C5
350
61
  3
C6
350
62
  3
C7
350
63
  3
C8
350
64
  3
C9
350
65
  3
D0
350
66
  3
D1
350
67
  3
D2
350
68
  0
DICTIONARY
  5
69
102
{ACAD_REACTORS
330
C
102
}
330
C
100
AcDbDictionary
281
     1
  3
Standard
350
6A
  0
DICTIONARY
  5
2A
102
{ACAD_REACTORS
330
C
102
}
330
C
100
AcDbDictionary
281
     1
  3
2dWireframe
350
2F
  3
Basic
350
32
  3
Brighten
350
36
  3
ColorChange
350
3A
  3
Conceptual
350
34
  3
Dim
350
35
  3
EdgeColorOff
350
3D
  3
Facepattern
350
39
  3
Flat
350
2B
  3
FlatWithEdges
350
2C
  3
Gouraud
350
2D
  3
GouraudWithEdges
350
2E
  3
Hidden
350
31
  3
JitterOff
350
3B
  3
Linepattern
350
38
  3
OverhangOff
350
3C
  3
Realistic
350
33
  3
Shaded
350
42
  3
Shaded with edges
350
41
  3
Shades of Gray
350
3E
  3
Sketchy
350
3F
  3
Thicken
350
37
  3
Wireframe
350
30
  3
X-Ray
350
40
  0
XRECORD
  5
36C
102
{ACAD_REACTORS
330
C
102
}
330
C
100
AcDbXrecord
280
     1
 90
        1
330
30C
330
31C
330
311
  0
DICTIONARY
  5
31E
102
{ACAD_REACTORS
330
C
102
}
330
C
100
AcDbDictionary
281
     1
  3
CANNOSCALE
350
331
  3
CENTEREXE
350
324
  3
CENTERLTYPEFILE
350
325
  3
CMLEADERSTYLE
350
320
  3
CTABLESTYLE
350
31F
  3
DIMASSOC
350
326
  3
HIDETEXT
350
327
  3
MSLTSCALE
350
332
  3
PSOLHEIGHT
350
321
  0
XRECORD
  5
328
102
{ACAD_REACTORS
330
C
102
}
330
C
100
AcDbXrecord
280
     1
  1
DWGPROPS COOKIE
  2

  3

  4

  6

  7

  8
SYSTEM
  9

300
=
301
=
302
=
303
=
304
=
305
=
306
=
307
=
308
=
309
=
 40
0.0
 41
2459480.034703727
 42
2459480.034704271
  1

 90
        0
  0
XRECORD
  5
330
102
{ACAD_REACTORS
330
32F
102
}
330
32F
100
AcDbXrecord
280
     1
102
VTR_0.000_0.000_1.000_1.000_VISUALSTYLE
340
2F
102
VTR_0.000_0.000_1.000_1.000_GRIDDISPLAY
 70
     3
102
VTR_0.000_0.000_1.000_1.000_GRIDMAJOR
 70
     5
102
VTR_0.000_0.000_1.000_1.000_DEFAULTLIGHTING
280
     1
102
VTR_0.000_0.000_1.000_1.000_DEFAULTLIGHTINGTYPE
 70
     1
102
VTR_0.000_0.000_1.000_1.000_BRIGHTNESS
141
0.0
102
VTR_0.000_0.000_1.000_1.000_CONTRAST
142
0.0
  0
XRECORD
  5
32A
102
{ACAD_REACTORS
330
329
102
}
330
329
100
AcDbXrecord
280
     1
 40
305991.0
  1
\W0.833333;\pxql;寺\P前}
  0
XRECORD
  5
32C
102
{ACAD_REACTORS
330
32B
102
}
330
32B
100
AcDbXrecord
280
     1
 40
305078.0
  1
\W0.833333;\pxql;末\P永}
  0
XRECORD
  5
32E
102
{ACAD_REACTORS
330
32D
102
}
330
32D
100
AcDbXrecord
280
     1
 40
2256097.0
  1
\W0.833333;\pxql;・材質：亜鉛合金ダイカスト\P・表面：クロムめっき仕上げ}
  0
LAYOUT
  5
1E
102
{ACAD_REACTORS
330
1A
102
}
330
1A
100
AcDbPlotSettings
  1

  2
none_device
  4

  6

 40
0.0
 41
0.0
 42
0.0
 43
0.0
 44
0.0
 45
0.0
 46
0.0
 47
0.0
 48
0.0
 49
0.0
140
0.0
141
0.0
142
1.0
143
1.0
 70
   688
 72
     1
 73
     0
 74
     5
  7

 75
    16
147
1.0
148
0.0
149
0.0
100
AcDbLayout
  1
Layout1
 70
     1
 71
     1
 10
-420.0
 20
0.0
 11
0.0
 21
296.999756
 12
0.0
 22
0.0
 32
0.0
 14
1.000000000000000E+20
 24
1.000000000000000E+20
 34
1.000000000000000E+20
 15
-1.000000000000000E+20
 25
-1.000000000000000E+20
 35
-1.000000000000000E+20
146
0.0
 13
0.0
 23
0.0
 33
0.0
 16
1.0
 26
0.0
 36
0.0
 17
0.0
 27
1.0
 37
0.0
 76
     0
330
1B
  0
LAYOUT
  5
26
102
{ACAD_REACTORS
330
1A
102
}
330
1A
100
AcDbPlotSettings
  1

  2
none_device
  4

  6

 40
0.0
 41
0.0
 42
0.0
 43
0.0
 44
0.0
 45
0.0
 46
0.0
 47
0.0
 48
0.0
 49
0.0
140
0.0
141
0.0
142
1.0
143
1.0
 70
   688
 72
     1
 73
     0
 74
     5
  7

 75
    16
147
1.0
148
0.0
149
0.0
100
AcDbLayout
  1
Layout2
 70
     1
 71
     2
 10
0.0
 20
0.0
 11
0.0
 21
0.0
 12
0.0
 22
0.0
 32
0.0
 14
0.0
 24
0.0
 34
0.0
 15
0.0
 25
0.0
 35
0.0
146
0.0
 13
0.0
 23
0.0
 33
0.0
 16
1.0
 26
0.0
 36
0.0
 17
0.0
 27
1.0
 37
0.0
 76
     0
330
23
  0
LAYOUT
  5
22
102
{ACAD_REACTORS
330
1A
102
}
330
1A
100
AcDbPlotSettings
  1

  2
none_device
  4
Letter_(8.50_x_11.00_Inches)
  6

 40
6.35
 41
6.35
 42
6.35000508
 43
6.35000508
 44
215.9
 45
279.4
 46
0.0
 47
0.0
 48
0.0
 49
0.0
140
0.0
141
0.0
142
1.0
143
1.0
 70
  1712
 72
     1
 73
     0
 74
     0
  7

 75
     0
147
1.0
148
0.0
149
0.0
100
AcDbLayout
  1
Model
 70
     1
 71
     0
 10
-420.0
 20
0.0
 11
0.0
 21
296.999756
 12
0.0
 22
0.0
 32
0.0
 14
-420.0
 24
0.0
 34
0.0
 15
0.0
 25
296.999756
 35
0.0
146
0.0
 13
0.0
 23
0.0
 33
0.0
 16
1.0
 26
0.0
 36
0.0
 17
0.0
 27
1.0
 37
0.0
 76
     0
330
1F
331
29
  0
MATERIAL
  5
45
102
{ACAD_REACTORS
330
43
102
}
102
{ACAD_XDICTIONARY
360
365
102
}
330
43
100
AcDbMaterial
  1
ByBlock
  0
MATERIAL
  5
44
102
{ACAD_REACTORS
330
43
102
}
102
{ACAD_XDICTIONARY
360
363
102
}
330
43
100
AcDbMaterial
  1
ByLayer
  0
MATERIAL
  5
46
102
{ACAD_REACTORS
330
43
102
}
102
{ACAD_XDICTIONARY
360
367
102
}
330
43
100
AcDbMaterial
  1
Global
  0
MLEADERSTYLE
  5
6C
102
{ACAD_REACTORS
330
6B
102
}
102
{ACAD_XDICTIONARY
360
36A
102
}
330
6B
100
AcDbMLeaderStyle
170
     2
171
     1
172
     0
 90
        2
 40
0.0
 41
0.0
173
     1
 91
-1056964608
340
14
 92
       -2
290
     1
 42
2.0
291
     1
 43
8.0
  3
Standard
341
0
 44
4.0
300

342
11
174
     1
178
     6
175
     1
176
     0
 93
-1056964608
 45
4.0
292
     0
297
     0
 46
4.0
343
0
 94
-1056964608
 47
1.0
 49
1.0
140
1.0
293
     1
141
0.0
294
     1
177
     0
142
1.0
295
     0
296
     0
143
3.75
1001
ACAD_MLEADERVER
1070
     2
  0
MLINESTYLE
  5
18
102
{ACAD_REACTORS
330
17
102
}
330
17
100
AcDbMlineStyle
  2
Standard
 70
     0
  3

 62
   256
 51
90.0
 52
90.0
 71
     2
 49
0.5
 62
   256
  6
BYLAYER
 49
-0.5
 62
   256
  6
BYLAYER
  0
ACDBPLACEHOLDER
  5
F
102
{ACAD_REACTORS
330
E
102
}
330
E
  0
SCALE
  5
48
102
{ACAD_REACTORS
330
47
102
}
330
47
100
AcDbScale
 70
     0
300
1:1
140
1.0
141
1.0
290
     1
  0
SCALE
  5
49
102
{ACAD_REACTORS
330
47
102
}
330
47
100
AcDbScale
 70
     0
300
1:2
140
1.0
141
2.0
290
     0
  0
SCALE
  5
4A
102
{ACAD_REACTORS
330
47
102
}
330
47
100
AcDbScale
 70
     0
300
1:4
140
1.0
141
4.0
290
     0
  0
SCALE
  5
4B
102
{ACAD_REACTORS
330
47
102
}
330
47
100
AcDbScale
 70
     0
300
1:5
140
1.0
141
5.0
290
     0
  0
SCALE
  5
4C
102
{ACAD_REACTORS
330
47
102
}
330
47
100
AcDbScale
 70
     0
300
1:8
140
1.0
141
8.0
290
     0
  0
SCALE
  5
4D
102
{ACAD_REACTORS
330
47
102
}
330
47
100
AcDbScale
 70
     0
300
1:10
140
1.0
141
10.0
290
     0
  0
SCALE
  5
4E
102
{ACAD_REACTORS
330
47
102
}
330
47
100
AcDbScale
 70
     0
300
1:16
140
1.0
141
16.0
290
     0
  0
SCALE
  5
4F
102
{ACAD_REACTORS
330
47
102
}
330
47
100
AcDbScale
 70
     0
300
1:20
140
1.0
141
20.0
290
     0
  0
SCALE
  5
50
102
{ACAD_REACTORS
330
47
102
}
330
47
100
AcDbScale
 70
     0
300
1:30
140
1.0
141
30.0
290
     0
  0
SCALE
  5
51
102
{ACAD_REACTORS
330
47
102
}
330
47
100
AcDbScale
 70
     0
300
1:40
140
1.0
141
40.0
290
     0
  0
SCALE
  5
52
102
{ACAD_REACTORS
330
47
102
}
330
47
100
AcDbScale
 70
     0
300
1:50
140
1.0
141
50.0
290
     0
  0
SCALE
  5
53
102
{ACAD_REACTORS
330
47
102
}
330
47
100
AcDbScale
 70
     0
300
1:100
140
1.0
141
100.0
290
     0
  0
SCALE
  5
54
102
{ACAD_REACTORS
330
47
102
}
330
47
100
AcDbScale
 70
     0
300
2:1
140
2.0
141
1.0
290
     0
  0
SCALE
  5
55
102
{ACAD_REACTORS
330
47
102
}
330
47
100
AcDbScale
 70
     0
300
4:1
140
4.0
141
1.0
290
     0
  0
SCALE
  5
56
102
{ACAD_REACTORS
330
47
102
}
330
47
100
AcDbScale
 70
     0
300
8:1
140
8.0
141
1.0
290
     0
  0
SCALE
  5
57
102
{ACAD_REACTORS
330
47
102
}
330
47
100
AcDbScale
 70
     0
300
10:1
140
10.0
141
1.0
290
     0
  0
SCALE
  5
58
102
{ACAD_REACTORS
330
47
102
}
330
47
100
AcDbScale
 70
     0
300
100:1
140
100.0
141
1.0
290
     0
  0
SCALE
  5
59
102
{ACAD_REACTORS
330
47
102
}
330
47
100
AcDbScale
 70
     0
300
1/128" = 1'-0"
140
0.0078125
141
12.0
290
     0
  0
SCALE
  5
5A
102
{ACAD_REACTORS
330
47
102
}
330
47
100
AcDbScale
 70
     0
300
1/64" = 1'-0"
140
0.015625
141
12.0
290
     0
  0
SCALE
  5
5B
102
{ACAD_REACTORS
330
47
102
}
330
47
100
AcDbScale
 70
     0
300
1/32" = 1'-0"
140
0.03125
141
12.0
290
     0
  0
SCALE
  5
5C
102
{ACAD_REACTORS
330
47
102
}
330
47
100
AcDbScale
 70
     0
300
1/16" = 1'-0"
140
0.0625
141
12.0
290
     0
  0
SCALE
  5
5D
102
{ACAD_REACTORS
330
47
102
}
330
47
100
AcDbScale
 70
     0
300
3/32" = 1'-0"
140
0.09375
141
12.0
290
     0
  0
SCALE
  5
5E
102
{ACAD_REACTORS
330
47
102
}
330
47
100
AcDbScale
 70
     0
300
1/8" = 1'-0"
140
0.125
141
12.0
290
     0
  0
SCALE
  5
5F
102
{ACAD_REACTORS
330
47
102
}
330
47
100
AcDbScale
 70
     0
300
3/16" = 1'-0"
140
0.1875
141
12.0
290
     0
  0
SCALE
  5
60
102
{ACAD_REACTORS
330
47
102
}
330
47
100
AcDbScale
 70
     0
300
1/4" = 1'-0"
140
0.25
141
12.0
290
     0
  0
SCALE
  5
61
102
{ACAD_REACTORS
330
47
102
}
330
47
100
AcDbScale
 70
     0
300
3/8" = 1'-0"
140
0.375
141
12.0
290
     0
  0
SCALE
  5
62
102
{ACAD_REACTORS
330
47
102
}
330
47
100
AcDbScale
 70
     0
300
1/2" = 1'-0"
140
0.5
141
12.0
290
     0
  0
SCALE
  5
63
102
{ACAD_REACTORS
330
47
102
}
330
47
100
AcDbScale
 70
     0
300
3/4" = 1'-0"
140
0.75
141
12.0
290
     0
  0
SCALE
  5
64
102
{ACAD_REACTORS
330
47
102
}
330
47
100
AcDbScale
 70
     0
300
1" = 1'-0"
140
1.0
141
12.0
290
     0
  0
SCALE
  5
65
102
{ACAD_REACTORS
330
47
102
}
330
47
100
AcDbScale
 70
     0
300
1-1/2" = 1'-0"
140
1.5
141
12.0
290
     0
  0
SCALE
  5
66
102
{ACAD_REACTORS
330
47
102
}
330
47
100
AcDbScale
 70
     0
300
3" = 1'-0"
140
3.0
141
12.0
290
     0
  0
SCALE
  5
67
102
{ACAD_REACTORS
330
47
102
}
330
47
100
AcDbScale
 70
     0
300
6" = 1'-0"
140
6.0
141
12.0
290
     0
  0
SCALE
  5
68
102
{ACAD_REACTORS
330
47
102
}
330
47
100
AcDbScale
 70
     0
300
1'-0" = 1'-0"
140
12.0
141
12.0
290
     0
  0
TABLESTYLE
  5
6A
102
{ACAD_REACTORS
330
69
102
}
330
69
100
AcDbTableStyle
  3
Standard
 70
     0
 71
     0
 40
1.5
 41
1.5
280
     0
281
     0
  7
Standard
140
4.5
170
     2
 62
     0
 63
   257
283
     0
274
    -2
284
     1
 64
     0
275
    -2
285
     1
 65
     0
276
    -2
286
     1
 66
     0
277
    -2
287
     1
 67
     0
278
    -2
288
     1
 68
     0
279
    -2
289
     1
 69
     0
  7
Standard
140
6.0
170
     5
 62
     0
 63
   257
283
     0
274
    -2
284
     1
 64
     0
275
    -2
285
     1
 65
     0
276
    -2
286
     1
 66
     0
277
    -2
287
     1
 67
     0
278
    -2
288
     1
 68
     0
279
    -2
289
     1
 69
     0
  7
Standard
140
4.5
170
     5
 62
     0
 63
   257
283
     0
274
    -2
284
     1
 64
     0
275
    -2
285
     1
 65
     0
276
    -2
286
     1
 66
     0
277
    -2
287
     1
 67
     0
278
    -2
288
     1
 68
     0
279
    -2
289
     1
 69
     0
  0
VISUALSTYLE
  5
2F
102
{ACAD_REACTORS
330
2A
102
}
102
{ACAD_XDICTIONARY
360
33B
102
}
330
2A
100
AcDbVisualStyle
  2
2dWireframe
 70
     4
 71
     0
 72
     2
 73
     0
 90
        0
 40
0.6
 41
30.0
 62
     5
 63
     7
 74
     1
 91
        4
 64
     7
 65
   257
 75
     1
175
     1
 42
1.0
 92
        0
 66
   257
 43
1.0
 76
     1
 77
     6
 78
     2
 67
     7
 79
     5
170
     0
171
     0
290
     0
174
     0
 93
        1
 44
0.0
173
     0
291
     0
 45
0.0
1001
ACAD
1000
AcDbSavedByObjectVersion
1070
     0
  0
VISUALSTYLE
  5
32
102
{ACAD_REACTORS
330
2A
102
}
102
{ACAD_XDICTIONARY
360
341
102
}
330
2A
100
AcDbVisualStyle
  2
Basic
 70
     7
 71
     1
 72
     0
 73
     1
 90
        0
 40
0.6
 41
30.0
 62
     5
 63
     7
 74
     0
 91
        4
 64
     7
 65
   257
 75
     1
175
     1
 42
1.0
 92
        8
 66
     7
 43
1.0
 76
     1
 77
     6
 78
     2
 67
     7
 79
     5
170
     0
171
     0
290
     0
174
     0
 93
        1
 44
0.0
173
     0
291
     1
 45
0.0
1001
ACAD
1000
AcDbSavedByObjectVersion
1070
     0
  0
VISUALSTYLE
  5
36
102
{ACAD_REACTORS
330
2A
102
}
102
{ACAD_XDICTIONARY
360
349
102
}
330
2A
100
AcDbVisualStyle
  2
Brighten
 70
    12
 71
     2
 72
     2
 73
     0
 90
        0
 40
0.6
 41
30.0
 62
     5
 63
     7
 74
     1
 91
        4
 64
     7
 65
   257
 75
     1
175
     1
 42
1.0
 92
        8
 66
     7
 43
1.0
 76
     1
 77
     6
 78
     2
 67
     7
 79
     5
170
     0
171
     0
290
     0
174
     0
 93
        1
 44
50.0
173
     0
291
     1
 45
0.0
1001
ACAD
1000
AcDbSavedByObjectVersion
1070
     0
  0
VISUALSTYLE
  5
3A
102
{ACAD_REACTORS
330
2A
102
}
102
{ACAD_XDICTIONARY
360
351
102
}
330
2A
100
AcDbVisualStyle
  2
ColorChange
 70
    16
 71
     2
 72
     2
 73
     3
 90
        0
 40
0.6
 41
30.0
 62
     5
 63
     8
 74
     1
 91
        4
 64
     7
 65
   257
 75
     1
175
     1
 42
1.0
 92
        8
 66
     8
 43
1.0
 76
     1
 77
     6
 78
     2
 67
     7
 79
     5
170
     0
171
     0
290
     0
174
     0
 93
        1
 44
0.0
173
     0
291
     1
 45
0.0
1001
ACAD
1000
AcDbSavedByObjectVersion
1070
     0
  0
VISUALSTYLE
  5
34
102
{ACAD_REACTORS
330
2A
102
}
102
{ACAD_XDICTIONARY
360
345
102
}
330
2A
100
AcDbVisualStyle
  2
Conceptual
 70
     9
 71
     3
 72
     2
 73
     0
 90
        0
 40
0.6
 41
30.0
 62
     5
 63
     7
 74
     2
 91
        2
 64
     7
 65
   257
 75
     1
175
     1
 42
179.0
 92
        8
 66
     7
 43
1.0
 76
     1
 77
     6
 78
     2
 67
     7
 79
     3
170
     0
171
     0
290
     0
174
     0
 93
        1
 44
0.0
173
     0
291
     0
 45
0.0
1001
ACAD
1000
AcDbSavedByObjectVersion
1070
     0
  0
VISUALSTYLE
  5
35
102
{ACAD_REACTORS
330
2A
102
}
102
{ACAD_XDICTIONARY
360
347
102
}
330
2A
100
AcDbVisualStyle
  2
Dim
 70
    11
 71
     2
 72
     2
 73
     0
 90
        0
 40
0.6
 41
30.0
 62
     5
 63
     7
 74
     1
 91
        4
 64
     7
 65
   257
 75
     1
175
     1
 42
1.0
 92
        8
 66
     7
 43
1.0
 76
     1
 77
     6
 78
     2
 67
     7
 79
     5
170
     0
171
     0
290
     0
174
     0
 93
        1
 44
-50.0
173
     0
291
     1
 45
0.0
1001
ACAD
1000
AcDbSavedByObjectVersion
1070
     0
  0
VISUALSTYLE
  5
3D
102
{ACAD_REACTORS
330
2A
102
}
102
{ACAD_XDICTIONARY
360
357
102
}
330
2A
100
AcDbVisualStyle
  2
EdgeColorOff
 70
    22
 71
     2
 72
     2
 73
     0
 90
        0
 40
0.6
 41
30.0
 62
     5
 63
     7
 74
     1
 91
        4
 64
     7
 65
   257
 75
     1
175
     1
 42
1.0
 92
        8
 66
     7
 43
1.0
 76
     1
 77
     6
 78
     2
 67
     7
 79
     5
170
     0
171
     0
290
     0
174
     0
 93
        1
 44
0.0
173
     0
291
     1
 45
0.0
1001
ACAD
1000
AcDbSavedByObjectVersion
1070
     0
  0
VISUALSTYLE
  5
39
102
{ACAD_REACTORS
330
2A
102
}
102
{ACAD_XDICTIONARY
360
34F
102
}
330
2A
100
AcDbVisualStyle
  2
Facepattern
 70
    15
 71
     2
 72
     2
 73
     0
 90
        0
 40
0.6
 41
30.0
 62
     5
 63
     7
 74
     1
 91
        4
 64
     7
 65
   257
 75
     1
175
     1
 42
1.0
 92
        8
 66
     7
 43
1.0
 76
     1
 77
     6
 78
     2
 67
     7
 79
     5
170
     0
171
     0
290
     0
174
     0
 93
        1
 44
0.0
173
     0
291
     1
 45
0.0
1001
ACAD
1000
AcDbSavedByObjectVersion
1070
     0
  0
VISUALSTYLE
  5
2B
102
{ACAD_REACTORS
330
2A
102
}
102
{ACAD_XDICTIONARY
360
333
102
}
330
2A
100
AcDbVisualStyle
  2
Flat
 70
     0
 71
     2
 72
     1
 73
     1
 90
        2
 40
0.6
 41
30.0
 62
     5
 63
     7
 74
     0
 91
        0
 64
     7
 65
   257
 75
     1
175
     1
 42
1.0
 92
        8
 66
     7
 43
1.0
 76
     1
 77
     6
 78
     2
 67
     7
 79
     5
170
     0
171
     0
290
     0
174
     0
 93
       13
 44
0.0
173
     0
291
     1
 45
0.0
1001
ACAD
1000
AcDbSavedByObjectVersion
1070
     0
  0
VISUALSTYLE
  5
2C
102
{ACAD_REACTORS
330
2A
102
}
102
{ACAD_XDICTIONARY
360
335
102
}
330
2A
100
AcDbVisualStyle
  2
FlatWithEdges
 70
     1
 71
     2
 72
     1
 73
     1
 90
        2
 40
0.6
 41
30.0
 62
     5
 63
     7
 74
     1
 91
        0
 64
     7
 65
   257
 75
     1
175
     1
 42
1.0
 92
        0
 66
   257
 43
1.0
 76
     1
 77
     6
 78
     2
 67
     7
 79
     5
170
     0
171
     0
290
     0
174
     0
 93
       13
 44
0.0
173
     0
291
     1
 45
0.0
1001
ACAD
1000
AcDbSavedByObjectVersion
1070
     0
  0
VISUALSTYLE
  5
2D
102
{ACAD_REACTORS
330
2A
102
}
102
{ACAD_XDICTIONARY
360
337
102
}
330
2A
100
AcDbVisualStyle
  2
Gouraud
 70
     2
 71
     2
 72
     2
 73
     1
 90
        2
 40
0.6
 41
30.0
 62
     5
 63
     7
 74
     0
 91
        0
 64
     7
 65
   257
 75
     1
175
     1
 42
1.0
 92
        0
 66
     7
 43
1.0
 76
     1
 77
     6
 78
     2
 67
     7
 79
     5
170
     0
171
     0
290
     0
174
     0
 93
       13
 44
0.0
173
     0
291
     1
 45
0.0
1001
ACAD
1000
AcDbSavedByObjectVersion
1070
     0
  0
VISUALSTYLE
  5
2E
102
{ACAD_REACTORS
330
2A
102
}
102
{ACAD_XDICTIONARY
360
339
102
}
330
2A
100
AcDbVisualStyle
  2
GouraudWithEdges
 70
     3
 71
     2
 72
     2
 73
     1
 90
        2
 40
0.6
 41
30.0
 62
     5
 63
     7
 74
     1
 91
        0
 64
     7
 65
   257
 75
     1
175
     1
 42
1.0
 92
        0
 66
   257
 43
1.0
 76
     1
 77
     6
 78
     2
 67
     7
 79
     5
170
     0
171
     0
290
     0
174
     0
 93
       13
 44
0.0
173
     0
291
     1
 45
0.0
1001
ACAD
1000
AcDbSavedByObjectVersion
1070
     0
  0
VISUALSTYLE
  5
31
102
{ACAD_REACTORS
330
2A
102
}
102
{ACAD_XDICTIONARY
360
33F
102
}
330
2A
100
AcDbVisualStyle
  2
Hidden
 70
     6
 71
     1
 72
     2
 73
     2
 90
        0
 40
0.6
 41
30.0
 62
     5
 63
     7
 74
     2
 91
        2
 64
     7
 65
   257
 75
     2
175
     1
 42
40.0
 92
        0
 66
   257
 43
1.0
 76
     1
 77
     6
 78
     2
 67
     7
 79
     3
170
     0
171
     0
290
     0
174
     0
 93
        1
 44
0.0
173
     0
291
     0
 45
0.0
1001
ACAD
1000
AcDbSavedByObjectVersion
1070
     0
  0
VISUALSTYLE
  5
3B
102
{ACAD_REACTORS
330
2A
102
}
102
{ACAD_XDICTIONARY
360
353
102
}
330
2A
100
AcDbVisualStyle
  2
JitterOff
 70
    20
 71
     2
 72
     2
 73
     0
 90
        0
 40
0.6
 41
30.0
 62
     5
 63
     7
 74
     1
 91
        4
 64
     7
 65
   257
 75
     1
175
     1
 42
1.0
 92
       10
 66
     7
 43
1.0
 76
     1
 77
     6
 78
     2
 67
     7
 79
     5
170
     0
171
     0
290
     0
174
     0
 93
        1
 44
0.0
173
     0
291
     1
 45
0.0
1001
ACAD
1000
AcDbSavedByObjectVersion
1070
     0
  0
VISUALSTYLE
  5
38
102
{ACAD_REACTORS
330
2A
102
}
102
{ACAD_XDICTIONARY
360
34D
102
}
330
2A
100
AcDbVisualStyle
  2
Linepattern
 70
    14
 71
     2
 72
     2
 73
     0
 90
        0
 40
0.6
 41
30.0
 62
     5
 63
     7
 74
     1
 91
        4
 64
     7
 65
   257
 75
     7
175
     7
 42
1.0
 92
        8
 66
     7
 43
1.0
 76
     1
 77
     6
 78
     2
 67
     7
 79
     5
170
     0
171
     0
290
     0
174
     0
 93
        1
 44
0.0
173
     0
291
     1
 45
0.0
1001
ACAD
1000
AcDbSavedByObjectVersion
1070
     0
  0
VISUALSTYLE
  5
3C
102
{ACAD_REACTORS
330
2A
102
}
102
{ACAD_XDICTIONARY
360
355
102
}
330
2A
100
AcDbVisualStyle
  2
OverhangOff
 70
    21
 71
     2
 72
     2
 73
     0
 90
        0
 40
0.6
 41
30.0
 62
     5
 63
     7
 74
     1
 91
        4
 64
     7
 65
   257
 75
     1
175
     1
 42
1.0
 92
        9
 66
     7
 43
1.0
 76
     1
 77
     6
 78
     2
 67
     7
 79
     5
170
     0
171
     0
290
     0
174
     0
 93
        1
 44
0.0
173
     0
291
     1
 45
0.0
1001
ACAD
1000
AcDbSavedByObjectVersion
1070
     0
  0
VISUALSTYLE
  5
33
102
{ACAD_REACTORS
330
2A
102
}
102
{ACAD_XDICTIONARY
360
343
102
}
330
2A
100
AcDbVisualStyle
  2
Realistic
 70
     8
 71
     2
 72
     3
 73
     0
 90
        2
 40
0.6
 41
30.0
 62
     5
 63
     7
 74
     0
 91
        0
 64
     7
 65
   257
 75
     1
175
     1
 42
1.0
 92
        8
 66
   257
 43
1.0
 76
     1
 77
     6
 78
     2
 67
     7
 79
     3
170
     0
171
     0
290
     0
174
     0
 93
       13
 44
0.0
173
     0
291
     0
 45
0.0
1001
ACAD
1000
AcDbSavedByObjectVersion
1070
     0
  0
VISUALSTYLE
  5
42
102
{ACAD_REACTORS
330
2A
102
}
102
{ACAD_XDICTIONARY
360
361
102
}
330
2A
100
AcDbVisualStyle
  2
Shaded
 70
    27
 71
     2
 72
     2
 73
     1
 90
        2
 40
0.6
 41
30.0
 62
     5
 63
     7
 74
     0
 91
        4
 64
     7
 65
   257
 75
     1
175
     1
 42
1.0
 92
        8
 66
   257
 43
1.0
 76
     1
 77
     6
 78
     2
 67
     8
 79
     3
170
     0
171
     0
290
     0
174
     0
 93
        5
 44
0.0
173
     0
291
     0
 45
0.0
1001
ACAD
1000
AcDbSavedByObjectVersion
1070
     0
  0
VISUALSTYLE
  5
41
102
{ACAD_REACTORS
330
2A
102
}
102
{ACAD_XDICTIONARY
360
35F
102
}
330
2A
100
AcDbVisualStyle
  2
Shaded with edges
 70
    26
 71
     2
 72
     2
 73
     1
 90
        2
 40
0.6
 41
30.0
 62
     5
 63
     7
 74
     1
 91
       10
 64
     7
 65
   257
 75
     2
175
     1
 42
1.0
 92
        8
 66
   257
 43
1.0
 76
     1
 77
     6
 78
     2
 67
     7
 79
     3
170
     0
171
     0
290
     0
174
     0
 93
        5
 44
0.0
173
     0
291
     0
 45
0.0
1001
ACAD
1000
AcDbSavedByObjectVersion
1070
     0
  0
VISUALSTYLE
  5
3E
102
{ACAD_REACTORS
330
2A
102
}
102
{ACAD_XDICTIONARY
360
359
102
}
330
2A
100
AcDbVisualStyle
  2
Shades of Gray
 70
    23
 71
     2
 72
     2
 73
     3
 90
        0
 40
0.6
 41
30.0
 62
     5
 63
     7
 74
     2
 91
        2
 64
     7
 65
     7
 75
     1
175
     1
 42
40.0
 92
        8
 66
     7
 43
1.0
 76
     1
 77
     6
 78
     2
 67
     7
 79
     3
170
     0
171
     0
290
     0
174
     0
 93
        1
 44
0.0
173
     0
291
     0
 45
0.0
1001
ACAD
1000
AcDbSavedByObjectVersion
1070
     0
  0
VISUALSTYLE
  5
3F
102
{ACAD_REACTORS
330
2A
102
}
102
{ACAD_XDICTIONARY
360
35B
102
}
330
2A
100
AcDbVisualStyle
  2
Sketchy
 70
    24
 71
     1
 72
     2
 73
     2
 90
        0
 40
0.6
 41
30.0
 62
     5
 63
     7
 74
     2
 91
        2
 64
     7
 65
     7
 75
     1
175
     1
 42
40.0
 92
       11
 66
     7
 43
1.0
 76
     1
 77
     6
 78
     2
 67
     7
 79
     6
170
     0
171
     0
290
     0
174
     0
 93
        1
 44
0.0
173
     0
291
     0
 45
0.0
1001
ACAD
1000
AcDbSavedByObjectVersion
1070
     0
  0
VISUALSTYLE
  5
37
102
{ACAD_REACTORS
330
2A
102
}
102
{ACAD_XDICTIONARY
360
34B
102
}
330
2A
100
AcDbVisualStyle
  2
Thicken
 70
    13
 71
     2
 72
     2
 73
     0
 90
        0
 40
0.6
 41
30.0
 62
     5
 63
     7
 74
     1
 91
        4
 64
     7
 65
   257
 75
     1
175
     1
 42
1.0
 92
       12
 66
     7
 43
1.0
 76
     1
 77
     6
 78
     2
 67
     7
 79
     5
170
     0
171
     0
290
     0
174
     0
 93
        1
 44
0.0
173
     0
291
     1
 45
0.0
1001
ACAD
1000
AcDbSavedByObjectVersion
1070
     0
  0
VISUALSTYLE
  5
30
102
{ACAD_REACTORS
330
2A
102
}
102
{ACAD_XDICTIONARY
360
33D
102
}
330
2A
100
AcDbVisualStyle
  2
Wireframe
 70
     5
 71
     0
 72
     2
 73
     0
 90
        0
 40
0.6
 41
30.0
 62
     5
 63
     7
 74
     1
 91
        4
 64
     7
 65
   257
 75
     1
175
     1
 42
1.0
 92
        0
 66
   257
 43
1.0
 76
     1
 77
     6
 78
     2
 67
     7
 79
     3
170
     0
171
     0
290
     0
174
     0
 93
        1
 44
0.0
173
     0
291
     0
 45
0.0
1001
ACAD
1000
AcDbSavedByObjectVersion
1070
     0
  0
VISUALSTYLE
  5
40
102
{ACAD_REACTORS
330
2A
102
}
102
{ACAD_XDICTIONARY
360
35D
102
}
330
2A
100
AcDbVisualStyle
  2
X-Ray
 70
    25
 71
     2
 72
     2
 73
     1
 90
        1
 40
0.5
 41
30.0
 62
     5
 63
     7
 74
     1
 91
        0
 64
     7
 65
   257
 75
     1
175
     1
 42
1.0
 92
        8
 66
     7
 43
1.0
 76
     1
 77
     6
 78
     2
 67
     7
 79
     3
170
     0
171
     0
290
     0
174
     0
 93
       13
 44
0.0
173
     0
291
     0
 45
0.0
1001
ACAD
1000
AcDbSavedByObjectVersion
1070
     0
  0
DICTIONARYVAR
  5
331
102
{ACAD_REACTORS
330
31E
102
}
330
31E
100
DictionaryVariables
280
     0
  1
1:1
  0
DICTIONARYVAR
  5
324
102
{ACAD_REACTORS
330
31E
102
}
330
31E
100
DictionaryVariables
280
     0
  1
3.500000
  0
DICTIONARYVAR
  5
325
102
{ACAD_REACTORS
330
31E
102
}
330
31E
100
DictionaryVariables
280
     0
  1
acadiso.lin
  0
DICTIONARYVAR
  5
320
102
{ACAD_REACTORS
330
31E
102
}
330
31E
100
DictionaryVariables
280
     0
  1
Standard
  0
DICTIONARYVAR
  5
31F
102
{ACAD_REACTORS
330
31E
102
}
330
31E
100
DictionaryVariables
280
     0
  1
Standard
  0
DICTIONARYVAR
  5
326
102
{ACAD_REACTORS
330
31E
102
}
330
31E
100
DictionaryVariables
280
     0
  1
2
  0
DICTIONARYVAR
  5
327
102
{ACAD_REACTORS
330
31E
102
}
330
31E
100
DictionaryVariables
280
     0
  1
1
  0
DICTIONARYVAR
  5
332
102
{ACAD_REACTORS
330
31E
102
}
330
31E
100
DictionaryVariables
280
     0
  1
1
  0
DICTIONARYVAR
  5
321
102
{ACAD_REACTORS
330
31E
102
}
330
31E
100
DictionaryVariables
280
     0
  1
80.000000
  0
DICTIONARY
  5
365
330
45
100
AcDbDictionary
280
     1
281
     1
  3
ACAD_XREC_ROUNDTRIP
360
366
  0
DICTIONARY
  5
363
330
44
100
AcDbDictionary
280
     1
281
     1
  3
ACAD_XREC_ROUNDTRIP
360
364
  0
DICTIONARY
  5
367
330
46
100
AcDbDictionary
280
     1
281
     1
  3
ACAD_XREC_ROUNDTRIP
360
368
  0
DICTIONARY
  5
36A
330
6C
100
AcDbDictionary
280
     1
281
     1
  3
ACAD_XREC_ROUNDTRIP
360
36B
  0
DICTIONARY
  5
33B
330
2F
100
AcDbDictionary
280
     1
281
     1
  3
ACAD_XREC_ROUNDTRIP
360
33C
  0
DICTIONARY
  5
341
330
32
100
AcDbDictionary
280
     1
281
     1
  3
ACAD_XREC_ROUNDTRIP
360
342
  0
DICTIONARY
  5
349
330
36
100
AcDbDictionary
280
     1
281
     1
  3
ACAD_XREC_ROUNDTRIP
360
34A
  0
DICTIONARY
  5
351
330
3A
100
AcDbDictionary
280
     1
281
     1
  3
ACAD_XREC_ROUNDTRIP
360
352
  0
DICTIONARY
  5
345
330
34
100
AcDbDictionary
280
     1
281
     1
  3
ACAD_XREC_ROUNDTRIP
360
346
  0
DICTIONARY
  5
347
330
35
100
AcDbDictionary
280
     1
281
     1
  3
ACAD_XREC_ROUNDTRIP
360
348
  0
DICTIONARY
  5
357
330
3D
100
AcDbDictionary
280
     1
281
     1
  3
ACAD_XREC_ROUNDTRIP
360
358
  0
DICTIONARY
  5
34F
330
39
100
AcDbDictionary
280
     1
281
     1
  3
ACAD_XREC_ROUNDTRIP
360
350
  0
DICTIONARY
  5
333
330
2B
100
AcDbDictionary
280
     1
281
     1
  3
ACAD_XREC_ROUNDTRIP
360
334
  0
DICTIONARY
  5
335
330
2C
100
AcDbDictionary
280
     1
281
     1
  3
ACAD_XREC_ROUNDTRIP
360
336
  0
DICTIONARY
  5
337
330
2D
100
AcDbDictionary
280
     1
281
     1
  3
ACAD_XREC_ROUNDTRIP
360
338
  0
DICTIONARY
  5
339
330
2E
100
AcDbDictionary
280
     1
281
     1
  3
ACAD_XREC_ROUNDTRIP
360
33A
  0
DICTIONARY
  5
33F
330
31
100
AcDbDictionary
280
     1
281
     1
  3
ACAD_XREC_ROUNDTRIP
360
340
  0
DICTIONARY
  5
353
330
3B
100
AcDbDictionary
280
     1
281
     1
  3
ACAD_XREC_ROUNDTRIP
360
354
  0
DICTIONARY
  5
34D
330
38
100
AcDbDictionary
280
     1
281
     1
  3
ACAD_XREC_ROUNDTRIP
360
34E
  0
DICTIONARY
  5
355
330
3C
100
AcDbDictionary
280
     1
281
     1
  3
ACAD_XREC_ROUNDTRIP
360
356
  0
DICTIONARY
  5
343
330
33
100
AcDbDictionary
280
     1
281
     1
  3
ACAD_XREC_ROUNDTRIP
360
344
  0
DICTIONARY
  5
361
330
42
100
AcDbDictionary
280
     1
281
     1
  3
ACAD_XREC_ROUNDTRIP
360
362
  0
DICTIONARY
  5
35F
330
41
100
AcDbDictionary
280
     1
281
     1
  3
ACAD_XREC_ROUNDTRIP
360
360
  0
DICTIONARY
  5
359
330
3E
100
AcDbDictionary
280
     1
281
     1
  3
ACAD_XREC_ROUNDTRIP
360
35A
  0
DICTIONARY
  5
35B
330
3F
100
AcDbDictionary
280
     1
281
     1
  3
ACAD_XREC_ROUNDTRIP
360
35C
  0
DICTIONARY
  5
34B
330
37
100
AcDbDictionary
280
     1
281
     1
  3
ACAD_XREC_ROUNDTRIP
360
34C
  0
DICTIONARY
  5
33D
330
30
100
AcDbDictionary
280
     1
281
     1
  3
ACAD_XREC_ROUNDTRIP
360
33E
  0
DICTIONARY
  5
35D
330
40
100
AcDbDictionary
280
     1
281
     1
  3
ACAD_XREC_ROUNDTRIP
360
35E
  0
XRECORD
  5
366
102
{ACAD_REACTORS
330
365
102
}
330
365
100
AcDbXrecord
280
     1
102
MATERIAL
148
0.0
149
0.0
149
0.0
 93
        0
 94
      127
282
     0
 72
     1
 77
     1
171
     1
175
     1
179
     1
273
     0
  0
XRECORD
  5
364
102
{ACAD_REACTORS
330
363
102
}
330
363
100
AcDbXrecord
280
     1
102
MATERIAL
148
0.0
149
0.0
149
0.0
 93
        0
 94
      127
282
     0
 72
     1
 77
     1
171
     1
175
     1
179
     1
273
     0
  0
XRECORD
  5
368
102
{ACAD_REACTORS
330
367
102
}
330
367
100
AcDbXrecord
280
     1
102
MATERIAL
148
0.0
149
0.0
149
0.0
 93
        0
 94
      127
282
     0
 72
     1
 77
     1
171
     1
175
     1
179
     1
273
     0
  0
XRECORD
  5
36B
102
{ACAD_REACTORS
330
36A
102
}
330
36A
100
AcDbXrecord
280
     1
102
ACAD_ROUNDTRIP_2010_MLEADER_STYLE
  0
XRECORD
  5
33C
102
{ACAD_REACTORS
330
33B
102
}
330
33B
100
AcDbXrecord
280
     1
102
RTVSPropertyOp0
 70
     1
102
RTVSPropertyOp1
 70
     1
102
RTVSPropertyOp2
 70
     1
102
RTVSPropertyOp3
 70
     1
102
RTVSPropertyOp4
 70
     1
102
RTVSPropertyOp5
 70
     1
102
RTVSPropertyOp6
 70
     1
102
RTVSPropertyOp7
 70
     1
102
RTVSPropertyOp8
 70
     1
102
RTVSPropertyOp9
 70
     1
102
RTVSPropertyOp10
 70
     1
102
RTVSPropertyOp11
 70
     1
102
RTVSPropertyOp12
 70
     1
102
RTVSPropertyOp13
 70
     1
102
RTVSPropertyOp14
 70
     1
102
RTVSPropertyOp15
 70
     1
102
RTVSPropertyOp16
 70
     1
102
RTVSPropertyOp17
 70
     1
102
RTVSPropertyOp18
 70
     1
102
RTVSPropertyOp19
 70
     1
102
RTVSPropertyOp20
 70
     1
102
RTVSPropertyOp21
 70
     1
102
RTVSPropertyOp22
 70
     1
102
RTVSPropertyOp23
 70
     1
102
RTVSPropertyOp24
 70
     1
102
RTVSPropertyOp25
 70
     1
102
RTVSPropertyOp26
 70
     1
102
RTVSPropertyOp27
 70
     1
102
RTVSPropertyOp28
 70
     1
102
RTVSPropertyOp29
 70
     1
102
RTVSPropertyOp30
 70
     1
102
RTVSPropertyOp31
 70
     1
102
RTVSPropertyOp32
 70
     1
102
RTVSPropertyOp33
 70
     1
102
RTVSPropertyOp34
 70
     1
102
RTVSPropertyOp35
 70
     1
102
RTVSPropertyOp36
 70
     1
102
RTVSPropertyOp37
 70
     1
102
RTVSPropertyOp38
 70
     1
102
RTVSPropertyOp39
 70
     1
102
RTVSPropertyOp40
 70
     1
102
RTVSPropertyOp41
 70
     1
102
RTVSPropertyOp42
 70
     1
102
RTVSPropertyOp43
 70
     1
102
RTVSPropertyOp44
 70
     1
102
RTVSPropertyOp45
 70
     1
102
RTVSPropertyOp46
 70
     1
102
RTVSPropertyOp47
 70
     1
102
RTVSPropertyOp48
 70
     1
102
RTVSPropertyOp49
 70
     1
102
RTVSPropertyOp50
 70
     1
102
RTVSPropertyOp51
 70
     0
102
RTVSPropertyOp52
 70
     0
102
RTVSPropertyOp53
 70
     1
102
RTVSPropertyOp54
 70
     1
102
RTVSPropertyOp55
 70
     1
102
RTVSPropertyOp56
 70
     1
102
RTVSPropertyOp57
 70
     1
102
RTVSPost2010Prop28
280
     1
102
RTVSPost2010PropOp28
 70
     1
102
RTVSPost2010Prop29
280
     1
102
RTVSPost2010PropOp29
 70
     1
102
RTVSPost2010Prop30
280
     0
102
RTVSPost2010PropOp30
 70
     1
102
RTVSPost2010Prop31
280
     0
102
RTVSPost2010PropOp31
 70
     1
102
RTVSPost2010Prop32
280
     0
102
RTVSPost2010PropOp32
 70
     1
102
RTVSPost2010Prop33
280
     0
102
RTVSPost2010PropOp33
 70
     1
102
RTVSPost2010Prop34
280
     0
102
RTVSPost2010PropOp34
 70
     1
102
RTVSPost2010Prop35
280
     0
102
RTVSPost2010PropOp35
 70
     1
102
RTVSPost2010Prop36
280
     0
102
RTVSPost2010PropOp36
 70
     1
102
RTVSPost2010Prop37
 90
       50
102
RTVSPost2010PropOp37
 70
     1
102
RTVSPost2010Prop38
140
0.0
102
RTVSPost2010PropOp38
 70
     1
102
RTVSPost2010Prop39
140
1.0
102
RTVSPost2010PropOp39
 70
     1
102
RTVSPost2010Prop40
 90
        0
102
RTVSPost2010PropOp40
 70
     1
102
RTVSPost2010Prop41ColorIndex
 90
       18
102
RTVSPost2010Prop41ColorRGB
 90
        0
102
RTVSPost2010PropOp41
 70
     1
102
RTVSPost2010Prop42
 90
       50
102
RTVSPost2010PropOp42
 70
     1
102
RTVSPost2010Prop43
 90
        3
102
RTVSPost2010PropOp43
 70
     1
102
RTVSPost2010Prop44ColorIndex
 90
        5
102
RTVSPost2010Prop44ColorRGB
 90
      255
102
RTVSPost2010PropOp44
 70
     1
102
RTVSPost2010Prop45
280
     0
102
RTVSPost2010PropOp45
 70
     1
102
RTVSPost2010Prop46
 90
       50
102
RTVSPost2010PropOp46
 70
     1
102
RTVSPost2010Prop47
 90
       50
102
RTVSPost2010PropOp47
 70
     1
102
RTVSPost2010Prop48
 90
       50
102
RTVSPost2010PropOp48
 70
     1
102
RTVSPost2010Prop49
280
     0
102
RTVSPost2010PropOp49
 70
     1
102
RTVSPost2010Prop50
 90
       50
102
RTVSPost2010PropOp50
 70
     1
102
RTVSPost2010Prop51ColorIndex
 90
      256
102
RTVSPost2010Prop51ColorRGB
 90
-16777216
102
RTVSPost2010PropOp51
 70
     0
102
RTVSPost2010Prop52
140
1.0
102
RTVSPost2010PropOp52
 70
     0
102
RTVSPost2010Prop53
 90
        2
102
RTVSPost2010PropOp53
 70
     1
102
RTVSPost2010Prop54
  1
strokes_ogs.tif
102
RTVSPost2010PropOp54
 70
     1
102
RTVSPost2010Prop55
280
     0
102
RTVSPost2010PropOp55
 70
     1
102
RTVSPost2010Prop56
140
1.0
102
RTVSPost2010PropOp56
 70
     1
102
RTVSPost2010Prop57
140
1.0
102
RTVSPost2010PropOp57
 70
     1
  0
XRECORD
  5
342
102
{ACAD_REACTORS
330
341
102
}
330
341
100
AcDbXrecord
280
     1
102
RTVSPropertyOp0
 70
     1
102
RTVSPropertyOp1
 70
     1
102
RTVSPropertyOp2
 70
     1
102
RTVSPropertyOp3
 70
     1
102
RTVSPropertyOp4
 70
     1
102
RTVSPropertyOp5
 70
     1
102
RTVSPropertyOp6
 70
     1
102
RTVSPropertyOp7
 70
     1
102
RTVSPropertyOp8
 70
     1
102
RTVSPropertyOp9
 70
     1
102
RTVSPropertyOp10
 70
     1
102
RTVSPropertyOp11
 70
     1
102
RTVSPropertyOp12
 70
     1
102
RTVSPropertyOp13
 70
     1
102
RTVSPropertyOp14
 70
     1
102
RTVSPropertyOp15
 70
     1
102
RTVSPropertyOp16
 70
     1
102
RTVSPropertyOp17
 70
     1
102
RTVSPropertyOp18
 70
     1
102
RTVSPropertyOp19
 70
     1
102
RTVSPropertyOp20
 70
     1
102
RTVSPropertyOp21
 70
     1
102
RTVSPropertyOp22
 70
     1
102
RTVSPropertyOp23
 70
     1
102
RTVSPropertyOp24
 70
     1
102
RTVSPropertyOp25
 70
     1
102
RTVSPropertyOp26
 70
     1
102
RTVSPropertyOp27
 70
     1
102
RTVSPropertyOp28
 70
     1
102
RTVSPropertyOp29
 70
     1
102
RTVSPropertyOp30
 70
     1
102
RTVSPropertyOp31
 70
     1
102
RTVSPropertyOp32
 70
     1
102
RTVSPropertyOp33
 70
     1
102
RTVSPropertyOp34
 70
     1
102
RTVSPropertyOp35
 70
     1
102
RTVSPropertyOp36
 70
     1
102
RTVSPropertyOp37
 70
     1
102
RTVSPropertyOp38
 70
     1
102
RTVSPropertyOp39
 70
     1
102
RTVSPropertyOp40
 70
     1
102
RTVSPropertyOp41
 70
     1
102
RTVSPropertyOp42
 70
     1
102
RTVSPropertyOp43
 70
     1
102
RTVSPropertyOp44
 70
     1
102
RTVSPropertyOp45
 70
     1
102
RTVSPropertyOp46
 70
     1
102
RTVSPropertyOp47
 70
     1
102
RTVSPropertyOp48
 70
     1
102
RTVSPropertyOp49
 70
     1
102
RTVSPropertyOp50
 70
     1
102
RTVSPropertyOp51
 70
     0
102
RTVSPropertyOp52
 70
     0
102
RTVSPropertyOp53
 70
     1
102
RTVSPropertyOp54
 70
     1
102
RTVSPropertyOp55
 70
     1
102
RTVSPropertyOp56
 70
     1
102
RTVSPropertyOp57
 70
     1
102
RTVSPost2010Prop28
280
     0
102
RTVSPost2010PropOp28
 70
     1
102
RTVSPost2010Prop29
280
     1
102
RTVSPost2010PropOp29
 70
     1
102
RTVSPost2010Prop30
280
     1
102
RTVSPost2010PropOp30
 70
     1
102
RTVSPost2010Prop31
280
     0
102
RTVSPost2010PropOp31
 70
     1
102
RTVSPost2010Prop32
280
     0
102
RTVSPost2010PropOp32
 70
     1
102
RTVSPost2010Prop33
280
     0
102
RTVSPost2010PropOp33
 70
     1
102
RTVSPost2010Prop34
280
     0
102
RTVSPost2010PropOp34
 70
     1
102
RTVSPost2010Prop35
280
     0
102
RTVSPost2010PropOp35
 70
     1
102
RTVSPost2010Prop36
280
     0
102
RTVSPost2010PropOp36
 70
     1
102
RTVSPost2010Prop37
 90
       50
102
RTVSPost2010PropOp37
 70
     1
102
RTVSPost2010Prop38
140
0.0
102
RTVSPost2010PropOp38
 70
     1
102
RTVSPost2010Prop39
140
1.0
102
RTVSPost2010PropOp39
 70
     1
102
RTVSPost2010Prop40
 90
        0
102
RTVSPost2010PropOp40
 70
     1
102
RTVSPost2010Prop41ColorIndex
 90
       18
102
RTVSPost2010Prop41ColorRGB
 90
        0
102
RTVSPost2010PropOp41
 70
     1
102
RTVSPost2010Prop42
 90
       50
102
RTVSPost2010PropOp42
 70
     1
102
RTVSPost2010Prop43
 90
        3
102
RTVSPost2010PropOp43
 70
     1
102
RTVSPost2010Prop44ColorIndex
 90
        5
102
RTVSPost2010Prop44ColorRGB
 90
      255
102
RTVSPost2010PropOp44
 70
     1
102
RTVSPost2010Prop45
280
     0
102
RTVSPost2010PropOp45
 70
     1
102
RTVSPost2010Prop46
 90
       50
102
RTVSPost2010PropOp46
 70
     1
102
RTVSPost2010Prop47
 90
       50
102
RTVSPost2010PropOp47
 70
     1
102
RTVSPost2010Prop48
 90
       50
102
RTVSPost2010PropOp48
 70
     1
102
RTVSPost2010Prop49
280
     0
102
RTVSPost2010PropOp49
 70
     1
102
RTVSPost2010Prop50
 90
       50
102
RTVSPost2010PropOp50
 70
     1
102
RTVSPost2010Prop51ColorIndex
 90
      256
102
RTVSPost2010Prop51ColorRGB
 90
-16777216
102
RTVSPost2010PropOp51
 70
     0
102
RTVSPost2010Prop52
140
1.0
102
RTVSPost2010PropOp52
 70
     0
102
RTVSPost2010Prop53
 90
        2
102
RTVSPost2010PropOp53
 70
     1
102
RTVSPost2010Prop54
  1
strokes_ogs.tif
102
RTVSPost2010PropOp54
 70
     1
102
RTVSPost2010Prop55
280
     0
102
RTVSPost2010PropOp55
 70
     1
102
RTVSPost2010Prop56
140
1.0
102
RTVSPost2010PropOp56
 70
     1
102
RTVSPost2010Prop57
140
1.0
102
RTVSPost2010PropOp57
 70
     1
  0
XRECORD
  5
34A
102
{ACAD_REACTORS
330
349
102
}
330
349
100
AcDbXrecord
280
     1
102
RTVSPropertyOp0
 70
     1
102
RTVSPropertyOp1
 70
     1
102
RTVSPropertyOp2
 70
     1
102
RTVSPropertyOp3
 70
     1
102
RTVSPropertyOp4
 70
     1
102
RTVSPropertyOp5
 70
     1
102
RTVSPropertyOp6
 70
     1
102
RTVSPropertyOp7
 70
     1
102
RTVSPropertyOp8
 70
     1
102
RTVSPropertyOp9
 70
     1
102
RTVSPropertyOp10
 70
     1
102
RTVSPropertyOp11
 70
     1
102
RTVSPropertyOp12
 70
     1
102
RTVSPropertyOp13
 70
     1
102
RTVSPropertyOp14
 70
     1
102
RTVSPropertyOp15
 70
     1
102
RTVSPropertyOp16
 70
     1
102
RTVSPropertyOp17
 70
     1
102
RTVSPropertyOp18
 70
     1
102
RTVSPropertyOp19
 70
     1
102
RTVSPropertyOp20
 70
     1
102
RTVSPropertyOp21
 70
     1
102
RTVSPropertyOp22
 70
     1
102
RTVSPropertyOp23
 70
     1
102
RTVSPropertyOp24
 70
     1
102
RTVSPropertyOp25
 70
     1
102
RTVSPropertyOp26
 70
     1
102
RTVSPropertyOp27
 70
     1
102
RTVSPropertyOp28
 70
     1
102
RTVSPropertyOp29
 70
     1
102
RTVSPropertyOp30
 70
     1
102
RTVSPropertyOp31
 70
     1
102
RTVSPropertyOp32
 70
     1
102
RTVSPropertyOp33
 70
     1
102
RTVSPropertyOp34
 70
     1
102
RTVSPropertyOp35
 70
     1
102
RTVSPropertyOp36
 70
     1
102
RTVSPropertyOp37
 70
     1
102
RTVSPropertyOp38
 70
     1
102
RTVSPropertyOp39
 70
     1
102
RTVSPropertyOp40
 70
     1
102
RTVSPropertyOp41
 70
     1
102
RTVSPropertyOp42
 70
     1
102
RTVSPropertyOp43
 70
     1
102
RTVSPropertyOp44
 70
     1
102
RTVSPropertyOp45
 70
     1
102
RTVSPropertyOp46
 70
     1
102
RTVSPropertyOp47
 70
     1
102
RTVSPropertyOp48
 70
     1
102
RTVSPropertyOp49
 70
     1
102
RTVSPropertyOp50
 70
     1
102
RTVSPropertyOp51
 70
     0
102
RTVSPropertyOp52
 70
     0
102
RTVSPropertyOp53
 70
     1
102
RTVSPropertyOp54
 70
     1
102
RTVSPropertyOp55
 70
     1
102
RTVSPropertyOp56
 70
     1
102
RTVSPropertyOp57
 70
     1
102
RTVSPost2010Prop28
280
     0
102
RTVSPost2010PropOp28
 70
     1
102
RTVSPost2010Prop29
280
     1
102
RTVSPost2010PropOp29
 70
     1
102
RTVSPost2010Prop30
280
     1
102
RTVSPost2010PropOp30
 70
     1
102
RTVSPost2010Prop31
280
     0
102
RTVSPost2010PropOp31
 70
     1
102
RTVSPost2010Prop32
280
     0
102
RTVSPost2010PropOp32
 70
     1
102
RTVSPost2010Prop33
280
     0
102
RTVSPost2010PropOp33
 70
     1
102
RTVSPost2010Prop34
280
     0
102
RTVSPost2010PropOp34
 70
     1
102
RTVSPost2010Prop35
280
     0
102
RTVSPost2010PropOp35
 70
     1
102
RTVSPost2010Prop36
280
     0
102
RTVSPost2010PropOp36
 70
     1
102
RTVSPost2010Prop37
 90
       50
102
RTVSPost2010PropOp37
 70
     1
102
RTVSPost2010Prop38
140
0.0
102
RTVSPost2010PropOp38
 70
     1
102
RTVSPost2010Prop39
140
1.0
102
RTVSPost2010PropOp39
 70
     1
102
RTVSPost2010Prop40
 90
        0
102
RTVSPost2010PropOp40
 70
     1
102
RTVSPost2010Prop41ColorIndex
 90
       18
102
RTVSPost2010Prop41ColorRGB
 90
        0
102
RTVSPost2010PropOp41
 70
     1
102
RTVSPost2010Prop42
 90
       50
102
RTVSPost2010PropOp42
 70
     1
102
RTVSPost2010Prop43
 90
        3
102
RTVSPost2010PropOp43
 70
     1
102
RTVSPost2010Prop44ColorIndex
 90
        5
102
RTVSPost2010Prop44ColorRGB
 90
      255
102
RTVSPost2010PropOp44
 70
     1
102
RTVSPost2010Prop45
280
     0
102
RTVSPost2010PropOp45
 70
     1
102
RTVSPost2010Prop46
 90
       50
102
RTVSPost2010PropOp46
 70
     1
102
RTVSPost2010Prop47
 90
       50
102
RTVSPost2010PropOp47
 70
     1
102
RTVSPost2010Prop48
 90
       50
102
RTVSPost2010PropOp48
 70
     1
102
RTVSPost2010Prop49
280
     0
102
RTVSPost2010PropOp49
 70
     1
102
RTVSPost2010Prop50
 90
       50
102
RTVSPost2010PropOp50
 70
     1
102
RTVSPost2010Prop51ColorIndex
 90
      256
102
RTVSPost2010Prop51ColorRGB
 90
-16777216
102
RTVSPost2010PropOp51
 70
     0
102
RTVSPost2010Prop52
140
1.0
102
RTVSPost2010PropOp52
 70
     0
102
RTVSPost2010Prop53
 90
        2
102
RTVSPost2010PropOp53
 70
     1
102
RTVSPost2010Prop54
  1
strokes_ogs.tif
102
RTVSPost2010PropOp54
 70
     1
102
RTVSPost2010Prop55
280
     0
102
RTVSPost2010PropOp55
 70
     1
102
RTVSPost2010Prop56
140
1.0
102
RTVSPost2010PropOp56
 70
     1
102
RTVSPost2010Prop57
140
1.0
102
RTVSPost2010PropOp57
 70
     1
  0
XRECORD
  5
352
102
{ACAD_REACTORS
330
351
102
}
330
351
100
AcDbXrecord
280
     1
102
RTVSPropertyOp0
 70
     1
102
RTVSPropertyOp1
 70
     1
102
RTVSPropertyOp2
 70
     1
102
RTVSPropertyOp3
 70
     1
102
RTVSPropertyOp4
 70
     1
102
RTVSPropertyOp5
 70
     1
102
RTVSPropertyOp6
 70
     1
102
RTVSPropertyOp7
 70
     1
102
RTVSPropertyOp8
 70
     1
102
RTVSPropertyOp9
 70
     1
102
RTVSPropertyOp10
 70
     1
102
RTVSPropertyOp11
 70
     1
102
RTVSPropertyOp12
 70
     1
102
RTVSPropertyOp13
 70
     1
102
RTVSPropertyOp14
 70
     1
102
RTVSPropertyOp15
 70
     1
102
RTVSPropertyOp16
 70
     1
102
RTVSPropertyOp17
 70
     1
102
RTVSPropertyOp18
 70
     1
102
RTVSPropertyOp19
 70
     1
102
RTVSPropertyOp20
 70
     1
102
RTVSPropertyOp21
 70
     1
102
RTVSPropertyOp22
 70
     1
102
RTVSPropertyOp23
 70
     1
102
RTVSPropertyOp24
 70
     1
102
RTVSPropertyOp25
 70
     1
102
RTVSPropertyOp26
 70
     1
102
RTVSPropertyOp27
 70
     1
102
RTVSPropertyOp28
 70
     1
102
RTVSPropertyOp29
 70
     1
102
RTVSPropertyOp30
 70
     1
102
RTVSPropertyOp31
 70
     1
102
RTVSPropertyOp32
 70
     1
102
RTVSPropertyOp33
 70
     1
102
RTVSPropertyOp34
 70
     1
102
RTVSPropertyOp35
 70
     1
102
RTVSPropertyOp36
 70
     1
102
RTVSPropertyOp37
 70
     1
102
RTVSPropertyOp38
 70
     1
102
RTVSPropertyOp39
 70
     1
102
RTVSPropertyOp40
 70
     1
102
RTVSPropertyOp41
 70
     1
102
RTVSPropertyOp42
 70
     1
102
RTVSPropertyOp43
 70
     1
102
RTVSPropertyOp44
 70
     1
102
RTVSPropertyOp45
 70
     1
102
RTVSPropertyOp46
 70
     1
102
RTVSPropertyOp47
 70
     1
102
RTVSPropertyOp48
 70
     1
102
RTVSPropertyOp49
 70
     1
102
RTVSPropertyOp50
 70
     1
102
RTVSPropertyOp51
 70
     0
102
RTVSPropertyOp52
 70
     0
102
RTVSPropertyOp53
 70
     1
102
RTVSPropertyOp54
 70
     1
102
RTVSPropertyOp55
 70
     1
102
RTVSPropertyOp56
 70
     1
102
RTVSPropertyOp57
 70
     1
102
RTVSPost2010Prop28
280
     0
102
RTVSPost2010PropOp28
 70
     1
102
RTVSPost2010Prop29
280
     1
102
RTVSPost2010PropOp29
 70
     1
102
RTVSPost2010Prop30
280
     1
102
RTVSPost2010PropOp30
 70
     1
102
RTVSPost2010Prop31
280
     0
102
RTVSPost2010PropOp31
 70
     1
102
RTVSPost2010Prop32
280
     0
102
RTVSPost2010PropOp32
 70
     1
102
RTVSPost2010Prop33
280
     0
102
RTVSPost2010PropOp33
 70
     1
102
RTVSPost2010Prop34
280
     0
102
RTVSPost2010PropOp34
 70
     1
102
RTVSPost2010Prop35
280
     0
102
RTVSPost2010PropOp35
 70
     1
102
RTVSPost2010Prop36
280
     0
102
RTVSPost2010PropOp36
 70
     1
102
RTVSPost2010Prop37
 90
       50
102
RTVSPost2010PropOp37
 70
     1
102
RTVSPost2010Prop38
140
0.0
102
RTVSPost2010PropOp38
 70
     1
102
RTVSPost2010Prop39
140
1.0
102
RTVSPost2010PropOp39
 70
     1
102
RTVSPost2010Prop40
 90
        0
102
RTVSPost2010PropOp40
 70
     1
102
RTVSPost2010Prop41ColorIndex
 90
       18
102
RTVSPost2010Prop41ColorRGB
 90
        0
102
RTVSPost2010PropOp41
 70
     1
102
RTVSPost2010Prop42
 90
       50
102
RTVSPost2010PropOp42
 70
     1
102
RTVSPost2010Prop43
 90
        3
102
RTVSPost2010PropOp43
 70
     1
102
RTVSPost2010Prop44ColorIndex
 90
        5
102
RTVSPost2010Prop44ColorRGB
 90
      255
102
RTVSPost2010PropOp44
 70
     1
102
RTVSPost2010Prop45
280
     0
102
RTVSPost2010PropOp45
 70
     1
102
RTVSPost2010Prop46
 90
       50
102
RTVSPost2010PropOp46
 70
     1
102
RTVSPost2010Prop47
 90
       50
102
RTVSPost2010PropOp47
 70
     1
102
RTVSPost2010Prop48
 90
       50
102
RTVSPost2010PropOp48
 70
     1
102
RTVSPost2010Prop49
280
     0
102
RTVSPost2010PropOp49
 70
     1
102
RTVSPost2010Prop50
 90
       50
102
RTVSPost2010PropOp50
 70
     1
102
RTVSPost2010Prop51ColorIndex
 90
      256
102
RTVSPost2010Prop51ColorRGB
 90
-16777216
102
RTVSPost2010PropOp51
 70
     0
102
RTVSPost2010Prop52
140
1.0
102
RTVSPost2010PropOp52
 70
     0
102
RTVSPost2010Prop53
 90
        2
102
RTVSPost2010PropOp53
 70
     1
102
RTVSPost2010Prop54
  1
strokes_ogs.tif
102
RTVSPost2010PropOp54
 70
     1
102
RTVSPost2010Prop55
280
     0
102
RTVSPost2010PropOp55
 70
     1
102
RTVSPost2010Prop56
140
1.0
102
RTVSPost2010PropOp56
 70
     1
102
RTVSPost2010Prop57
140
1.0
102
RTVSPost2010PropOp57
 70
     1
  0
XRECORD
  5
346
102
{ACAD_REACTORS
330
345
102
}
330
345
100
AcDbXrecord
280
     1
102
RTVSPropertyOp0
 70
     1
102
RTVSPropertyOp1
 70
     1
102
RTVSPropertyOp2
 70
     1
102
RTVSPropertyOp3
 70
     1
102
RTVSPropertyOp4
 70
     1
102
RTVSPropertyOp5
 70
     1
102
RTVSPropertyOp6
 70
     1
102
RTVSPropertyOp7
 70
     1
102
RTVSPropertyOp8
 70
     1
102
RTVSPropertyOp9
 70
     1
102
RTVSPropertyOp10
 70
     1
102
RTVSPropertyOp11
 70
     1
102
RTVSPropertyOp12
 70
     1
102
RTVSPropertyOp13
 70
     1
102
RTVSPropertyOp14
 70
     1
102
RTVSPropertyOp15
 70
     1
102
RTVSPropertyOp16
 70
     1
102
RTVSPropertyOp17
 70
     1
102
RTVSPropertyOp18
 70
     1
102
RTVSPropertyOp19
 70
     1
102
RTVSPropertyOp20
 70
     1
102
RTVSPropertyOp21
 70
     1
102
RTVSPropertyOp22
 70
     1
102
RTVSPropertyOp23
 70
     1
102
RTVSPropertyOp24
 70
     1
102
RTVSPropertyOp25
 70
     1
102
RTVSPropertyOp26
 70
     1
102
RTVSPropertyOp27
 70
     1
102
RTVSPropertyOp28
 70
     1
102
RTVSPropertyOp29
 70
     1
102
RTVSPropertyOp30
 70
     1
102
RTVSPropertyOp31
 70
     1
102
RTVSPropertyOp32
 70
     1
102
RTVSPropertyOp33
 70
     1
102
RTVSPropertyOp34
 70
     1
102
RTVSPropertyOp35
 70
     1
102
RTVSPropertyOp36
 70
     1
102
RTVSPropertyOp37
 70
     1
102
RTVSPropertyOp38
 70
     1
102
RTVSPropertyOp39
 70
     1
102
RTVSPropertyOp40
 70
     1
102
RTVSPropertyOp41
 70
     1
102
RTVSPropertyOp42
 70
     1
102
RTVSPropertyOp43
 70
     1
102
RTVSPropertyOp44
 70
     1
102
RTVSPropertyOp45
 70
     1
102
RTVSPropertyOp46
 70
     1
102
RTVSPropertyOp47
 70
     1
102
RTVSPropertyOp48
 70
     1
102
RTVSPropertyOp49
 70
     1
102
RTVSPropertyOp50
 70
     1
102
RTVSPropertyOp51
 70
     0
102
RTVSPropertyOp52
 70
     0
102
RTVSPropertyOp53
 70
     1
102
RTVSPropertyOp54
 70
     1
102
RTVSPropertyOp55
 70
     1
102
RTVSPropertyOp56
 70
     1
102
RTVSPropertyOp57
 70
     1
102
RTVSPost2010Prop28
280
     0
102
RTVSPost2010PropOp28
 70
     1
102
RTVSPost2010Prop29
280
     1
102
RTVSPost2010PropOp29
 70
     1
102
RTVSPost2010Prop30
280
     1
102
RTVSPost2010PropOp30
 70
     1
102
RTVSPost2010Prop31
280
     0
102
RTVSPost2010PropOp31
 70
     1
102
RTVSPost2010Prop32
280
     0
102
RTVSPost2010PropOp32
 70
     1
102
RTVSPost2010Prop33
280
     0
102
RTVSPost2010PropOp33
 70
     1
102
RTVSPost2010Prop34
280
     0
102
RTVSPost2010PropOp34
 70
     1
102
RTVSPost2010Prop35
280
     0
102
RTVSPost2010PropOp35
 70
     1
102
RTVSPost2010Prop36
280
     0
102
RTVSPost2010PropOp36
 70
     1
102
RTVSPost2010Prop37
 90
       50
102
RTVSPost2010PropOp37
 70
     1
102
RTVSPost2010Prop38
140
0.0
102
RTVSPost2010PropOp38
 70
     1
102
RTVSPost2010Prop39
140
1.0
102
RTVSPost2010PropOp39
 70
     1
102
RTVSPost2010Prop40
 90
        0
102
RTVSPost2010PropOp40
 70
     1
102
RTVSPost2010Prop41ColorIndex
 90
       18
102
RTVSPost2010Prop41ColorRGB
 90
        0
102
RTVSPost2010PropOp41
 70
     1
102
RTVSPost2010Prop42
 90
       50
102
RTVSPost2010PropOp42
 70
     1
102
RTVSPost2010Prop43
 90
        3
102
RTVSPost2010PropOp43
 70
     1
102
RTVSPost2010Prop44ColorIndex
 90
        5
102
RTVSPost2010Prop44ColorRGB
 90
      255
102
RTVSPost2010PropOp44
 70
     1
102
RTVSPost2010Prop45
280
     0
102
RTVSPost2010PropOp45
 70
     1
102
RTVSPost2010Prop46
 90
       50
102
RTVSPost2010PropOp46
 70
     1
102
RTVSPost2010Prop47
 90
       50
102
RTVSPost2010PropOp47
 70
     1
102
RTVSPost2010Prop48
 90
       50
102
RTVSPost2010PropOp48
 70
     1
102
RTVSPost2010Prop49
280
     0
102
RTVSPost2010PropOp49
 70
     1
102
RTVSPost2010Prop50
 90
       50
102
RTVSPost2010PropOp50
 70
     1
102
RTVSPost2010Prop51ColorIndex
 90
      256
102
RTVSPost2010Prop51ColorRGB
 90
-16777216
102
RTVSPost2010PropOp51
 70
     0
102
RTVSPost2010Prop52
140
1.0
102
RTVSPost2010PropOp52
 70
     0
102
RTVSPost2010Prop53
 90
        2
102
RTVSPost2010PropOp53
 70
     1
102
RTVSPost2010Prop54
  1
strokes_ogs.tif
102
RTVSPost2010PropOp54
 70
     1
102
RTVSPost2010Prop55
280
     0
102
RTVSPost2010PropOp55
 70
     1
102
RTVSPost2010Prop56
140
1.0
102
RTVSPost2010PropOp56
 70
     1
102
RTVSPost2010Prop57
140
1.0
102
RTVSPost2010PropOp57
 70
     1
  0
XRECORD
  5
348
102
{ACAD_REACTORS
330
347
102
}
330
347
100
AcDbXrecord
280
     1
102
RTVSPropertyOp0
 70
     1
102
RTVSPropertyOp1
 70
     1
102
RTVSPropertyOp2
 70
     1
102
RTVSPropertyOp3
 70
     1
102
RTVSPropertyOp4
 70
     1
102
RTVSPropertyOp5
 70
     1
102
RTVSPropertyOp6
 70
     1
102
RTVSPropertyOp7
 70
     1
102
RTVSPropertyOp8
 70
     1
102
RTVSPropertyOp9
 70
     1
102
RTVSPropertyOp10
 70
     1
102
RTVSPropertyOp11
 70
     1
102
RTVSPropertyOp12
 70
     1
102
RTVSPropertyOp13
 70
     1
102
RTVSPropertyOp14
 70
     1
102
RTVSPropertyOp15
 70
     1
102
RTVSPropertyOp16
 70
     1
102
RTVSPropertyOp17
 70
     1
102
RTVSPropertyOp18
 70
     1
102
RTVSPropertyOp19
 70
     1
102
RTVSPropertyOp20
 70
     1
102
RTVSPropertyOp21
 70
     1
102
RTVSPropertyOp22
 70
     1
102
RTVSPropertyOp23
 70
     1
102
RTVSPropertyOp24
 70
     1
102
RTVSPropertyOp25
 70
     1
102
RTVSPropertyOp26
 70
     1
102
RTVSPropertyOp27
 70
     1
102
RTVSPropertyOp28
 70
     1
102
RTVSPropertyOp29
 70
     1
102
RTVSPropertyOp30
 70
     1
102
RTVSPropertyOp31
 70
     1
102
RTVSPropertyOp32
 70
     1
102
RTVSPropertyOp33
 70
     1
102
RTVSPropertyOp34
 70
     1
102
RTVSPropertyOp35
 70
     1
102
RTVSPropertyOp36
 70
     1
102
RTVSPropertyOp37
 70
     1
102
RTVSPropertyOp38
 70
     1
102
RTVSPropertyOp39
 70
     1
102
RTVSPropertyOp40
 70
     1
102
RTVSPropertyOp41
 70
     1
102
RTVSPropertyOp42
 70
     1
102
RTVSPropertyOp43
 70
     1
102
RTVSPropertyOp44
 70
     1
102
RTVSPropertyOp45
 70
     1
102
RTVSPropertyOp46
 70
     1
102
RTVSPropertyOp47
 70
     1
102
RTVSPropertyOp48
 70
     1
102
RTVSPropertyOp49
 70
     1
102
RTVSPropertyOp50
 70
     1
102
RTVSPropertyOp51
 70
     0
102
RTVSPropertyOp52
 70
     0
102
RTVSPropertyOp53
 70
     1
102
RTVSPropertyOp54
 70
     1
102
RTVSPropertyOp55
 70
     1
102
RTVSPropertyOp56
 70
     1
102
RTVSPropertyOp57
 70
     1
102
RTVSPost2010Prop28
280
     0
102
RTVSPost2010PropOp28
 70
     1
102
RTVSPost2010Prop29
280
     1
102
RTVSPost2010PropOp29
 70
     1
102
RTVSPost2010Prop30
280
     1
102
RTVSPost2010PropOp30
 70
     1
102
RTVSPost2010Prop31
280
     0
102
RTVSPost2010PropOp31
 70
     1
102
RTVSPost2010Prop32
280
     0
102
RTVSPost2010PropOp32
 70
     1
102
RTVSPost2010Prop33
280
     0
102
RTVSPost2010PropOp33
 70
     1
102
RTVSPost2010Prop34
280
     0
102
RTVSPost2010PropOp34
 70
     1
102
RTVSPost2010Prop35
280
     0
102
RTVSPost2010PropOp35
 70
     1
102
RTVSPost2010Prop36
280
     0
102
RTVSPost2010PropOp36
 70
     1
102
RTVSPost2010Prop37
 90
       50
102
RTVSPost2010PropOp37
 70
     1
102
RTVSPost2010Prop38
140
0.0
102
RTVSPost2010PropOp38
 70
     1
102
RTVSPost2010Prop39
140
1.0
102
RTVSPost2010PropOp39
 70
     1
102
RTVSPost2010Prop40
 90
        0
102
RTVSPost2010PropOp40
 70
     1
102
RTVSPost2010Prop41ColorIndex
 90
       18
102
RTVSPost2010Prop41ColorRGB
 90
        0
102
RTVSPost2010PropOp41
 70
     1
102
RTVSPost2010Prop42
 90
       50
102
RTVSPost2010PropOp42
 70
     1
102
RTVSPost2010Prop43
 90
        3
102
RTVSPost2010PropOp43
 70
     1
102
RTVSPost2010Prop44ColorIndex
 90
        5
102
RTVSPost2010Prop44ColorRGB
 90
      255
102
RTVSPost2010PropOp44
 70
     1
102
RTVSPost2010Prop45
280
     0
102
RTVSPost2010PropOp45
 70
     1
102
RTVSPost2010Prop46
 90
       50
102
RTVSPost2010PropOp46
 70
     1
102
RTVSPost2010Prop47
 90
       50
102
RTVSPost2010PropOp47
 70
     1
102
RTVSPost2010Prop48
 90
       50
102
RTVSPost2010PropOp48
 70
     1
102
RTVSPost2010Prop49
280
     0
102
RTVSPost2010PropOp49
 70
     1
102
RTVSPost2010Prop50
 90
       50
102
RTVSPost2010PropOp50
 70
     1
102
RTVSPost2010Prop51ColorIndex
 90
      256
102
RTVSPost2010Prop51ColorRGB
 90
-16777216
102
RTVSPost2010PropOp51
 70
     0
102
RTVSPost2010Prop52
140
1.0
102
RTVSPost2010PropOp52
 70
     0
102
RTVSPost2010Prop53
 90
        2
102
RTVSPost2010PropOp53
 70
     1
102
RTVSPost2010Prop54
  1
strokes_ogs.tif
102
RTVSPost2010PropOp54
 70
     1
102
RTVSPost2010Prop55
280
     0
102
RTVSPost2010PropOp55
 70
     1
102
RTVSPost2010Prop56
140
1.0
102
RTVSPost2010PropOp56
 70
     1
102
RTVSPost2010Prop57
140
1.0
102
RTVSPost2010PropOp57
 70
     1
  0
XRECORD
  5
358
102
{ACAD_REACTORS
330
357
102
}
330
357
100
AcDbXrecord
280
     1
102
RTVSPropertyOp0
 70
     0
102
RTVSPropertyOp1
 70
     0
102
RTVSPropertyOp2
 70
     0
102
RTVSPropertyOp3
 70
     0
102
RTVSPropertyOp4
 70
     0
102
RTVSPropertyOp5
 70
     0
102
RTVSPropertyOp6
 70
     0
102
RTVSPropertyOp7
 70
     0
102
RTVSPropertyOp8
 70
     0
102
RTVSPropertyOp9
 70
     0
102
RTVSPropertyOp10
 70
     0
102
RTVSPropertyOp11
 70
     0
102
RTVSPropertyOp12
 70
     0
102
RTVSPropertyOp13
 70
     0
102
RTVSPropertyOp14
 70
     2
102
RTVSPropertyOp15
 70
     0
102
RTVSPropertyOp16
 70
     0
102
RTVSPropertyOp17
 70
     0
102
RTVSPropertyOp18
 70
     0
102
RTVSPropertyOp19
 70
     0
102
RTVSPropertyOp20
 70
     0
102
RTVSPropertyOp21
 70
     0
102
RTVSPropertyOp22
 70
     0
102
RTVSPropertyOp23
 70
     0
102
RTVSPropertyOp24
 70
     0
102
RTVSPropertyOp25
 70
     0
102
RTVSPropertyOp26
 70
     0
102
RTVSPropertyOp27
 70
     0
102
RTVSPropertyOp28
 70
     0
102
RTVSPropertyOp29
 70
     0
102
RTVSPropertyOp30
 70
     0
102
RTVSPropertyOp31
 70
     0
102
RTVSPropertyOp32
 70
     0
102
RTVSPropertyOp33
 70
     0
102
RTVSPropertyOp34
 70
     0
102
RTVSPropertyOp35
 70
     0
102
RTVSPropertyOp36
 70
     0
102
RTVSPropertyOp37
 70
     0
102
RTVSPropertyOp38
 70
     0
102
RTVSPropertyOp39
 70
     0
102
RTVSPropertyOp40
 70
     0
102
RTVSPropertyOp41
 70
     0
102
RTVSPropertyOp42
 70
     0
102
RTVSPropertyOp43
 70
     0
102
RTVSPropertyOp44
 70
     0
102
RTVSPropertyOp45
 70
     0
102
RTVSPropertyOp46
 70
     0
102
RTVSPropertyOp47
 70
     0
102
RTVSPropertyOp48
 70
     0
102
RTVSPropertyOp49
 70
     0
102
RTVSPropertyOp50
 70
     0
102
RTVSPropertyOp51
 70
     0
102
RTVSPropertyOp52
 70
     0
102
RTVSPropertyOp53
 70
     0
102
RTVSPropertyOp54
 70
     0
102
RTVSPropertyOp55
 70
     0
102
RTVSPropertyOp56
 70
     0
102
RTVSPropertyOp57
 70
     0
102
RTVSPost2010Prop28
280
     0
102
RTVSPost2010PropOp28
 70
     0
102
RTVSPost2010Prop29
280
     1
102
RTVSPost2010PropOp29
 70
     0
102
RTVSPost2010Prop30
280
     1
102
RTVSPost2010PropOp30
 70
     0
102
RTVSPost2010Prop31
280
     0
102
RTVSPost2010PropOp31
 70
     0
102
RTVSPost2010Prop32
280
     0
102
RTVSPost2010PropOp32
 70
     0
102
RTVSPost2010Prop33
280
     0
102
RTVSPost2010PropOp33
 70
     0
102
RTVSPost2010Prop34
280
     0
102
RTVSPost2010PropOp34
 70
     0
102
RTVSPost2010Prop35
280
     0
102
RTVSPost2010PropOp35
 70
     0
102
RTVSPost2010Prop36
280
     0
102
RTVSPost2010PropOp36
 70
     0
102
RTVSPost2010Prop37
 90
       50
102
RTVSPost2010PropOp37
 70
     0
102
RTVSPost2010Prop38
140
0.0
102
RTVSPost2010PropOp38
 70
     0
102
RTVSPost2010Prop39
140
1.0
102
RTVSPost2010PropOp39
 70
     0
102
RTVSPost2010Prop40
 90
        0
102
RTVSPost2010PropOp40
 70
     0
102
RTVSPost2010Prop41ColorIndex
 90
       18
102
RTVSPost2010Prop41ColorRGB
 90
        0
102
RTVSPost2010PropOp41
 70
     0
102
RTVSPost2010Prop42
 90
       50
102
RTVSPost2010PropOp42
 70
     0
102
RTVSPost2010Prop43
 90
        3
102
RTVSPost2010PropOp43
 70
     0
102
RTVSPost2010Prop44ColorIndex
 90
        5
102
RTVSPost2010Prop44ColorRGB
 90
      255
102
RTVSPost2010PropOp44
 70
     0
102
RTVSPost2010Prop45
280
     0
102
RTVSPost2010PropOp45
 70
     0
102
RTVSPost2010Prop46
 90
       50
102
RTVSPost2010PropOp46
 70
     0
102
RTVSPost2010Prop47
 90
       50
102
RTVSPost2010PropOp47
 70
     0
102
RTVSPost2010Prop48
 90
       50
102
RTVSPost2010PropOp48
 70
     0
102
RTVSPost2010Prop49
280
     0
102
RTVSPost2010PropOp49
 70
     0
102
RTVSPost2010Prop50
 90
       50
102
RTVSPost2010PropOp50
 70
     0
102
RTVSPost2010Prop51ColorIndex
 90
      256
102
RTVSPost2010Prop51ColorRGB
 90
-16777216
102
RTVSPost2010PropOp51
 70
     0
102
RTVSPost2010Prop52
140
1.0
102
RTVSPost2010PropOp52
 70
     0
102
RTVSPost2010Prop53
 90
        2
102
RTVSPost2010PropOp53
 70
     0
102
RTVSPost2010Prop54
  1
strokes_ogs.tif
102
RTVSPost2010PropOp54
 70
     0
102
RTVSPost2010Prop55
280
     0
102
RTVSPost2010PropOp55
 70
     0
102
RTVSPost2010Prop56
140
1.0
102
RTVSPost2010PropOp56
 70
     0
102
RTVSPost2010Prop57
140
1.0
102
RTVSPost2010PropOp57
 70
     0
  0
XRECORD
  5
350
102
{ACAD_REACTORS
330
34F
102
}
330
34F
100
AcDbXrecord
280
     1
102
RTVSPropertyOp0
 70
     1
102
RTVSPropertyOp1
 70
     1
102
RTVSPropertyOp2
 70
     1
102
RTVSPropertyOp3
 70
     1
102
RTVSPropertyOp4
 70
     1
102
RTVSPropertyOp5
 70
     1
102
RTVSPropertyOp6
 70
     1
102
RTVSPropertyOp7
 70
     1
102
RTVSPropertyOp8
 70
     1
102
RTVSPropertyOp9
 70
     1
102
RTVSPropertyOp10
 70
     1
102
RTVSPropertyOp11
 70
     1
102
RTVSPropertyOp12
 70
     1
102
RTVSPropertyOp13
 70
     1
102
RTVSPropertyOp14
 70
     1
102
RTVSPropertyOp15
 70
     1
102
RTVSPropertyOp16
 70
     1
102
RTVSPropertyOp17
 70
     1
102
RTVSPropertyOp18
 70
     1
102
RTVSPropertyOp19
 70
     1
102
RTVSPropertyOp20
 70
     1
102
RTVSPropertyOp21
 70
     1
102
RTVSPropertyOp22
 70
     1
102
RTVSPropertyOp23
 70
     1
102
RTVSPropertyOp24
 70
     1
102
RTVSPropertyOp25
 70
     1
102
RTVSPropertyOp26
 70
     1
102
RTVSPropertyOp27
 70
     1
102
RTVSPropertyOp28
 70
     1
102
RTVSPropertyOp29
 70
     1
102
RTVSPropertyOp30
 70
     1
102
RTVSPropertyOp31
 70
     1
102
RTVSPropertyOp32
 70
     1
102
RTVSPropertyOp33
 70
     1
102
RTVSPropertyOp34
 70
     1
102
RTVSPropertyOp35
 70
     1
102
RTVSPropertyOp36
 70
     1
102
RTVSPropertyOp37
 70
     1
102
RTVSPropertyOp38
 70
     1
102
RTVSPropertyOp39
 70
     1
102
RTVSPropertyOp40
 70
     1
102
RTVSPropertyOp41
 70
     1
102
RTVSPropertyOp42
 70
     1
102
RTVSPropertyOp43
 70
     1
102
RTVSPropertyOp44
 70
     1
102
RTVSPropertyOp45
 70
     1
102
RTVSPropertyOp46
 70
     1
102
RTVSPropertyOp47
 70
     1
102
RTVSPropertyOp48
 70
     1
102
RTVSPropertyOp49
 70
     1
102
RTVSPropertyOp50
 70
     1
102
RTVSPropertyOp51
 70
     0
102
RTVSPropertyOp52
 70
     0
102
RTVSPropertyOp53
 70
     1
102
RTVSPropertyOp54
 70
     1
102
RTVSPropertyOp55
 70
     1
102
RTVSPropertyOp56
 70
     1
102
RTVSPropertyOp57
 70
     1
102
RTVSPost2010Prop28
280
     0
102
RTVSPost2010PropOp28
 70
     1
102
RTVSPost2010Prop29
280
     1
102
RTVSPost2010PropOp29
 70
     1
102
RTVSPost2010Prop30
280
     1
102
RTVSPost2010PropOp30
 70
     1
102
RTVSPost2010Prop31
280
     0
102
RTVSPost2010PropOp31
 70
     1
102
RTVSPost2010Prop32
280
     0
102
RTVSPost2010PropOp32
 70
     1
102
RTVSPost2010Prop33
280
     0
102
RTVSPost2010PropOp33
 70
     1
102
RTVSPost2010Prop34
280
     0
102
RTVSPost2010PropOp34
 70
     1
102
RTVSPost2010Prop35
280
     0
102
RTVSPost2010PropOp35
 70
     1
102
RTVSPost2010Prop36
280
     0
102
RTVSPost2010PropOp36
 70
     1
102
RTVSPost2010Prop37
 90
       50
102
RTVSPost2010PropOp37
 70
     1
102
RTVSPost2010Prop38
140
0.0
102
RTVSPost2010PropOp38
 70
     1
102
RTVSPost2010Prop39
140
1.0
102
RTVSPost2010PropOp39
 70
     1
102
RTVSPost2010Prop40
 90
        0
102
RTVSPost2010PropOp40
 70
     1
102
RTVSPost2010Prop41ColorIndex
 90
       18
102
RTVSPost2010Prop41ColorRGB
 90
        0
102
RTVSPost2010PropOp41
 70
     1
102
RTVSPost2010Prop42
 90
       50
102
RTVSPost2010PropOp42
 70
     1
102
RTVSPost2010Prop43
 90
        3
102
RTVSPost2010PropOp43
 70
     1
102
RTVSPost2010Prop44ColorIndex
 90
        5
102
RTVSPost2010Prop44ColorRGB
 90
      255
102
RTVSPost2010PropOp44
 70
     1
102
RTVSPost2010Prop45
280
     0
102
RTVSPost2010PropOp45
 70
     1
102
RTVSPost2010Prop46
 90
       50
102
RTVSPost2010PropOp46
 70
     1
102
RTVSPost2010Prop47
 90
       50
102
RTVSPost2010PropOp47
 70
     1
102
RTVSPost2010Prop48
 90
       50
102
RTVSPost2010PropOp48
 70
     1
102
RTVSPost2010Prop49
280
     0
102
RTVSPost2010PropOp49
 70
     1
102
RTVSPost2010Prop50
 90
       50
102
RTVSPost2010PropOp50
 70
     1
102
RTVSPost2010Prop51ColorIndex
 90
      256
102
RTVSPost2010Prop51ColorRGB
 90
-16777216
102
RTVSPost2010PropOp51
 70
     0
102
RTVSPost2010Prop52
140
1.0
102
RTVSPost2010PropOp52
 70
     0
102
RTVSPost2010Prop53
 90
        2
102
RTVSPost2010PropOp53
 70
     1
102
RTVSPost2010Prop54
  1
strokes_ogs.tif
102
RTVSPost2010PropOp54
 70
     1
102
RTVSPost2010Prop55
280
     0
102
RTVSPost2010PropOp55
 70
     1
102
RTVSPost2010Prop56
140
1.0
102
RTVSPost2010PropOp56
 70
     1
102
RTVSPost2010Prop57
140
1.0
102
RTVSPost2010PropOp57
 70
     1
  0
XRECORD
  5
334
102
{ACAD_REACTORS
330
333
102
}
330
333
100
AcDbXrecord
280
     1
102
RTVSPropertyOp0
 70
     1
102
RTVSPropertyOp1
 70
     1
102
RTVSPropertyOp2
 70
     1
102
RTVSPropertyOp3
 70
     1
102
RTVSPropertyOp4
 70
     1
102
RTVSPropertyOp5
 70
     1
102
RTVSPropertyOp6
 70
     1
102
RTVSPropertyOp7
 70
     1
102
RTVSPropertyOp8
 70
     1
102
RTVSPropertyOp9
 70
     1
102
RTVSPropertyOp10
 70
     1
102
RTVSPropertyOp11
 70
     1
102
RTVSPropertyOp12
 70
     1
102
RTVSPropertyOp13
 70
     1
102
RTVSPropertyOp14
 70
     1
102
RTVSPropertyOp15
 70
     1
102
RTVSPropertyOp16
 70
     1
102
RTVSPropertyOp17
 70
     1
102
RTVSPropertyOp18
 70
     1
102
RTVSPropertyOp19
 70
     1
102
RTVSPropertyOp20
 70
     1
102
RTVSPropertyOp21
 70
     1
102
RTVSPropertyOp22
 70
     1
102
RTVSPropertyOp23
 70
     1
102
RTVSPropertyOp24
 70
     1
102
RTVSPropertyOp25
 70
     1
102
RTVSPropertyOp26
 70
     1
102
RTVSPropertyOp27
 70
     1
102
RTVSPropertyOp28
 70
     1
102
RTVSPropertyOp29
 70
     1
102
RTVSPropertyOp30
 70
     1
102
RTVSPropertyOp31
 70
     1
102
RTVSPropertyOp32
 70
     1
102
RTVSPropertyOp33
 70
     1
102
RTVSPropertyOp34
 70
     1
102
RTVSPropertyOp35
 70
     1
102
RTVSPropertyOp36
 70
     1
102
RTVSPropertyOp37
 70
     1
102
RTVSPropertyOp38
 70
     1
102
RTVSPropertyOp39
 70
     1
102
RTVSPropertyOp40
 70
     1
102
RTVSPropertyOp41
 70
     1
102
RTVSPropertyOp42
 70
     1
102
RTVSPropertyOp43
 70
     1
102
RTVSPropertyOp44
 70
     1
102
RTVSPropertyOp45
 70
     1
102
RTVSPropertyOp46
 70
     1
102
RTVSPropertyOp47
 70
     1
102
RTVSPropertyOp48
 70
     1
102
RTVSPropertyOp49
 70
     1
102
RTVSPropertyOp50
 70
     1
102
RTVSPropertyOp51
 70
     0
102
RTVSPropertyOp52
 70
     0
102
RTVSPropertyOp53
 70
     1
102
RTVSPropertyOp54
 70
     1
102
RTVSPropertyOp55
 70
     1
102
RTVSPropertyOp56
 70
     1
102
RTVSPropertyOp57
 70
     1
102
RTVSPost2010Prop28
280
     0
102
RTVSPost2010PropOp28
 70
     1
102
RTVSPost2010Prop29
280
     1
102
RTVSPost2010PropOp29
 70
     1
102
RTVSPost2010Prop30
280
     1
102
RTVSPost2010PropOp30
 70
     1
102
RTVSPost2010Prop31
280
     0
102
RTVSPost2010PropOp31
 70
     1
102
RTVSPost2010Prop32
280
     0
102
RTVSPost2010PropOp32
 70
     1
102
RTVSPost2010Prop33
280
     0
102
RTVSPost2010PropOp33
 70
     1
102
RTVSPost2010Prop34
280
     0
102
RTVSPost2010PropOp34
 70
     1
102
RTVSPost2010Prop35
280
     0
102
RTVSPost2010PropOp35
 70
     1
102
RTVSPost2010Prop36
280
     0
102
RTVSPost2010PropOp36
 70
     1
102
RTVSPost2010Prop37
 90
       50
102
RTVSPost2010PropOp37
 70
     1
102
RTVSPost2010Prop38
140
0.0
102
RTVSPost2010PropOp38
 70
     1
102
RTVSPost2010Prop39
140
1.0
102
RTVSPost2010PropOp39
 70
     1
102
RTVSPost2010Prop40
 90
        0
102
RTVSPost2010PropOp40
 70
     1
102
RTVSPost2010Prop41ColorIndex
 90
       18
102
RTVSPost2010Prop41ColorRGB
 90
        0
102
RTVSPost2010PropOp41
 70
     1
102
RTVSPost2010Prop42
 90
       50
102
RTVSPost2010PropOp42
 70
     1
102
RTVSPost2010Prop43
 90
        3
102
RTVSPost2010PropOp43
 70
     1
102
RTVSPost2010Prop44ColorIndex
 90
        5
102
RTVSPost2010Prop44ColorRGB
 90
      255
102
RTVSPost2010PropOp44
 70
     1
102
RTVSPost2010Prop45
280
     0
102
RTVSPost2010PropOp45
 70
     1
102
RTVSPost2010Prop46
 90
       50
102
RTVSPost2010PropOp46
 70
     1
102
RTVSPost2010Prop47
 90
       50
102
RTVSPost2010PropOp47
 70
     1
102
RTVSPost2010Prop48
 90
       50
102
RTVSPost2010PropOp48
 70
     1
102
RTVSPost2010Prop49
280
     0
102
RTVSPost2010PropOp49
 70
     1
102
RTVSPost2010Prop50
 90
       50
102
RTVSPost2010PropOp50
 70
     1
102
RTVSPost2010Prop51ColorIndex
 90
      256
102
RTVSPost2010Prop51ColorRGB
 90
-16777216
102
RTVSPost2010PropOp51
 70
     0
102
RTVSPost2010Prop52
140
1.0
102
RTVSPost2010PropOp52
 70
     0
102
RTVSPost2010Prop53
 90
        2
102
RTVSPost2010PropOp53
 70
     1
102
RTVSPost2010Prop54
  1
strokes_ogs.tif
102
RTVSPost2010PropOp54
 70
     1
102
RTVSPost2010Prop55
280
     0
102
RTVSPost2010PropOp55
 70
     1
102
RTVSPost2010Prop56
140
1.0
102
RTVSPost2010PropOp56
 70
     1
102
RTVSPost2010Prop57
140
1.0
102
RTVSPost2010PropOp57
 70
     1
  0
XRECORD
  5
336
102
{ACAD_REACTORS
330
335
102
}
330
335
100
AcDbXrecord
280
     1
102
RTVSPropertyOp0
 70
     1
102
RTVSPropertyOp1
 70
     1
102
RTVSPropertyOp2
 70
     1
102
RTVSPropertyOp3
 70
     1
102
RTVSPropertyOp4
 70
     1
102
RTVSPropertyOp5
 70
     1
102
RTVSPropertyOp6
 70
     1
102
RTVSPropertyOp7
 70
     1
102
RTVSPropertyOp8
 70
     1
102
RTVSPropertyOp9
 70
     1
102
RTVSPropertyOp10
 70
     1
102
RTVSPropertyOp11
 70
     1
102
RTVSPropertyOp12
 70
     1
102
RTVSPropertyOp13
 70
     1
102
RTVSPropertyOp14
 70
     1
102
RTVSPropertyOp15
 70
     1
102
RTVSPropertyOp16
 70
     1
102
RTVSPropertyOp17
 70
     1
102
RTVSPropertyOp18
 70
     1
102
RTVSPropertyOp19
 70
     1
102
RTVSPropertyOp20
 70
     1
102
RTVSPropertyOp21
 70
     1
102
RTVSPropertyOp22
 70
     1
102
RTVSPropertyOp23
 70
     1
102
RTVSPropertyOp24
 70
     1
102
RTVSPropertyOp25
 70
     1
102
RTVSPropertyOp26
 70
     1
102
RTVSPropertyOp27
 70
     1
102
RTVSPropertyOp28
 70
     1
102
RTVSPropertyOp29
 70
     1
102
RTVSPropertyOp30
 70
     1
102
RTVSPropertyOp31
 70
     1
102
RTVSPropertyOp32
 70
     1
102
RTVSPropertyOp33
 70
     1
102
RTVSPropertyOp34
 70
     1
102
RTVSPropertyOp35
 70
     1
102
RTVSPropertyOp36
 70
     1
102
RTVSPropertyOp37
 70
     1
102
RTVSPropertyOp38
 70
     1
102
RTVSPropertyOp39
 70
     1
102
RTVSPropertyOp40
 70
     1
102
RTVSPropertyOp41
 70
     1
102
RTVSPropertyOp42
 70
     1
102
RTVSPropertyOp43
 70
     1
102
RTVSPropertyOp44
 70
     1
102
RTVSPropertyOp45
 70
     1
102
RTVSPropertyOp46
 70
     1
102
RTVSPropertyOp47
 70
     1
102
RTVSPropertyOp48
 70
     1
102
RTVSPropertyOp49
 70
     1
102
RTVSPropertyOp50
 70
     1
102
RTVSPropertyOp51
 70
     0
102
RTVSPropertyOp52
 70
     0
102
RTVSPropertyOp53
 70
     1
102
RTVSPropertyOp54
 70
     1
102
RTVSPropertyOp55
 70
     1
102
RTVSPropertyOp56
 70
     1
102
RTVSPropertyOp57
 70
     1
102
RTVSPost2010Prop28
280
     0
102
RTVSPost2010PropOp28
 70
     1
102
RTVSPost2010Prop29
280
     1
102
RTVSPost2010PropOp29
 70
     1
102
RTVSPost2010Prop30
280
     1
102
RTVSPost2010PropOp30
 70
     1
102
RTVSPost2010Prop31
280
     0
102
RTVSPost2010PropOp31
 70
     1
102
RTVSPost2010Prop32
280
     0
102
RTVSPost2010PropOp32
 70
     1
102
RTVSPost2010Prop33
280
     0
102
RTVSPost2010PropOp33
 70
     1
102
RTVSPost2010Prop34
280
     0
102
RTVSPost2010PropOp34
 70
     1
102
RTVSPost2010Prop35
280
     0
102
RTVSPost2010PropOp35
 70
     1
102
RTVSPost2010Prop36
280
     0
102
RTVSPost2010PropOp36
 70
     1
102
RTVSPost2010Prop37
 90
       50
102
RTVSPost2010PropOp37
 70
     1
102
RTVSPost2010Prop38
140
0.0
102
RTVSPost2010PropOp38
 70
     1
102
RTVSPost2010Prop39
140
1.0
102
RTVSPost2010PropOp39
 70
     1
102
RTVSPost2010Prop40
 90
        0
102
RTVSPost2010PropOp40
 70
     1
102
RTVSPost2010Prop41ColorIndex
 90
       18
102
RTVSPost2010Prop41ColorRGB
 90
        0
102
RTVSPost2010PropOp41
 70
     1
102
RTVSPost2010Prop42
 90
       50
102
RTVSPost2010PropOp42
 70
     1
102
RTVSPost2010Prop43
 90
        3
102
RTVSPost2010PropOp43
 70
     1
102
RTVSPost2010Prop44ColorIndex
 90
        5
102
RTVSPost2010Prop44ColorRGB
 90
      255
102
RTVSPost2010PropOp44
 70
     1
102
RTVSPost2010Prop45
280
     0
102
RTVSPost2010PropOp45
 70
     1
102
RTVSPost2010Prop46
 90
       50
102
RTVSPost2010PropOp46
 70
     1
102
RTVSPost2010Prop47
 90
       50
102
RTVSPost2010PropOp47
 70
     1
102
RTVSPost2010Prop48
 90
       50
102
RTVSPost2010PropOp48
 70
     1
102
RTVSPost2010Prop49
280
     0
102
RTVSPost2010PropOp49
 70
     1
102
RTVSPost2010Prop50
 90
       50
102
RTVSPost2010PropOp50
 70
     1
102
RTVSPost2010Prop51ColorIndex
 90
      256
102
RTVSPost2010Prop51ColorRGB
 90
-16777216
102
RTVSPost2010PropOp51
 70
     0
102
RTVSPost2010Prop52
140
1.0
102
RTVSPost2010PropOp52
 70
     0
102
RTVSPost2010Prop53
 90
        2
102
RTVSPost2010PropOp53
 70
     1
102
RTVSPost2010Prop54
  1
strokes_ogs.tif
102
RTVSPost2010PropOp54
 70
     1
102
RTVSPost2010Prop55
280
     0
102
RTVSPost2010PropOp55
 70
     1
102
RTVSPost2010Prop56
140
1.0
102
RTVSPost2010PropOp56
 70
     1
102
RTVSPost2010Prop57
140
1.0
102
RTVSPost2010PropOp57
 70
     1
  0
XRECORD
  5
338
102
{ACAD_REACTORS
330
337
102
}
330
337
100
AcDbXrecord
280
     1
102
RTVSPropertyOp0
 70
     1
102
RTVSPropertyOp1
 70
     1
102
RTVSPropertyOp2
 70
     1
102
RTVSPropertyOp3
 70
     1
102
RTVSPropertyOp4
 70
     1
102
RTVSPropertyOp5
 70
     1
102
RTVSPropertyOp6
 70
     1
102
RTVSPropertyOp7
 70
     1
102
RTVSPropertyOp8
 70
     1
102
RTVSPropertyOp9
 70
     1
102
RTVSPropertyOp10
 70
     1
102
RTVSPropertyOp11
 70
     1
102
RTVSPropertyOp12
 70
     1
102
RTVSPropertyOp13
 70
     1
102
RTVSPropertyOp14
 70
     1
102
RTVSPropertyOp15
 70
     1
102
RTVSPropertyOp16
 70
     1
102
RTVSPropertyOp17
 70
     1
102
RTVSPropertyOp18
 70
     1
102
RTVSPropertyOp19
 70
     1
102
RTVSPropertyOp20
 70
     1
102
RTVSPropertyOp21
 70
     1
102
RTVSPropertyOp22
 70
     1
102
RTVSPropertyOp23
 70
     1
102
RTVSPropertyOp24
 70
     1
102
RTVSPropertyOp25
 70
     1
102
RTVSPropertyOp26
 70
     1
102
RTVSPropertyOp27
 70
     1
102
RTVSPropertyOp28
 70
     1
102
RTVSPropertyOp29
 70
     1
102
RTVSPropertyOp30
 70
     1
102
RTVSPropertyOp31
 70
     1
102
RTVSPropertyOp32
 70
     1
102
RTVSPropertyOp33
 70
     1
102
RTVSPropertyOp34
 70
     1
102
RTVSPropertyOp35
 70
     1
102
RTVSPropertyOp36
 70
     1
102
RTVSPropertyOp37
 70
     1
102
RTVSPropertyOp38
 70
     1
102
RTVSPropertyOp39
 70
     1
102
RTVSPropertyOp40
 70
     1
102
RTVSPropertyOp41
 70
     1
102
RTVSPropertyOp42
 70
     1
102
RTVSPropertyOp43
 70
     1
102
RTVSPropertyOp44
 70
     1
102
RTVSPropertyOp45
 70
     1
102
RTVSPropertyOp46
 70
     1
102
RTVSPropertyOp47
 70
     1
102
RTVSPropertyOp48
 70
     1
102
RTVSPropertyOp49
 70
     1
102
RTVSPropertyOp50
 70
     1
102
RTVSPropertyOp51
 70
     0
102
RTVSPropertyOp52
 70
     0
102
RTVSPropertyOp53
 70
     1
102
RTVSPropertyOp54
 70
     1
102
RTVSPropertyOp55
 70
     1
102
RTVSPropertyOp56
 70
     1
102
RTVSPropertyOp57
 70
     1
102
RTVSPost2010Prop28
280
     0
102
RTVSPost2010PropOp28
 70
     1
102
RTVSPost2010Prop29
280
     1
102
RTVSPost2010PropOp29
 70
     1
102
RTVSPost2010Prop30
280
     1
102
RTVSPost2010PropOp30
 70
     1
102
RTVSPost2010Prop31
280
     0
102
RTVSPost2010PropOp31
 70
     1
102
RTVSPost2010Prop32
280
     0
102
RTVSPost2010PropOp32
 70
     1
102
RTVSPost2010Prop33
280
     0
102
RTVSPost2010PropOp33
 70
     1
102
RTVSPost2010Prop34
280
     0
102
RTVSPost2010PropOp34
 70
     1
102
RTVSPost2010Prop35
280
     0
102
RTVSPost2010PropOp35
 70
     1
102
RTVSPost2010Prop36
280
     0
102
RTVSPost2010PropOp36
 70
     1
102
RTVSPost2010Prop37
 90
       50
102
RTVSPost2010PropOp37
 70
     1
102
RTVSPost2010Prop38
140
0.0
102
RTVSPost2010PropOp38
 70
     1
102
RTVSPost2010Prop39
140
1.0
102
RTVSPost2010PropOp39
 70
     1
102
RTVSPost2010Prop40
 90
        0
102
RTVSPost2010PropOp40
 70
     1
102
RTVSPost2010Prop41ColorIndex
 90
       18
102
RTVSPost2010Prop41ColorRGB
 90
        0
102
RTVSPost2010PropOp41
 70
     1
102
RTVSPost2010Prop42
 90
       50
102
RTVSPost2010PropOp42
 70
     1
102
RTVSPost2010Prop43
 90
        3
102
RTVSPost2010PropOp43
 70
     1
102
RTVSPost2010Prop44ColorIndex
 90
        5
102
RTVSPost2010Prop44ColorRGB
 90
      255
102
RTVSPost2010PropOp44
 70
     1
102
RTVSPost2010Prop45
280
     0
102
RTVSPost2010PropOp45
 70
     1
102
RTVSPost2010Prop46
 90
       50
102
RTVSPost2010PropOp46
 70
     1
102
RTVSPost2010Prop47
 90
       50
102
RTVSPost2010PropOp47
 70
     1
102
RTVSPost2010Prop48
 90
       50
102
RTVSPost2010PropOp48
 70
     1
102
RTVSPost2010Prop49
280
     0
102
RTVSPost2010PropOp49
 70
     1
102
RTVSPost2010Prop50
 90
       50
102
RTVSPost2010PropOp50
 70
     1
102
RTVSPost2010Prop51ColorIndex
 90
      256
102
RTVSPost2010Prop51ColorRGB
 90
-16777216
102
RTVSPost2010PropOp51
 70
     0
102
RTVSPost2010Prop52
140
1.0
102
RTVSPost2010PropOp52
 70
     0
102
RTVSPost2010Prop53
 90
        2
102
RTVSPost2010PropOp53
 70
     1
102
RTVSPost2010Prop54
  1
strokes_ogs.tif
102
RTVSPost2010PropOp54
 70
     1
102
RTVSPost2010Prop55
280
     0
102
RTVSPost2010PropOp55
 70
     1
102
RTVSPost2010Prop56
140
1.0
102
RTVSPost2010PropOp56
 70
     1
102
RTVSPost2010Prop57
140
1.0
102
RTVSPost2010PropOp57
 70
     1
  0
XRECORD
  5
33A
102
{ACAD_REACTORS
330
339
102
}
330
339
100
AcDbXrecord
280
     1
102
RTVSPropertyOp0
 70
     1
102
RTVSPropertyOp1
 70
     1
102
RTVSPropertyOp2
 70
     1
102
RTVSPropertyOp3
 70
     1
102
RTVSPropertyOp4
 70
     1
102
RTVSPropertyOp5
 70
     1
102
RTVSPropertyOp6
 70
     1
102
RTVSPropertyOp7
 70
     1
102
RTVSPropertyOp8
 70
     1
102
RTVSPropertyOp9
 70
     1
102
RTVSPropertyOp10
 70
     1
102
RTVSPropertyOp11
 70
     1
102
RTVSPropertyOp12
 70
     1
102
RTVSPropertyOp13
 70
     1
102
RTVSPropertyOp14
 70
     1
102
RTVSPropertyOp15
 70
     1
102
RTVSPropertyOp16
 70
     1
102
RTVSPropertyOp17
 70
     1
102
RTVSPropertyOp18
 70
     1
102
RTVSPropertyOp19
 70
     1
102
RTVSPropertyOp20
 70
     1
102
RTVSPropertyOp21
 70
     1
102
RTVSPropertyOp22
 70
     1
102
RTVSPropertyOp23
 70
     1
102
RTVSPropertyOp24
 70
     1
102
RTVSPropertyOp25
 70
     1
102
RTVSPropertyOp26
 70
     1
102
RTVSPropertyOp27
 70
     1
102
RTVSPropertyOp28
 70
     1
102
RTVSPropertyOp29
 70
     1
102
RTVSPropertyOp30
 70
     1
102
RTVSPropertyOp31
 70
     1
102
RTVSPropertyOp32
 70
     1
102
RTVSPropertyOp33
 70
     1
102
RTVSPropertyOp34
 70
     1
102
RTVSPropertyOp35
 70
     1
102
RTVSPropertyOp36
 70
     1
102
RTVSPropertyOp37
 70
     1
102
RTVSPropertyOp38
 70
     1
102
RTVSPropertyOp39
 70
     1
102
RTVSPropertyOp40
 70
     1
102
RTVSPropertyOp41
 70
     1
102
RTVSPropertyOp42
 70
     1
102
RTVSPropertyOp43
 70
     1
102
RTVSPropertyOp44
 70
     1
102
RTVSPropertyOp45
 70
     1
102
RTVSPropertyOp46
 70
     1
102
RTVSPropertyOp47
 70
     1
102
RTVSPropertyOp48
 70
     1
102
RTVSPropertyOp49
 70
     1
102
RTVSPropertyOp50
 70
     1
102
RTVSPropertyOp51
 70
     0
102
RTVSPropertyOp52
 70
     0
102
RTVSPropertyOp53
 70
     1
102
RTVSPropertyOp54
 70
     1
102
RTVSPropertyOp55
 70
     1
102
RTVSPropertyOp56
 70
     1
102
RTVSPropertyOp57
 70
     1
102
RTVSPost2010Prop28
280
     0
102
RTVSPost2010PropOp28
 70
     1
102
RTVSPost2010Prop29
280
     1
102
RTVSPost2010PropOp29
 70
     1
102
RTVSPost2010Prop30
280
     1
102
RTVSPost2010PropOp30
 70
     1
102
RTVSPost2010Prop31
280
     0
102
RTVSPost2010PropOp31
 70
     1
102
RTVSPost2010Prop32
280
     0
102
RTVSPost2010PropOp32
 70
     1
102
RTVSPost2010Prop33
280
     0
102
RTVSPost2010PropOp33
 70
     1
102
RTVSPost2010Prop34
280
     0
102
RTVSPost2010PropOp34
 70
     1
102
RTVSPost2010Prop35
280
     0
102
RTVSPost2010PropOp35
 70
     1
102
RTVSPost2010Prop36
280
     0
102
RTVSPost2010PropOp36
 70
     1
102
RTVSPost2010Prop37
 90
       50
102
RTVSPost2010PropOp37
 70
     1
102
RTVSPost2010Prop38
140
0.0
102
RTVSPost2010PropOp38
 70
     1
102
RTVSPost2010Prop39
140
1.0
102
RTVSPost2010PropOp39
 70
     1
102
RTVSPost2010Prop40
 90
        0
102
RTVSPost2010PropOp40
 70
     1
102
RTVSPost2010Prop41ColorIndex
 90
       18
102
RTVSPost2010Prop41ColorRGB
 90
        0
102
RTVSPost2010PropOp41
 70
     1
102
RTVSPost2010Prop42
 90
       50
102
RTVSPost2010PropOp42
 70
     1
102
RTVSPost2010Prop43
 90
        3
102
RTVSPost2010PropOp43
 70
     1
102
RTVSPost2010Prop44ColorIndex
 90
        5
102
RTVSPost2010Prop44ColorRGB
 90
      255
102
RTVSPost2010PropOp44
 70
     1
102
RTVSPost2010Prop45
280
     0
102
RTVSPost2010PropOp45
 70
     1
102
RTVSPost2010Prop46
 90
       50
102
RTVSPost2010PropOp46
 70
     1
102
RTVSPost2010Prop47
 90
       50
102
RTVSPost2010PropOp47
 70
     1
102
RTVSPost2010Prop48
 90
       50
102
RTVSPost2010PropOp48
 70
     1
102
RTVSPost2010Prop49
280
     0
102
RTVSPost2010PropOp49
 70
     1
102
RTVSPost2010Prop50
 90
       50
102
RTVSPost2010PropOp50
 70
     1
102
RTVSPost2010Prop51ColorIndex
 90
      256
102
RTVSPost2010Prop51ColorRGB
 90
-16777216
102
RTVSPost2010PropOp51
 70
     0
102
RTVSPost2010Prop52
140
1.0
102
RTVSPost2010PropOp52
 70
     0
102
RTVSPost2010Prop53
 90
        2
102
RTVSPost2010PropOp53
 70
     1
102
RTVSPost2010Prop54
  1
strokes_ogs.tif
102
RTVSPost2010PropOp54
 70
     1
102
RTVSPost2010Prop55
280
     0
102
RTVSPost2010PropOp55
 70
     1
102
RTVSPost2010Prop56
140
1.0
102
RTVSPost2010PropOp56
 70
     1
102
RTVSPost2010Prop57
140
1.0
102
RTVSPost2010PropOp57
 70
     1
  0
XRECORD
  5
340
102
{ACAD_REACTORS
330
33F
102
}
330
33F
100
AcDbXrecord
280
     1
102
RTVSPropertyOp0
 70
     1
102
RTVSPropertyOp1
 70
     1
102
RTVSPropertyOp2
 70
     1
102
RTVSPropertyOp3
 70
     1
102
RTVSPropertyOp4
 70
     1
102
RTVSPropertyOp5
 70
     1
102
RTVSPropertyOp6
 70
     1
102
RTVSPropertyOp7
 70
     1
102
RTVSPropertyOp8
 70
     1
102
RTVSPropertyOp9
 70
     1
102
RTVSPropertyOp10
 70
     1
102
RTVSPropertyOp11
 70
     1
102
RTVSPropertyOp12
 70
     1
102
RTVSPropertyOp13
 70
     1
102
RTVSPropertyOp14
 70
     1
102
RTVSPropertyOp15
 70
     1
102
RTVSPropertyOp16
 70
     1
102
RTVSPropertyOp17
 70
     1
102
RTVSPropertyOp18
 70
     1
102
RTVSPropertyOp19
 70
     1
102
RTVSPropertyOp20
 70
     1
102
RTVSPropertyOp21
 70
     1
102
RTVSPropertyOp22
 70
     1
102
RTVSPropertyOp23
 70
     1
102
RTVSPropertyOp24
 70
     1
102
RTVSPropertyOp25
 70
     1
102
RTVSPropertyOp26
 70
     1
102
RTVSPropertyOp27
 70
     1
102
RTVSPropertyOp28
 70
     1
102
RTVSPropertyOp29
 70
     1
102
RTVSPropertyOp30
 70
     1
102
RTVSPropertyOp31
 70
     1
102
RTVSPropertyOp32
 70
     1
102
RTVSPropertyOp33
 70
     1
102
RTVSPropertyOp34
 70
     1
102
RTVSPropertyOp35
 70
     1
102
RTVSPropertyOp36
 70
     1
102
RTVSPropertyOp37
 70
     1
102
RTVSPropertyOp38
 70
     1
102
RTVSPropertyOp39
 70
     1
102
RTVSPropertyOp40
 70
     1
102
RTVSPropertyOp41
 70
     1
102
RTVSPropertyOp42
 70
     1
102
RTVSPropertyOp43
 70
     1
102
RTVSPropertyOp44
 70
     1
102
RTVSPropertyOp45
 70
     1
102
RTVSPropertyOp46
 70
     1
102
RTVSPropertyOp47
 70
     1
102
RTVSPropertyOp48
 70
     1
102
RTVSPropertyOp49
 70
     1
102
RTVSPropertyOp50
 70
     1
102
RTVSPropertyOp51
 70
     0
102
RTVSPropertyOp52
 70
     0
102
RTVSPropertyOp53
 70
     1
102
RTVSPropertyOp54
 70
     1
102
RTVSPropertyOp55
 70
     1
102
RTVSPropertyOp56
 70
     1
102
RTVSPropertyOp57
 70
     1
102
RTVSPost2010Prop28
280
     0
102
RTVSPost2010PropOp28
 70
     1
102
RTVSPost2010Prop29
280
     1
102
RTVSPost2010PropOp29
 70
     1
102
RTVSPost2010Prop30
280
     1
102
RTVSPost2010PropOp30
 70
     1
102
RTVSPost2010Prop31
280
     0
102
RTVSPost2010PropOp31
 70
     1
102
RTVSPost2010Prop32
280
     0
102
RTVSPost2010PropOp32
 70
     1
102
RTVSPost2010Prop33
280
     0
102
RTVSPost2010PropOp33
 70
     1
102
RTVSPost2010Prop34
280
     0
102
RTVSPost2010PropOp34
 70
     1
102
RTVSPost2010Prop35
280
     0
102
RTVSPost2010PropOp35
 70
     1
102
RTVSPost2010Prop36
280
     0
102
RTVSPost2010PropOp36
 70
     1
102
RTVSPost2010Prop37
 90
       50
102
RTVSPost2010PropOp37
 70
     1
102
RTVSPost2010Prop38
140
0.0
102
RTVSPost2010PropOp38
 70
     1
102
RTVSPost2010Prop39
140
1.0
102
RTVSPost2010PropOp39
 70
     1
102
RTVSPost2010Prop40
 90
        0
102
RTVSPost2010PropOp40
 70
     1
102
RTVSPost2010Prop41ColorIndex
 90
       18
102
RTVSPost2010Prop41ColorRGB
 90
        0
102
RTVSPost2010PropOp41
 70
     1
102
RTVSPost2010Prop42
 90
       50
102
RTVSPost2010PropOp42
 70
     1
102
RTVSPost2010Prop43
 90
        3
102
RTVSPost2010PropOp43
 70
     1
102
RTVSPost2010Prop44ColorIndex
 90
        5
102
RTVSPost2010Prop44ColorRGB
 90
      255
102
RTVSPost2010PropOp44
 70
     1
102
RTVSPost2010Prop45
280
     0
102
RTVSPost2010PropOp45
 70
     1
102
RTVSPost2010Prop46
 90
       50
102
RTVSPost2010PropOp46
 70
     1
102
RTVSPost2010Prop47
 90
       50
102
RTVSPost2010PropOp47
 70
     1
102
RTVSPost2010Prop48
 90
       50
102
RTVSPost2010PropOp48
 70
     1
102
RTVSPost2010Prop49
280
     0
102
RTVSPost2010PropOp49
 70
     1
102
RTVSPost2010Prop50
 90
       50
102
RTVSPost2010PropOp50
 70
     1
102
RTVSPost2010Prop51ColorIndex
 90
      256
102
RTVSPost2010Prop51ColorRGB
 90
-16777216
102
RTVSPost2010PropOp51
 70
     0
102
RTVSPost2010Prop52
140
1.0
102
RTVSPost2010PropOp52
 70
     0
102
RTVSPost2010Prop53
 90
        2
102
RTVSPost2010PropOp53
 70
     1
102
RTVSPost2010Prop54
  1
strokes_ogs.tif
102
RTVSPost2010PropOp54
 70
     1
102
RTVSPost2010Prop55
280
     0
102
RTVSPost2010PropOp55
 70
     1
102
RTVSPost2010Prop56
140
1.0
102
RTVSPost2010PropOp56
 70
     1
102
RTVSPost2010Prop57
140
1.0
102
RTVSPost2010PropOp57
 70
     1
  0
XRECORD
  5
354
102
{ACAD_REACTORS
330
353
102
}
330
353
100
AcDbXrecord
280
     1
102
RTVSPropertyOp0
 70
     0
102
RTVSPropertyOp1
 70
     0
102
RTVSPropertyOp2
 70
     0
102
RTVSPropertyOp3
 70
     0
102
RTVSPropertyOp4
 70
     0
102
RTVSPropertyOp5
 70
     0
102
RTVSPropertyOp6
 70
     0
102
RTVSPropertyOp7
 70
     0
102
RTVSPropertyOp8
 70
     0
102
RTVSPropertyOp9
 70
     0
102
RTVSPropertyOp10
 70
     0
102
RTVSPropertyOp11
 70
     0
102
RTVSPropertyOp12
 70
     0
102
RTVSPropertyOp13
 70
     0
102
RTVSPropertyOp14
 70
     2
102
RTVSPropertyOp15
 70
     0
102
RTVSPropertyOp16
 70
     0
102
RTVSPropertyOp17
 70
     0
102
RTVSPropertyOp18
 70
     0
102
RTVSPropertyOp19
 70
     0
102
RTVSPropertyOp20
 70
     0
102
RTVSPropertyOp21
 70
     0
102
RTVSPropertyOp22
 70
     0
102
RTVSPropertyOp23
 70
     0
102
RTVSPropertyOp24
 70
     0
102
RTVSPropertyOp25
 70
     0
102
RTVSPropertyOp26
 70
     0
102
RTVSPropertyOp27
 70
     0
102
RTVSPropertyOp28
 70
     0
102
RTVSPropertyOp29
 70
     0
102
RTVSPropertyOp30
 70
     0
102
RTVSPropertyOp31
 70
     0
102
RTVSPropertyOp32
 70
     0
102
RTVSPropertyOp33
 70
     0
102
RTVSPropertyOp34
 70
     0
102
RTVSPropertyOp35
 70
     0
102
RTVSPropertyOp36
 70
     0
102
RTVSPropertyOp37
 70
     0
102
RTVSPropertyOp38
 70
     0
102
RTVSPropertyOp39
 70
     0
102
RTVSPropertyOp40
 70
     0
102
RTVSPropertyOp41
 70
     0
102
RTVSPropertyOp42
 70
     0
102
RTVSPropertyOp43
 70
     0
102
RTVSPropertyOp44
 70
     0
102
RTVSPropertyOp45
 70
     0
102
RTVSPropertyOp46
 70
     0
102
RTVSPropertyOp47
 70
     0
102
RTVSPropertyOp48
 70
     0
102
RTVSPropertyOp49
 70
     0
102
RTVSPropertyOp50
 70
     0
102
RTVSPropertyOp51
 70
     0
102
RTVSPropertyOp52
 70
     0
102
RTVSPropertyOp53
 70
     0
102
RTVSPropertyOp54
 70
     0
102
RTVSPropertyOp55
 70
     0
102
RTVSPropertyOp56
 70
     0
102
RTVSPropertyOp57
 70
     0
102
RTVSPost2010Prop28
280
     0
102
RTVSPost2010PropOp28
 70
     0
102
RTVSPost2010Prop29
280
     1
102
RTVSPost2010PropOp29
 70
     0
102
RTVSPost2010Prop30
280
     1
102
RTVSPost2010PropOp30
 70
     0
102
RTVSPost2010Prop31
280
     0
102
RTVSPost2010PropOp31
 70
     0
102
RTVSPost2010Prop32
280
     0
102
RTVSPost2010PropOp32
 70
     0
102
RTVSPost2010Prop33
280
     0
102
RTVSPost2010PropOp33
 70
     0
102
RTVSPost2010Prop34
280
     0
102
RTVSPost2010PropOp34
 70
     0
102
RTVSPost2010Prop35
280
     0
102
RTVSPost2010PropOp35
 70
     0
102
RTVSPost2010Prop36
280
     0
102
RTVSPost2010PropOp36
 70
     0
102
RTVSPost2010Prop37
 90
       50
102
RTVSPost2010PropOp37
 70
     0
102
RTVSPost2010Prop38
140
0.0
102
RTVSPost2010PropOp38
 70
     0
102
RTVSPost2010Prop39
140
1.0
102
RTVSPost2010PropOp39
 70
     0
102
RTVSPost2010Prop40
 90
        0
102
RTVSPost2010PropOp40
 70
     0
102
RTVSPost2010Prop41ColorIndex
 90
       18
102
RTVSPost2010Prop41ColorRGB
 90
        0
102
RTVSPost2010PropOp41
 70
     0
102
RTVSPost2010Prop42
 90
       50
102
RTVSPost2010PropOp42
 70
     0
102
RTVSPost2010Prop43
 90
        3
102
RTVSPost2010PropOp43
 70
     0
102
RTVSPost2010Prop44ColorIndex
 90
        5
102
RTVSPost2010Prop44ColorRGB
 90
      255
102
RTVSPost2010PropOp44
 70
     0
102
RTVSPost2010Prop45
280
     0
102
RTVSPost2010PropOp45
 70
     0
102
RTVSPost2010Prop46
 90
       50
102
RTVSPost2010PropOp46
 70
     0
102
RTVSPost2010Prop47
 90
       50
102
RTVSPost2010PropOp47
 70
     0
102
RTVSPost2010Prop48
 90
       50
102
RTVSPost2010PropOp48
 70
     0
102
RTVSPost2010Prop49
280
     0
102
RTVSPost2010PropOp49
 70
     0
102
RTVSPost2010Prop50
 90
       50
102
RTVSPost2010PropOp50
 70
     0
102
RTVSPost2010Prop51ColorIndex
 90
      256
102
RTVSPost2010Prop51ColorRGB
 90
-16777216
102
RTVSPost2010PropOp51
 70
     0
102
RTVSPost2010Prop52
140
1.0
102
RTVSPost2010PropOp52
 70
     0
102
RTVSPost2010Prop53
 90
        2
102
RTVSPost2010PropOp53
 70
     0
102
RTVSPost2010Prop54
  1
strokes_ogs.tif
102
RTVSPost2010PropOp54
 70
     0
102
RTVSPost2010Prop55
280
     0
102
RTVSPost2010PropOp55
 70
     0
102
RTVSPost2010Prop56
140
1.0
102
RTVSPost2010PropOp56
 70
     0
102
RTVSPost2010Prop57
140
1.0
102
RTVSPost2010PropOp57
 70
     0
  0
XRECORD
  5
34E
102
{ACAD_REACTORS
330
34D
102
}
330
34D
100
AcDbXrecord
280
     1
102
RTVSPropertyOp0
 70
     1
102
RTVSPropertyOp1
 70
     1
102
RTVSPropertyOp2
 70
     1
102
RTVSPropertyOp3
 70
     1
102
RTVSPropertyOp4
 70
     1
102
RTVSPropertyOp5
 70
     1
102
RTVSPropertyOp6
 70
     1
102
RTVSPropertyOp7
 70
     1
102
RTVSPropertyOp8
 70
     1
102
RTVSPropertyOp9
 70
     1
102
RTVSPropertyOp10
 70
     1
102
RTVSPropertyOp11
 70
     1
102
RTVSPropertyOp12
 70
     1
102
RTVSPropertyOp13
 70
     1
102
RTVSPropertyOp14
 70
     1
102
RTVSPropertyOp15
 70
     1
102
RTVSPropertyOp16
 70
     1
102
RTVSPropertyOp17
 70
     1
102
RTVSPropertyOp18
 70
     1
102
RTVSPropertyOp19
 70
     1
102
RTVSPropertyOp20
 70
     1
102
RTVSPropertyOp21
 70
     1
102
RTVSPropertyOp22
 70
     1
102
RTVSPropertyOp23
 70
     1
102
RTVSPropertyOp24
 70
     1
102
RTVSPropertyOp25
 70
     1
102
RTVSPropertyOp26
 70
     1
102
RTVSPropertyOp27
 70
     1
102
RTVSPropertyOp28
 70
     1
102
RTVSPropertyOp29
 70
     1
102
RTVSPropertyOp30
 70
     1
102
RTVSPropertyOp31
 70
     1
102
RTVSPropertyOp32
 70
     1
102
RTVSPropertyOp33
 70
     1
102
RTVSPropertyOp34
 70
     1
102
RTVSPropertyOp35
 70
     1
102
RTVSPropertyOp36
 70
     1
102
RTVSPropertyOp37
 70
     1
102
RTVSPropertyOp38
 70
     1
102
RTVSPropertyOp39
 70
     1
102
RTVSPropertyOp40
 70
     1
102
RTVSPropertyOp41
 70
     1
102
RTVSPropertyOp42
 70
     1
102
RTVSPropertyOp43
 70
     1
102
RTVSPropertyOp44
 70
     1
102
RTVSPropertyOp45
 70
     1
102
RTVSPropertyOp46
 70
     1
102
RTVSPropertyOp47
 70
     1
102
RTVSPropertyOp48
 70
     1
102
RTVSPropertyOp49
 70
     1
102
RTVSPropertyOp50
 70
     1
102
RTVSPropertyOp51
 70
     0
102
RTVSPropertyOp52
 70
     0
102
RTVSPropertyOp53
 70
     1
102
RTVSPropertyOp54
 70
     1
102
RTVSPropertyOp55
 70
     1
102
RTVSPropertyOp56
 70
     1
102
RTVSPropertyOp57
 70
     1
102
RTVSPost2010Prop28
280
     0
102
RTVSPost2010PropOp28
 70
     1
102
RTVSPost2010Prop29
280
     1
102
RTVSPost2010PropOp29
 70
     1
102
RTVSPost2010Prop30
280
     1
102
RTVSPost2010PropOp30
 70
     1
102
RTVSPost2010Prop31
280
     0
102
RTVSPost2010PropOp31
 70
     1
102
RTVSPost2010Prop32
280
     0
102
RTVSPost2010PropOp32
 70
     1
102
RTVSPost2010Prop33
280
     0
102
RTVSPost2010PropOp33
 70
     1
102
RTVSPost2010Prop34
280
     0
102
RTVSPost2010PropOp34
 70
     1
102
RTVSPost2010Prop35
280
     0
102
RTVSPost2010PropOp35
 70
     1
102
RTVSPost2010Prop36
280
     0
102
RTVSPost2010PropOp36
 70
     1
102
RTVSPost2010Prop37
 90
       50
102
RTVSPost2010PropOp37
 70
     1
102
RTVSPost2010Prop38
140
0.0
102
RTVSPost2010PropOp38
 70
     1
102
RTVSPost2010Prop39
140
1.0
102
RTVSPost2010PropOp39
 70
     1
102
RTVSPost2010Prop40
 90
        0
102
RTVSPost2010PropOp40
 70
     1
102
RTVSPost2010Prop41ColorIndex
 90
       18
102
RTVSPost2010Prop41ColorRGB
 90
        0
102
RTVSPost2010PropOp41
 70
     1
102
RTVSPost2010Prop42
 90
       50
102
RTVSPost2010PropOp42
 70
     1
102
RTVSPost2010Prop43
 90
        3
102
RTVSPost2010PropOp43
 70
     1
102
RTVSPost2010Prop44ColorIndex
 90
        5
102
RTVSPost2010Prop44ColorRGB
 90
      255
102
RTVSPost2010PropOp44
 70
     1
102
RTVSPost2010Prop45
280
     0
102
RTVSPost2010PropOp45
 70
     1
102
RTVSPost2010Prop46
 90
       50
102
RTVSPost2010PropOp46
 70
     1
102
RTVSPost2010Prop47
 90
       50
102
RTVSPost2010PropOp47
 70
     1
102
RTVSPost2010Prop48
 90
       50
102
RTVSPost2010PropOp48
 70
     1
102
RTVSPost2010Prop49
280
     0
102
RTVSPost2010PropOp49
 70
     1
102
RTVSPost2010Prop50
 90
       50
102
RTVSPost2010PropOp50
 70
     1
102
RTVSPost2010Prop51ColorIndex
 90
      256
102
RTVSPost2010Prop51ColorRGB
 90
-16777216
102
RTVSPost2010PropOp51
 70
     0
102
RTVSPost2010Prop52
140
1.0
102
RTVSPost2010PropOp52
 70
     0
102
RTVSPost2010Prop53
 90
        2
102
RTVSPost2010PropOp53
 70
     1
102
RTVSPost2010Prop54
  1
strokes_ogs.tif
102
RTVSPost2010PropOp54
 70
     1
102
RTVSPost2010Prop55
280
     0
102
RTVSPost2010PropOp55
 70
     1
102
RTVSPost2010Prop56
140
1.0
102
RTVSPost2010PropOp56
 70
     1
102
RTVSPost2010Prop57
140
1.0
102
RTVSPost2010PropOp57
 70
     1
  0
XRECORD
  5
356
102
{ACAD_REACTORS
330
355
102
}
330
355
100
AcDbXrecord
280
     1
102
RTVSPropertyOp0
 70
     0
102
RTVSPropertyOp1
 70
     0
102
RTVSPropertyOp2
 70
     0
102
RTVSPropertyOp3
 70
     0
102
RTVSPropertyOp4
 70
     0
102
RTVSPropertyOp5
 70
     0
102
RTVSPropertyOp6
 70
     0
102
RTVSPropertyOp7
 70
     0
102
RTVSPropertyOp8
 70
     0
102
RTVSPropertyOp9
 70
     0
102
RTVSPropertyOp10
 70
     0
102
RTVSPropertyOp11
 70
     0
102
RTVSPropertyOp12
 70
     0
102
RTVSPropertyOp13
 70
     0
102
RTVSPropertyOp14
 70
     2
102
RTVSPropertyOp15
 70
     0
102
RTVSPropertyOp16
 70
     0
102
RTVSPropertyOp17
 70
     0
102
RTVSPropertyOp18
 70
     0
102
RTVSPropertyOp19
 70
     0
102
RTVSPropertyOp20
 70
     0
102
RTVSPropertyOp21
 70
     0
102
RTVSPropertyOp22
 70
     0
102
RTVSPropertyOp23
 70
     0
102
RTVSPropertyOp24
 70
     0
102
RTVSPropertyOp25
 70
     0
102
RTVSPropertyOp26
 70
     0
102
RTVSPropertyOp27
 70
     0
102
RTVSPropertyOp28
 70
     0
102
RTVSPropertyOp29
 70
     0
102
RTVSPropertyOp30
 70
     0
102
RTVSPropertyOp31
 70
     0
102
RTVSPropertyOp32
 70
     0
102
RTVSPropertyOp33
 70
     0
102
RTVSPropertyOp34
 70
     0
102
RTVSPropertyOp35
 70
     0
102
RTVSPropertyOp36
 70
     0
102
RTVSPropertyOp37
 70
     0
102
RTVSPropertyOp38
 70
     0
102
RTVSPropertyOp39
 70
     0
102
RTVSPropertyOp40
 70
     0
102
RTVSPropertyOp41
 70
     0
102
RTVSPropertyOp42
 70
     0
102
RTVSPropertyOp43
 70
     0
102
RTVSPropertyOp44
 70
     0
102
RTVSPropertyOp45
 70
     0
102
RTVSPropertyOp46
 70
     0
102
RTVSPropertyOp47
 70
     0
102
RTVSPropertyOp48
 70
     0
102
RTVSPropertyOp49
 70
     0
102
RTVSPropertyOp50
 70
     0
102
RTVSPropertyOp51
 70
     0
102
RTVSPropertyOp52
 70
     0
102
RTVSPropertyOp53
 70
     0
102
RTVSPropertyOp54
 70
     0
102
RTVSPropertyOp55
 70
     0
102
RTVSPropertyOp56
 70
     0
102
RTVSPropertyOp57
 70
     0
102
RTVSPost2010Prop28
280
     0
102
RTVSPost2010PropOp28
 70
     0
102
RTVSPost2010Prop29
280
     1
102
RTVSPost2010PropOp29
 70
     0
102
RTVSPost2010Prop30
280
     1
102
RTVSPost2010PropOp30
 70
     0
102
RTVSPost2010Prop31
280
     0
102
RTVSPost2010PropOp31
 70
     0
102
RTVSPost2010Prop32
280
     0
102
RTVSPost2010PropOp32
 70
     0
102
RTVSPost2010Prop33
280
     0
102
RTVSPost2010PropOp33
 70
     0
102
RTVSPost2010Prop34
280
     0
102
RTVSPost2010PropOp34
 70
     0
102
RTVSPost2010Prop35
280
     0
102
RTVSPost2010PropOp35
 70
     0
102
RTVSPost2010Prop36
280
     0
102
RTVSPost2010PropOp36
 70
     0
102
RTVSPost2010Prop37
 90
       50
102
RTVSPost2010PropOp37
 70
     0
102
RTVSPost2010Prop38
140
0.0
102
RTVSPost2010PropOp38
 70
     0
102
RTVSPost2010Prop39
140
1.0
102
RTVSPost2010PropOp39
 70
     0
102
RTVSPost2010Prop40
 90
        0
102
RTVSPost2010PropOp40
 70
     0
102
RTVSPost2010Prop41ColorIndex
 90
       18
102
RTVSPost2010Prop41ColorRGB
 90
        0
102
RTVSPost2010PropOp41
 70
     0
102
RTVSPost2010Prop42
 90
       50
102
RTVSPost2010PropOp42
 70
     0
102
RTVSPost2010Prop43
 90
        3
102
RTVSPost2010PropOp43
 70
     0
102
RTVSPost2010Prop44ColorIndex
 90
        5
102
RTVSPost2010Prop44ColorRGB
 90
      255
102
RTVSPost2010PropOp44
 70
     0
102
RTVSPost2010Prop45
280
     0
102
RTVSPost2010PropOp45
 70
     0
102
RTVSPost2010Prop46
 90
       50
102
RTVSPost2010PropOp46
 70
     0
102
RTVSPost2010Prop47
 90
       50
102
RTVSPost2010PropOp47
 70
     0
102
RTVSPost2010Prop48
 90
       50
102
RTVSPost2010PropOp48
 70
     0
102
RTVSPost2010Prop49
280
     0
102
RTVSPost2010PropOp49
 70
     0
102
RTVSPost2010Prop50
 90
       50
102
RTVSPost2010PropOp50
 70
     0
102
RTVSPost2010Prop51ColorIndex
 90
      256
102
RTVSPost2010Prop51ColorRGB
 90
-16777216
102
RTVSPost2010PropOp51
 70
     0
102
RTVSPost2010Prop52
140
1.0
102
RTVSPost2010PropOp52
 70
     0
102
RTVSPost2010Prop53
 90
        2
102
RTVSPost2010PropOp53
 70
     0
102
RTVSPost2010Prop54
  1
strokes_ogs.tif
102
RTVSPost2010PropOp54
 70
     0
102
RTVSPost2010Prop55
280
     0
102
RTVSPost2010PropOp55
 70
     0
102
RTVSPost2010Prop56
140
1.0
102
RTVSPost2010PropOp56
 70
     0
102
RTVSPost2010Prop57
140
1.0
102
RTVSPost2010PropOp57
 70
     0
  0
XRECORD
  5
344
102
{ACAD_REACTORS
330
343
102
}
330
343
100
AcDbXrecord
280
     1
102
RTVSPropertyOp0
 70
     1
102
RTVSPropertyOp1
 70
     1
102
RTVSPropertyOp2
 70
     1
102
RTVSPropertyOp3
 70
     1
102
RTVSPropertyOp4
 70
     1
102
RTVSPropertyOp5
 70
     1
102
RTVSPropertyOp6
 70
     1
102
RTVSPropertyOp7
 70
     1
102
RTVSPropertyOp8
 70
     1
102
RTVSPropertyOp9
 70
     1
102
RTVSPropertyOp10
 70
     1
102
RTVSPropertyOp11
 70
     1
102
RTVSPropertyOp12
 70
     1
102
RTVSPropertyOp13
 70
     1
102
RTVSPropertyOp14
 70
     1
102
RTVSPropertyOp15
 70
     1
102
RTVSPropertyOp16
 70
     1
102
RTVSPropertyOp17
 70
     1
102
RTVSPropertyOp18
 70
     1
102
RTVSPropertyOp19
 70
     1
102
RTVSPropertyOp20
 70
     1
102
RTVSPropertyOp21
 70
     1
102
RTVSPropertyOp22
 70
     1
102
RTVSPropertyOp23
 70
     1
102
RTVSPropertyOp24
 70
     1
102
RTVSPropertyOp25
 70
     1
102
RTVSPropertyOp26
 70
     1
102
RTVSPropertyOp27
 70
     1
102
RTVSPropertyOp28
 70
     1
102
RTVSPropertyOp29
 70
     1
102
RTVSPropertyOp30
 70
     1
102
RTVSPropertyOp31
 70
     1
102
RTVSPropertyOp32
 70
     1
102
RTVSPropertyOp33
 70
     1
102
RTVSPropertyOp34
 70
     1
102
RTVSPropertyOp35
 70
     1
102
RTVSPropertyOp36
 70
     1
102
RTVSPropertyOp37
 70
     1
102
RTVSPropertyOp38
 70
     1
102
RTVSPropertyOp39
 70
     1
102
RTVSPropertyOp40
 70
     1
102
RTVSPropertyOp41
 70
     1
102
RTVSPropertyOp42
 70
     1
102
RTVSPropertyOp43
 70
     1
102
RTVSPropertyOp44
 70
     1
102
RTVSPropertyOp45
 70
     1
102
RTVSPropertyOp46
 70
     1
102
RTVSPropertyOp47
 70
     1
102
RTVSPropertyOp48
 70
     1
102
RTVSPropertyOp49
 70
     1
102
RTVSPropertyOp50
 70
     1
102
RTVSPropertyOp51
 70
     0
102
RTVSPropertyOp52
 70
     0
102
RTVSPropertyOp53
 70
     1
102
RTVSPropertyOp54
 70
     1
102
RTVSPropertyOp55
 70
     1
102
RTVSPropertyOp56
 70
     1
102
RTVSPropertyOp57
 70
     1
102
RTVSPost2010Prop28
280
     0
102
RTVSPost2010PropOp28
 70
     1
102
RTVSPost2010Prop29
280
     1
102
RTVSPost2010PropOp29
 70
     1
102
RTVSPost2010Prop30
280
     1
102
RTVSPost2010PropOp30
 70
     1
102
RTVSPost2010Prop31
280
     0
102
RTVSPost2010PropOp31
 70
     1
102
RTVSPost2010Prop32
280
     0
102
RTVSPost2010PropOp32
 70
     1
102
RTVSPost2010Prop33
280
     0
102
RTVSPost2010PropOp33
 70
     1
102
RTVSPost2010Prop34
280
     0
102
RTVSPost2010PropOp34
 70
     1
102
RTVSPost2010Prop35
280
     0
102
RTVSPost2010PropOp35
 70
     1
102
RTVSPost2010Prop36
280
     0
102
RTVSPost2010PropOp36
 70
     1
102
RTVSPost2010Prop37
 90
       50
102
RTVSPost2010PropOp37
 70
     1
102
RTVSPost2010Prop38
140
0.0
102
RTVSPost2010PropOp38
 70
     1
102
RTVSPost2010Prop39
140
1.0
102
RTVSPost2010PropOp39
 70
     1
102
RTVSPost2010Prop40
 90
        0
102
RTVSPost2010PropOp40
 70
     1
102
RTVSPost2010Prop41ColorIndex
 90
       18
102
RTVSPost2010Prop41ColorRGB
 90
        0
102
RTVSPost2010PropOp41
 70
     1
102
RTVSPost2010Prop42
 90
       50
102
RTVSPost2010PropOp42
 70
     1
102
RTVSPost2010Prop43
 90
        3
102
RTVSPost2010PropOp43
 70
     1
102
RTVSPost2010Prop44ColorIndex
 90
        5
102
RTVSPost2010Prop44ColorRGB
 90
      255
102
RTVSPost2010PropOp44
 70
     1
102
RTVSPost2010Prop45
280
     0
102
RTVSPost2010PropOp45
 70
     1
102
RTVSPost2010Prop46
 90
       50
102
RTVSPost2010PropOp46
 70
     1
102
RTVSPost2010Prop47
 90
       50
102
RTVSPost2010PropOp47
 70
     1
102
RTVSPost2010Prop48
 90
       50
102
RTVSPost2010PropOp48
 70
     1
102
RTVSPost2010Prop49
280
     0
102
RTVSPost2010PropOp49
 70
     1
102
RTVSPost2010Prop50
 90
       50
102
RTVSPost2010PropOp50
 70
     1
102
RTVSPost2010Prop51ColorIndex
 90
      256
102
RTVSPost2010Prop51ColorRGB
 90
-16777216
102
RTVSPost2010PropOp51
 70
     0
102
RTVSPost2010Prop52
140
1.0
102
RTVSPost2010PropOp52
 70
     0
102
RTVSPost2010Prop53
 90
        2
102
RTVSPost2010PropOp53
 70
     1
102
RTVSPost2010Prop54
  1
strokes_ogs.tif
102
RTVSPost2010PropOp54
 70
     1
102
RTVSPost2010Prop55
280
     0
102
RTVSPost2010PropOp55
 70
     1
102
RTVSPost2010Prop56
140
1.0
102
RTVSPost2010PropOp56
 70
     1
102
RTVSPost2010Prop57
140
1.0
102
RTVSPost2010PropOp57
 70
     1
  0
XRECORD
  5
362
102
{ACAD_REACTORS
330
361
102
}
330
361
100
AcDbXrecord
280
     1
102
RTVSPropertyOp0
 70
     1
102
RTVSPropertyOp1
 70
     1
102
RTVSPropertyOp2
 70
     1
102
RTVSPropertyOp3
 70
     1
102
RTVSPropertyOp4
 70
     1
102
RTVSPropertyOp5
 70
     1
102
RTVSPropertyOp6
 70
     1
102
RTVSPropertyOp7
 70
     1
102
RTVSPropertyOp8
 70
     1
102
RTVSPropertyOp9
 70
     1
102
RTVSPropertyOp10
 70
     1
102
RTVSPropertyOp11
 70
     1
102
RTVSPropertyOp12
 70
     1
102
RTVSPropertyOp13
 70
     1
102
RTVSPropertyOp14
 70
     1
102
RTVSPropertyOp15
 70
     1
102
RTVSPropertyOp16
 70
     1
102
RTVSPropertyOp17
 70
     1
102
RTVSPropertyOp18
 70
     1
102
RTVSPropertyOp19
 70
     1
102
RTVSPropertyOp20
 70
     1
102
RTVSPropertyOp21
 70
     1
102
RTVSPropertyOp22
 70
     1
102
RTVSPropertyOp23
 70
     1
102
RTVSPropertyOp24
 70
     1
102
RTVSPropertyOp25
 70
     1
102
RTVSPropertyOp26
 70
     1
102
RTVSPropertyOp27
 70
     1
102
RTVSPropertyOp28
 70
     1
102
RTVSPropertyOp29
 70
     1
102
RTVSPropertyOp30
 70
     1
102
RTVSPropertyOp31
 70
     1
102
RTVSPropertyOp32
 70
     1
102
RTVSPropertyOp33
 70
     1
102
RTVSPropertyOp34
 70
     1
102
RTVSPropertyOp35
 70
     1
102
RTVSPropertyOp36
 70
     1
102
RTVSPropertyOp37
 70
     1
102
RTVSPropertyOp38
 70
     1
102
RTVSPropertyOp39
 70
     1
102
RTVSPropertyOp40
 70
     1
102
RTVSPropertyOp41
 70
     1
102
RTVSPropertyOp42
 70
     1
102
RTVSPropertyOp43
 70
     1
102
RTVSPropertyOp44
 70
     1
102
RTVSPropertyOp45
 70
     1
102
RTVSPropertyOp46
 70
     1
102
RTVSPropertyOp47
 70
     1
102
RTVSPropertyOp48
 70
     1
102
RTVSPropertyOp49
 70
     1
102
RTVSPropertyOp50
 70
     1
102
RTVSPropertyOp51
 70
     0
102
RTVSPropertyOp52
 70
     0
102
RTVSPropertyOp53
 70
     1
102
RTVSPropertyOp54
 70
     1
102
RTVSPropertyOp55
 70
     1
102
RTVSPropertyOp56
 70
     1
102
RTVSPropertyOp57
 70
     1
102
RTVSPost2010Prop28
280
     0
102
RTVSPost2010PropOp28
 70
     1
102
RTVSPost2010Prop29
280
     1
102
RTVSPost2010PropOp29
 70
     1
102
RTVSPost2010Prop30
280
     1
102
RTVSPost2010PropOp30
 70
     1
102
RTVSPost2010Prop31
280
     0
102
RTVSPost2010PropOp31
 70
     1
102
RTVSPost2010Prop32
280
     0
102
RTVSPost2010PropOp32
 70
     1
102
RTVSPost2010Prop33
280
     0
102
RTVSPost2010PropOp33
 70
     1
102
RTVSPost2010Prop34
280
     0
102
RTVSPost2010PropOp34
 70
     1
102
RTVSPost2010Prop35
280
     0
102
RTVSPost2010PropOp35
 70
     1
102
RTVSPost2010Prop36
280
     0
102
RTVSPost2010PropOp36
 70
     1
102
RTVSPost2010Prop37
 90
       50
102
RTVSPost2010PropOp37
 70
     1
102
RTVSPost2010Prop38
140
0.0
102
RTVSPost2010PropOp38
 70
     1
102
RTVSPost2010Prop39
140
1.0
102
RTVSPost2010PropOp39
 70
     1
102
RTVSPost2010Prop40
 90
        0
102
RTVSPost2010PropOp40
 70
     1
102
RTVSPost2010Prop41ColorIndex
 90
       18
102
RTVSPost2010Prop41ColorRGB
 90
        0
102
RTVSPost2010PropOp41
 70
     1
102
RTVSPost2010Prop42
 90
       50
102
RTVSPost2010PropOp42
 70
     1
102
RTVSPost2010Prop43
 90
        3
102
RTVSPost2010PropOp43
 70
     1
102
RTVSPost2010Prop44ColorIndex
 90
        5
102
RTVSPost2010Prop44ColorRGB
 90
      255
102
RTVSPost2010PropOp44
 70
     1
102
RTVSPost2010Prop45
280
     0
102
RTVSPost2010PropOp45
 70
     1
102
RTVSPost2010Prop46
 90
       50
102
RTVSPost2010PropOp46
 70
     1
102
RTVSPost2010Prop47
 90
       50
102
RTVSPost2010PropOp47
 70
     1
102
RTVSPost2010Prop48
 90
       50
102
RTVSPost2010PropOp48
 70
     1
102
RTVSPost2010Prop49
280
     0
102
RTVSPost2010PropOp49
 70
     1
102
RTVSPost2010Prop50
 90
       50
102
RTVSPost2010PropOp50
 70
     1
102
RTVSPost2010Prop51ColorIndex
 90
      256
102
RTVSPost2010Prop51ColorRGB
 90
-16777216
102
RTVSPost2010PropOp51
 70
     0
102
RTVSPost2010Prop52
140
1.0
102
RTVSPost2010PropOp52
 70
     0
102
RTVSPost2010Prop53
 90
        2
102
RTVSPost2010PropOp53
 70
     1
102
RTVSPost2010Prop54
  1
strokes_ogs.tif
102
RTVSPost2010PropOp54
 70
     1
102
RTVSPost2010Prop55
280
     0
102
RTVSPost2010PropOp55
 70
     1
102
RTVSPost2010Prop56
140
1.0
102
RTVSPost2010PropOp56
 70
     1
102
RTVSPost2010Prop57
140
1.0
102
RTVSPost2010PropOp57
 70
     1
  0
XRECORD
  5
360
102
{ACAD_REACTORS
330
35F
102
}
330
35F
100
AcDbXrecord
280
     1
102
RTVSPropertyOp0
 70
     1
102
RTVSPropertyOp1
 70
     1
102
RTVSPropertyOp2
 70
     1
102
RTVSPropertyOp3
 70
     1
102
RTVSPropertyOp4
 70
     1
102
RTVSPropertyOp5
 70
     1
102
RTVSPropertyOp6
 70
     1
102
RTVSPropertyOp7
 70
     1
102
RTVSPropertyOp8
 70
     1
102
RTVSPropertyOp9
 70
     1
102
RTVSPropertyOp10
 70
     1
102
RTVSPropertyOp11
 70
     1
102
RTVSPropertyOp12
 70
     1
102
RTVSPropertyOp13
 70
     1
102
RTVSPropertyOp14
 70
     1
102
RTVSPropertyOp15
 70
     1
102
RTVSPropertyOp16
 70
     1
102
RTVSPropertyOp17
 70
     1
102
RTVSPropertyOp18
 70
     1
102
RTVSPropertyOp19
 70
     1
102
RTVSPropertyOp20
 70
     1
102
RTVSPropertyOp21
 70
     1
102
RTVSPropertyOp22
 70
     1
102
RTVSPropertyOp23
 70
     1
102
RTVSPropertyOp24
 70
     1
102
RTVSPropertyOp25
 70
     1
102
RTVSPropertyOp26
 70
     1
102
RTVSPropertyOp27
 70
     1
102
RTVSPropertyOp28
 70
     1
102
RTVSPropertyOp29
 70
     1
102
RTVSPropertyOp30
 70
     1
102
RTVSPropertyOp31
 70
     1
102
RTVSPropertyOp32
 70
     1
102
RTVSPropertyOp33
 70
     1
102
RTVSPropertyOp34
 70
     1
102
RTVSPropertyOp35
 70
     1
102
RTVSPropertyOp36
 70
     1
102
RTVSPropertyOp37
 70
     1
102
RTVSPropertyOp38
 70
     1
102
RTVSPropertyOp39
 70
     1
102
RTVSPropertyOp40
 70
     1
102
RTVSPropertyOp41
 70
     1
102
RTVSPropertyOp42
 70
     1
102
RTVSPropertyOp43
 70
     1
102
RTVSPropertyOp44
 70
     1
102
RTVSPropertyOp45
 70
     1
102
RTVSPropertyOp46
 70
     1
102
RTVSPropertyOp47
 70
     1
102
RTVSPropertyOp48
 70
     1
102
RTVSPropertyOp49
 70
     1
102
RTVSPropertyOp50
 70
     1
102
RTVSPropertyOp51
 70
     0
102
RTVSPropertyOp52
 70
     0
102
RTVSPropertyOp53
 70
     1
102
RTVSPropertyOp54
 70
     1
102
RTVSPropertyOp55
 70
     1
102
RTVSPropertyOp56
 70
     1
102
RTVSPropertyOp57
 70
     1
102
RTVSPost2010Prop28
280
     0
102
RTVSPost2010PropOp28
 70
     1
102
RTVSPost2010Prop29
280
     1
102
RTVSPost2010PropOp29
 70
     1
102
RTVSPost2010Prop30
280
     1
102
RTVSPost2010PropOp30
 70
     1
102
RTVSPost2010Prop31
280
     0
102
RTVSPost2010PropOp31
 70
     1
102
RTVSPost2010Prop32
280
     0
102
RTVSPost2010PropOp32
 70
     1
102
RTVSPost2010Prop33
280
     0
102
RTVSPost2010PropOp33
 70
     1
102
RTVSPost2010Prop34
280
     0
102
RTVSPost2010PropOp34
 70
     1
102
RTVSPost2010Prop35
280
     0
102
RTVSPost2010PropOp35
 70
     1
102
RTVSPost2010Prop36
280
     0
102
RTVSPost2010PropOp36
 70
     1
102
RTVSPost2010Prop37
 90
       50
102
RTVSPost2010PropOp37
 70
     1
102
RTVSPost2010Prop38
140
0.0
102
RTVSPost2010PropOp38
 70
     1
102
RTVSPost2010Prop39
140
1.0
102
RTVSPost2010PropOp39
 70
     1
102
RTVSPost2010Prop40
 90
        0
102
RTVSPost2010PropOp40
 70
     1
102
RTVSPost2010Prop41ColorIndex
 90
       18
102
RTVSPost2010Prop41ColorRGB
 90
        0
102
RTVSPost2010PropOp41
 70
     1
102
RTVSPost2010Prop42
 90
       50
102
RTVSPost2010PropOp42
 70
     1
102
RTVSPost2010Prop43
 90
        3
102
RTVSPost2010PropOp43
 70
     1
102
RTVSPost2010Prop44ColorIndex
 90
        5
102
RTVSPost2010Prop44ColorRGB
 90
      255
102
RTVSPost2010PropOp44
 70
     1
102
RTVSPost2010Prop45
280
     0
102
RTVSPost2010PropOp45
 70
     1
102
RTVSPost2010Prop46
 90
       50
102
RTVSPost2010PropOp46
 70
     1
102
RTVSPost2010Prop47
 90
       50
102
RTVSPost2010PropOp47
 70
     1
102
RTVSPost2010Prop48
 90
       50
102
RTVSPost2010PropOp48
 70
     1
102
RTVSPost2010Prop49
280
     0
102
RTVSPost2010PropOp49
 70
     1
102
RTVSPost2010Prop50
 90
       50
102
RTVSPost2010PropOp50
 70
     1
102
RTVSPost2010Prop51ColorIndex
 90
      256
102
RTVSPost2010Prop51ColorRGB
 90
-16777216
102
RTVSPost2010PropOp51
 70
     0
102
RTVSPost2010Prop52
140
1.0
102
RTVSPost2010PropOp52
 70
     0
102
RTVSPost2010Prop53
 90
        2
102
RTVSPost2010PropOp53
 70
     1
102
RTVSPost2010Prop54
  1
strokes_ogs.tif
102
RTVSPost2010PropOp54
 70
     1
102
RTVSPost2010Prop55
280
     0
102
RTVSPost2010PropOp55
 70
     1
102
RTVSPost2010Prop56
140
1.0
102
RTVSPost2010PropOp56
 70
     1
102
RTVSPost2010Prop57
140
1.0
102
RTVSPost2010PropOp57
 70
     1
  0
XRECORD
  5
35A
102
{ACAD_REACTORS
330
359
102
}
330
359
100
AcDbXrecord
280
     1
102
RTVSPropertyOp0
 70
     1
102
RTVSPropertyOp1
 70
     1
102
RTVSPropertyOp2
 70
     1
102
RTVSPropertyOp3
 70
     1
102
RTVSPropertyOp4
 70
     1
102
RTVSPropertyOp5
 70
     1
102
RTVSPropertyOp6
 70
     1
102
RTVSPropertyOp7
 70
     1
102
RTVSPropertyOp8
 70
     1
102
RTVSPropertyOp9
 70
     1
102
RTVSPropertyOp10
 70
     1
102
RTVSPropertyOp11
 70
     1
102
RTVSPropertyOp12
 70
     1
102
RTVSPropertyOp13
 70
     1
102
RTVSPropertyOp14
 70
     1
102
RTVSPropertyOp15
 70
     1
102
RTVSPropertyOp16
 70
     1
102
RTVSPropertyOp17
 70
     1
102
RTVSPropertyOp18
 70
     1
102
RTVSPropertyOp19
 70
     1
102
RTVSPropertyOp20
 70
     1
102
RTVSPropertyOp21
 70
     1
102
RTVSPropertyOp22
 70
     1
102
RTVSPropertyOp23
 70
     1
102
RTVSPropertyOp24
 70
     1
102
RTVSPropertyOp25
 70
     1
102
RTVSPropertyOp26
 70
     1
102
RTVSPropertyOp27
 70
     1
102
RTVSPropertyOp28
 70
     1
102
RTVSPropertyOp29
 70
     1
102
RTVSPropertyOp30
 70
     1
102
RTVSPropertyOp31
 70
     1
102
RTVSPropertyOp32
 70
     1
102
RTVSPropertyOp33
 70
     1
102
RTVSPropertyOp34
 70
     1
102
RTVSPropertyOp35
 70
     1
102
RTVSPropertyOp36
 70
     1
102
RTVSPropertyOp37
 70
     1
102
RTVSPropertyOp38
 70
     1
102
RTVSPropertyOp39
 70
     1
102
RTVSPropertyOp40
 70
     1
102
RTVSPropertyOp41
 70
     1
102
RTVSPropertyOp42
 70
     1
102
RTVSPropertyOp43
 70
     1
102
RTVSPropertyOp44
 70
     1
102
RTVSPropertyOp45
 70
     1
102
RTVSPropertyOp46
 70
     1
102
RTVSPropertyOp47
 70
     1
102
RTVSPropertyOp48
 70
     1
102
RTVSPropertyOp49
 70
     1
102
RTVSPropertyOp50
 70
     1
102
RTVSPropertyOp51
 70
     0
102
RTVSPropertyOp52
 70
     0
102
RTVSPropertyOp53
 70
     1
102
RTVSPropertyOp54
 70
     1
102
RTVSPropertyOp55
 70
     1
102
RTVSPropertyOp56
 70
     1
102
RTVSPropertyOp57
 70
     1
102
RTVSPost2010Prop28
280
     0
102
RTVSPost2010PropOp28
 70
     1
102
RTVSPost2010Prop29
280
     1
102
RTVSPost2010PropOp29
 70
     1
102
RTVSPost2010Prop30
280
     1
102
RTVSPost2010PropOp30
 70
     1
102
RTVSPost2010Prop31
280
     0
102
RTVSPost2010PropOp31
 70
     1
102
RTVSPost2010Prop32
280
     0
102
RTVSPost2010PropOp32
 70
     1
102
RTVSPost2010Prop33
280
     0
102
RTVSPost2010PropOp33
 70
     1
102
RTVSPost2010Prop34
280
     0
102
RTVSPost2010PropOp34
 70
     1
102
RTVSPost2010Prop35
280
     0
102
RTVSPost2010PropOp35
 70
     1
102
RTVSPost2010Prop36
280
     0
102
RTVSPost2010PropOp36
 70
     1
102
RTVSPost2010Prop37
 90
       50
102
RTVSPost2010PropOp37
 70
     1
102
RTVSPost2010Prop38
140
0.0
102
RTVSPost2010PropOp38
 70
     1
102
RTVSPost2010Prop39
140
1.0
102
RTVSPost2010PropOp39
 70
     1
102
RTVSPost2010Prop40
 90
        0
102
RTVSPost2010PropOp40
 70
     1
102
RTVSPost2010Prop41ColorIndex
 90
       18
102
RTVSPost2010Prop41ColorRGB
 90
        0
102
RTVSPost2010PropOp41
 70
     1
102
RTVSPost2010Prop42
 90
       50
102
RTVSPost2010PropOp42
 70
     1
102
RTVSPost2010Prop43
 90
        3
102
RTVSPost2010PropOp43
 70
     1
102
RTVSPost2010Prop44ColorIndex
 90
        5
102
RTVSPost2010Prop44ColorRGB
 90
      255
102
RTVSPost2010PropOp44
 70
     1
102
RTVSPost2010Prop45
280
     0
102
RTVSPost2010PropOp45
 70
     1
102
RTVSPost2010Prop46
 90
       50
102
RTVSPost2010PropOp46
 70
     1
102
RTVSPost2010Prop47
 90
       50
102
RTVSPost2010PropOp47
 70
     1
102
RTVSPost2010Prop48
 90
       50
102
RTVSPost2010PropOp48
 70
     1
102
RTVSPost2010Prop49
280
     0
102
RTVSPost2010PropOp49
 70
     1
102
RTVSPost2010Prop50
 90
       50
102
RTVSPost2010PropOp50
 70
     1
102
RTVSPost2010Prop51ColorIndex
 90
      256
102
RTVSPost2010Prop51ColorRGB
 90
-16777216
102
RTVSPost2010PropOp51
 70
     0
102
RTVSPost2010Prop52
140
1.0
102
RTVSPost2010PropOp52
 70
     0
102
RTVSPost2010Prop53
 90
        2
102
RTVSPost2010PropOp53
 70
     1
102
RTVSPost2010Prop54
  1
strokes_ogs.tif
102
RTVSPost2010PropOp54
 70
     1
102
RTVSPost2010Prop55
280
     0
102
RTVSPost2010PropOp55
 70
     1
102
RTVSPost2010Prop56
140
1.0
102
RTVSPost2010PropOp56
 70
     1
102
RTVSPost2010Prop57
140
1.0
102
RTVSPost2010PropOp57
 70
     1
  0
XRECORD
  5
35C
102
{ACAD_REACTORS
330
35B
102
}
330
35B
100
AcDbXrecord
280
     1
102
RTVSPropertyOp0
 70
     1
102
RTVSPropertyOp1
 70
     1
102
RTVSPropertyOp2
 70
     1
102
RTVSPropertyOp3
 70
     1
102
RTVSPropertyOp4
 70
     1
102
RTVSPropertyOp5
 70
     1
102
RTVSPropertyOp6
 70
     1
102
RTVSPropertyOp7
 70
     1
102
RTVSPropertyOp8
 70
     1
102
RTVSPropertyOp9
 70
     1
102
RTVSPropertyOp10
 70
     1
102
RTVSPropertyOp11
 70
     1
102
RTVSPropertyOp12
 70
     1
102
RTVSPropertyOp13
 70
     1
102
RTVSPropertyOp14
 70
     1
102
RTVSPropertyOp15
 70
     1
102
RTVSPropertyOp16
 70
     1
102
RTVSPropertyOp17
 70
     1
102
RTVSPropertyOp18
 70
     1
102
RTVSPropertyOp19
 70
     1
102
RTVSPropertyOp20
 70
     1
102
RTVSPropertyOp21
 70
     1
102
RTVSPropertyOp22
 70
     1
102
RTVSPropertyOp23
 70
     1
102
RTVSPropertyOp24
 70
     1
102
RTVSPropertyOp25
 70
     1
102
RTVSPropertyOp26
 70
     1
102
RTVSPropertyOp27
 70
     1
102
RTVSPropertyOp28
 70
     1
102
RTVSPropertyOp29
 70
     1
102
RTVSPropertyOp30
 70
     1
102
RTVSPropertyOp31
 70
     1
102
RTVSPropertyOp32
 70
     1
102
RTVSPropertyOp33
 70
     1
102
RTVSPropertyOp34
 70
     1
102
RTVSPropertyOp35
 70
     1
102
RTVSPropertyOp36
 70
     1
102
RTVSPropertyOp37
 70
     1
102
RTVSPropertyOp38
 70
     1
102
RTVSPropertyOp39
 70
     1
102
RTVSPropertyOp40
 70
     1
102
RTVSPropertyOp41
 70
     1
102
RTVSPropertyOp42
 70
     1
102
RTVSPropertyOp43
 70
     1
102
RTVSPropertyOp44
 70
     1
102
RTVSPropertyOp45
 70
     1
102
RTVSPropertyOp46
 70
     1
102
RTVSPropertyOp47
 70
     1
102
RTVSPropertyOp48
 70
     1
102
RTVSPropertyOp49
 70
     1
102
RTVSPropertyOp50
 70
     1
102
RTVSPropertyOp51
 70
     0
102
RTVSPropertyOp52
 70
     0
102
RTVSPropertyOp53
 70
     1
102
RTVSPropertyOp54
 70
     1
102
RTVSPropertyOp55
 70
     1
102
RTVSPropertyOp56
 70
     1
102
RTVSPropertyOp57
 70
     1
102
RTVSPost2010Prop28
280
     0
102
RTVSPost2010PropOp28
 70
     1
102
RTVSPost2010Prop29
280
     1
102
RTVSPost2010PropOp29
 70
     1
102
RTVSPost2010Prop30
280
     1
102
RTVSPost2010PropOp30
 70
     1
102
RTVSPost2010Prop31
280
     0
102
RTVSPost2010PropOp31
 70
     1
102
RTVSPost2010Prop32
280
     0
102
RTVSPost2010PropOp32
 70
     1
102
RTVSPost2010Prop33
280
     0
102
RTVSPost2010PropOp33
 70
     1
102
RTVSPost2010Prop34
280
     0
102
RTVSPost2010PropOp34
 70
     1
102
RTVSPost2010Prop35
280
     0
102
RTVSPost2010PropOp35
 70
     1
102
RTVSPost2010Prop36
280
     0
102
RTVSPost2010PropOp36
 70
     1
102
RTVSPost2010Prop37
 90
       50
102
RTVSPost2010PropOp37
 70
     1
102
RTVSPost2010Prop38
140
0.0
102
RTVSPost2010PropOp38
 70
     1
102
RTVSPost2010Prop39
140
1.0
102
RTVSPost2010PropOp39
 70
     1
102
RTVSPost2010Prop40
 90
        0
102
RTVSPost2010PropOp40
 70
     1
102
RTVSPost2010Prop41ColorIndex
 90
       18
102
RTVSPost2010Prop41ColorRGB
 90
        0
102
RTVSPost2010PropOp41
 70
     1
102
RTVSPost2010Prop42
 90
       50
102
RTVSPost2010PropOp42
 70
     1
102
RTVSPost2010Prop43
 90
        3
102
RTVSPost2010PropOp43
 70
     1
102
RTVSPost2010Prop44ColorIndex
 90
        5
102
RTVSPost2010Prop44ColorRGB
 90
      255
102
RTVSPost2010PropOp44
 70
     1
102
RTVSPost2010Prop45
280
     0
102
RTVSPost2010PropOp45
 70
     1
102
RTVSPost2010Prop46
 90
       50
102
RTVSPost2010PropOp46
 70
     1
102
RTVSPost2010Prop47
 90
       50
102
RTVSPost2010PropOp47
 70
     1
102
RTVSPost2010Prop48
 90
       50
102
RTVSPost2010PropOp48
 70
     1
102
RTVSPost2010Prop49
280
     0
102
RTVSPost2010PropOp49
 70
     1
102
RTVSPost2010Prop50
 90
       50
102
RTVSPost2010PropOp50
 70
     1
102
RTVSPost2010Prop51ColorIndex
 90
      256
102
RTVSPost2010Prop51ColorRGB
 90
-16777216
102
RTVSPost2010PropOp51
 70
     0
102
RTVSPost2010Prop52
140
1.0
102
RTVSPost2010PropOp52
 70
     0
102
RTVSPost2010Prop53
 90
        2
102
RTVSPost2010PropOp53
 70
     1
102
RTVSPost2010Prop54
  1
strokes_ogs.tif
102
RTVSPost2010PropOp54
 70
     1
102
RTVSPost2010Prop55
280
     0
102
RTVSPost2010PropOp55
 70
     1
102
RTVSPost2010Prop56
140
1.0
102
RTVSPost2010PropOp56
 70
     1
102
RTVSPost2010Prop57
140
1.0
102
RTVSPost2010PropOp57
 70
     1
  0
XRECORD
  5
34C
102
{ACAD_REACTORS
330
34B
102
}
330
34B
100
AcDbXrecord
280
     1
102
RTVSPropertyOp0
 70
     1
102
RTVSPropertyOp1
 70
     1
102
RTVSPropertyOp2
 70
     1
102
RTVSPropertyOp3
 70
     1
102
RTVSPropertyOp4
 70
     1
102
RTVSPropertyOp5
 70
     1
102
RTVSPropertyOp6
 70
     1
102
RTVSPropertyOp7
 70
     1
102
RTVSPropertyOp8
 70
     1
102
RTVSPropertyOp9
 70
     1
102
RTVSPropertyOp10
 70
     1
102
RTVSPropertyOp11
 70
     1
102
RTVSPropertyOp12
 70
     1
102
RTVSPropertyOp13
 70
     1
102
RTVSPropertyOp14
 70
     1
102
RTVSPropertyOp15
 70
     1
102
RTVSPropertyOp16
 70
     1
102
RTVSPropertyOp17
 70
     1
102
RTVSPropertyOp18
 70
     1
102
RTVSPropertyOp19
 70
     1
102
RTVSPropertyOp20
 70
     1
102
RTVSPropertyOp21
 70
     1
102
RTVSPropertyOp22
 70
     1
102
RTVSPropertyOp23
 70
     1
102
RTVSPropertyOp24
 70
     1
102
RTVSPropertyOp25
 70
     1
102
RTVSPropertyOp26
 70
     1
102
RTVSPropertyOp27
 70
     1
102
RTVSPropertyOp28
 70
     1
102
RTVSPropertyOp29
 70
     1
102
RTVSPropertyOp30
 70
     1
102
RTVSPropertyOp31
 70
     1
102
RTVSPropertyOp32
 70
     1
102
RTVSPropertyOp33
 70
     1
102
RTVSPropertyOp34
 70
     1
102
RTVSPropertyOp35
 70
     1
102
RTVSPropertyOp36
 70
     1
102
RTVSPropertyOp37
 70
     1
102
RTVSPropertyOp38
 70
     1
102
RTVSPropertyOp39
 70
     1
102
RTVSPropertyOp40
 70
     1
102
RTVSPropertyOp41
 70
     1
102
RTVSPropertyOp42
 70
     1
102
RTVSPropertyOp43
 70
     1
102
RTVSPropertyOp44
 70
     1
102
RTVSPropertyOp45
 70
     1
102
RTVSPropertyOp46
 70
     1
102
RTVSPropertyOp47
 70
     1
102
RTVSPropertyOp48
 70
     1
102
RTVSPropertyOp49
 70
     1
102
RTVSPropertyOp50
 70
     1
102
RTVSPropertyOp51
 70
     0
102
RTVSPropertyOp52
 70
     0
102
RTVSPropertyOp53
 70
     1
102
RTVSPropertyOp54
 70
     1
102
RTVSPropertyOp55
 70
     1
102
RTVSPropertyOp56
 70
     1
102
RTVSPropertyOp57
 70
     1
102
RTVSPost2010Prop28
280
     0
102
RTVSPost2010PropOp28
 70
     1
102
RTVSPost2010Prop29
280
     1
102
RTVSPost2010PropOp29
 70
     1
102
RTVSPost2010Prop30
280
     1
102
RTVSPost2010PropOp30
 70
     1
102
RTVSPost2010Prop31
280
     0
102
RTVSPost2010PropOp31
 70
     1
102
RTVSPost2010Prop32
280
     0
102
RTVSPost2010PropOp32
 70
     1
102
RTVSPost2010Prop33
280
     0
102
RTVSPost2010PropOp33
 70
     1
102
RTVSPost2010Prop34
280
     0
102
RTVSPost2010PropOp34
 70
     1
102
RTVSPost2010Prop35
280
     0
102
RTVSPost2010PropOp35
 70
     1
102
RTVSPost2010Prop36
280
     0
102
RTVSPost2010PropOp36
 70
     1
102
RTVSPost2010Prop37
 90
       50
102
RTVSPost2010PropOp37
 70
     1
102
RTVSPost2010Prop38
140
0.0
102
RTVSPost2010PropOp38
 70
     1
102
RTVSPost2010Prop39
140
1.0
102
RTVSPost2010PropOp39
 70
     1
102
RTVSPost2010Prop40
 90
        0
102
RTVSPost2010PropOp40
 70
     1
102
RTVSPost2010Prop41ColorIndex
 90
       18
102
RTVSPost2010Prop41ColorRGB
 90
        0
102
RTVSPost2010PropOp41
 70
     1
102
RTVSPost2010Prop42
 90
       50
102
RTVSPost2010PropOp42
 70
     1
102
RTVSPost2010Prop43
 90
        3
102
RTVSPost2010PropOp43
 70
     1
102
RTVSPost2010Prop44ColorIndex
 90
        5
102
RTVSPost2010Prop44ColorRGB
 90
      255
102
RTVSPost2010PropOp44
 70
     1
102
RTVSPost2010Prop45
280
     0
102
RTVSPost2010PropOp45
 70
     1
102
RTVSPost2010Prop46
 90
       50
102
RTVSPost2010PropOp46
 70
     1
102
RTVSPost2010Prop47
 90
       50
102
RTVSPost2010PropOp47
 70
     1
102
RTVSPost2010Prop48
 90
       50
102
RTVSPost2010PropOp48
 70
     1
102
RTVSPost2010Prop49
280
     0
102
RTVSPost2010PropOp49
 70
     1
102
RTVSPost2010Prop50
 90
       50
102
RTVSPost2010PropOp50
 70
     1
102
RTVSPost2010Prop51ColorIndex
 90
      256
102
RTVSPost2010Prop51ColorRGB
 90
-16777216
102
RTVSPost2010PropOp51
 70
     0
102
RTVSPost2010Prop52
140
1.0
102
RTVSPost2010PropOp52
 70
     0
102
RTVSPost2010Prop53
 90
        2
102
RTVSPost2010PropOp53
 70
     1
102
RTVSPost2010Prop54
  1
strokes_ogs.tif
102
RTVSPost2010PropOp54
 70
     1
102
RTVSPost2010Prop55
280
     0
102
RTVSPost2010PropOp55
 70
     1
102
RTVSPost2010Prop56
140
1.0
102
RTVSPost2010PropOp56
 70
     1
102
RTVSPost2010Prop57
140
1.0
102
RTVSPost2010PropOp57
 70
     1
  0
XRECORD
  5
33E
102
{ACAD_REACTORS
330
33D
102
}
330
33D
100
AcDbXrecord
280
     1
102
RTVSPropertyOp0
 70
     1
102
RTVSPropertyOp1
 70
     1
102
RTVSPropertyOp2
 70
     1
102
RTVSPropertyOp3
 70
     1
102
RTVSPropertyOp4
 70
     1
102
RTVSPropertyOp5
 70
     1
102
RTVSPropertyOp6
 70
     1
102
RTVSPropertyOp7
 70
     1
102
RTVSPropertyOp8
 70
     1
102
RTVSPropertyOp9
 70
     1
102
RTVSPropertyOp10
 70
     1
102
RTVSPropertyOp11
 70
     1
102
RTVSPropertyOp12
 70
     1
102
RTVSPropertyOp13
 70
     1
102
RTVSPropertyOp14
 70
     1
102
RTVSPropertyOp15
 70
     1
102
RTVSPropertyOp16
 70
     1
102
RTVSPropertyOp17
 70
     1
102
RTVSPropertyOp18
 70
     1
102
RTVSPropertyOp19
 70
     1
102
RTVSPropertyOp20
 70
     1
102
RTVSPropertyOp21
 70
     1
102
RTVSPropertyOp22
 70
     1
102
RTVSPropertyOp23
 70
     1
102
RTVSPropertyOp24
 70
     1
102
RTVSPropertyOp25
 70
     1
102
RTVSPropertyOp26
 70
     1
102
RTVSPropertyOp27
 70
     1
102
RTVSPropertyOp28
 70
     1
102
RTVSPropertyOp29
 70
     1
102
RTVSPropertyOp30
 70
     1
102
RTVSPropertyOp31
 70
     1
102
RTVSPropertyOp32
 70
     1
102
RTVSPropertyOp33
 70
     1
102
RTVSPropertyOp34
 70
     1
102
RTVSPropertyOp35
 70
     1
102
RTVSPropertyOp36
 70
     1
102
RTVSPropertyOp37
 70
     1
102
RTVSPropertyOp38
 70
     1
102
RTVSPropertyOp39
 70
     1
102
RTVSPropertyOp40
 70
     1
102
RTVSPropertyOp41
 70
     1
102
RTVSPropertyOp42
 70
     1
102
RTVSPropertyOp43
 70
     1
102
RTVSPropertyOp44
 70
     1
102
RTVSPropertyOp45
 70
     1
102
RTVSPropertyOp46
 70
     1
102
RTVSPropertyOp47
 70
     1
102
RTVSPropertyOp48
 70
     1
102
RTVSPropertyOp49
 70
     1
102
RTVSPropertyOp50
 70
     1
102
RTVSPropertyOp51
 70
     0
102
RTVSPropertyOp52
 70
     0
102
RTVSPropertyOp53
 70
     1
102
RTVSPropertyOp54
 70
     1
102
RTVSPropertyOp55
 70
     1
102
RTVSPropertyOp56
 70
     1
102
RTVSPropertyOp57
 70
     1
102
RTVSPost2010Prop28
280
     0
102
RTVSPost2010PropOp28
 70
     1
102
RTVSPost2010Prop29
280
     1
102
RTVSPost2010PropOp29
 70
     1
102
RTVSPost2010Prop30
280
     1
102
RTVSPost2010PropOp30
 70
     1
102
RTVSPost2010Prop31
280
     0
102
RTVSPost2010PropOp31
 70
     1
102
RTVSPost2010Prop32
280
     0
102
RTVSPost2010PropOp32
 70
     1
102
RTVSPost2010Prop33
280
     0
102
RTVSPost2010PropOp33
 70
     1
102
RTVSPost2010Prop34
280
     0
102
RTVSPost2010PropOp34
 70
     1
102
RTVSPost2010Prop35
280
     0
102
RTVSPost2010PropOp35
 70
     1
102
RTVSPost2010Prop36
280
     0
102
RTVSPost2010PropOp36
 70
     1
102
RTVSPost2010Prop37
 90
       50
102
RTVSPost2010PropOp37
 70
     1
102
RTVSPost2010Prop38
140
0.0
102
RTVSPost2010PropOp38
 70
     1
102
RTVSPost2010Prop39
140
1.0
102
RTVSPost2010PropOp39
 70
     1
102
RTVSPost2010Prop40
 90
        0
102
RTVSPost2010PropOp40
 70
     1
102
RTVSPost2010Prop41ColorIndex
 90
       18
102
RTVSPost2010Prop41ColorRGB
 90
        0
102
RTVSPost2010PropOp41
 70
     1
102
RTVSPost2010Prop42
 90
       50
102
RTVSPost2010PropOp42
 70
     1
102
RTVSPost2010Prop43
 90
        3
102
RTVSPost2010PropOp43
 70
     1
102
RTVSPost2010Prop44ColorIndex
 90
        5
102
RTVSPost2010Prop44ColorRGB
 90
      255
102
RTVSPost2010PropOp44
 70
     1
102
RTVSPost2010Prop45
280
     0
102
RTVSPost2010PropOp45
 70
     1
102
RTVSPost2010Prop46
 90
       50
102
RTVSPost2010PropOp46
 70
     1
102
RTVSPost2010Prop47
 90
       50
102
RTVSPost2010PropOp47
 70
     1
102
RTVSPost2010Prop48
 90
       50
102
RTVSPost2010PropOp48
 70
     1
102
RTVSPost2010Prop49
280
     0
102
RTVSPost2010PropOp49
 70
     1
102
RTVSPost2010Prop50
 90
       50
102
RTVSPost2010PropOp50
 70
     1
102
RTVSPost2010Prop51ColorIndex
 90
      256
102
RTVSPost2010Prop51ColorRGB
 90
-16777216
102
RTVSPost2010PropOp51
 70
     0
102
RTVSPost2010Prop52
140
1.0
102
RTVSPost2010PropOp52
 70
     0
102
RTVSPost2010Prop53
 90
        2
102
RTVSPost2010PropOp53
 70
     1
102
RTVSPost2010Prop54
  1
strokes_ogs.tif
102
RTVSPost2010PropOp54
 70
     1
102
RTVSPost2010Prop55
280
     0
102
RTVSPost2010PropOp55
 70
     1
102
RTVSPost2010Prop56
140
1.0
102
RTVSPost2010PropOp56
 70
     1
102
RTVSPost2010Prop57
140
1.0
102
RTVSPost2010PropOp57
 70
     1
  0
XRECORD
  5
35E
102
{ACAD_REACTORS
330
35D
102
}
330
35D
100
AcDbXrecord
280
     1
102
RTVSPropertyOp0
 70
     1
102
RTVSPropertyOp1
 70
     1
102
RTVSPropertyOp2
 70
     1
102
RTVSPropertyOp3
 70
     1
102
RTVSPropertyOp4
 70
     1
102
RTVSPropertyOp5
 70
     1
102
RTVSPropertyOp6
 70
     1
102
RTVSPropertyOp7
 70
     1
102
RTVSPropertyOp8
 70
     1
102
RTVSPropertyOp9
 70
     1
102
RTVSPropertyOp10
 70
     1
102
RTVSPropertyOp11
 70
     1
102
RTVSPropertyOp12
 70
     1
102
RTVSPropertyOp13
 70
     1
102
RTVSPropertyOp14
 70
     1
102
RTVSPropertyOp15
 70
     1
102
RTVSPropertyOp16
 70
     1
102
RTVSPropertyOp17
 70
     1
102
RTVSPropertyOp18
 70
     1
102
RTVSPropertyOp19
 70
     1
102
RTVSPropertyOp20
 70
     1
102
RTVSPropertyOp21
 70
     1
102
RTVSPropertyOp22
 70
     1
102
RTVSPropertyOp23
 70
     1
102
RTVSPropertyOp24
 70
     1
102
RTVSPropertyOp25
 70
     1
102
RTVSPropertyOp26
 70
     1
102
RTVSPropertyOp27
 70
     1
102
RTVSPropertyOp28
 70
     1
102
RTVSPropertyOp29
 70
     1
102
RTVSPropertyOp30
 70
     1
102
RTVSPropertyOp31
 70
     1
102
RTVSPropertyOp32
 70
     1
102
RTVSPropertyOp33
 70
     1
102
RTVSPropertyOp34
 70
     1
102
RTVSPropertyOp35
 70
     1
102
RTVSPropertyOp36
 70
     1
102
RTVSPropertyOp37
 70
     1
102
RTVSPropertyOp38
 70
     1
102
RTVSPropertyOp39
 70
     1
102
RTVSPropertyOp40
 70
     1
102
RTVSPropertyOp41
 70
     1
102
RTVSPropertyOp42
 70
     1
102
RTVSPropertyOp43
 70
     1
102
RTVSPropertyOp44
 70
     1
102
RTVSPropertyOp45
 70
     1
102
RTVSPropertyOp46
 70
     1
102
RTVSPropertyOp47
 70
     1
102
RTVSPropertyOp48
 70
     1
102
RTVSPropertyOp49
 70
     1
102
RTVSPropertyOp50
 70
     1
102
RTVSPropertyOp51
 70
     0
102
RTVSPropertyOp52
 70
     0
102
RTVSPropertyOp53
 70
     1
102
RTVSPropertyOp54
 70
     1
102
RTVSPropertyOp55
 70
     1
102
RTVSPropertyOp56
 70
     1
102
RTVSPropertyOp57
 70
     1
102
RTVSPost2010Prop28
280
     0
102
RTVSPost2010PropOp28
 70
     1
102
RTVSPost2010Prop29
280
     1
102
RTVSPost2010PropOp29
 70
     1
102
RTVSPost2010Prop30
280
     1
102
RTVSPost2010PropOp30
 70
     1
102
RTVSPost2010Prop31
280
     0
102
RTVSPost2010PropOp31
 70
     1
102
RTVSPost2010Prop32
280
     0
102
RTVSPost2010PropOp32
 70
     1
102
RTVSPost2010Prop33
280
     0
102
RTVSPost2010PropOp33
 70
     1
102
RTVSPost2010Prop34
280
     0
102
RTVSPost2010PropOp34
 70
     1
102
RTVSPost2010Prop35
280
     0
102
RTVSPost2010PropOp35
 70
     1
102
RTVSPost2010Prop36
280
     0
102
RTVSPost2010PropOp36
 70
     1
102
RTVSPost2010Prop37
 90
       50
102
RTVSPost2010PropOp37
 70
     1
102
RTVSPost2010Prop38
140
0.0
102
RTVSPost2010PropOp38
 70
     1
102
RTVSPost2010Prop39
140
1.0
102
RTVSPost2010PropOp39
 70
     1
102
RTVSPost2010Prop40
 90
        0
102
RTVSPost2010PropOp40
 70
     1
102
RTVSPost2010Prop41ColorIndex
 90
       18
102
RTVSPost2010Prop41ColorRGB
 90
        0
102
RTVSPost2010PropOp41
 70
     1
102
RTVSPost2010Prop42
 90
       50
102
RTVSPost2010PropOp42
 70
     1
102
RTVSPost2010Prop43
 90
        3
102
RTVSPost2010PropOp43
 70
     1
102
RTVSPost2010Prop44ColorIndex
 90
        5
102
RTVSPost2010Prop44ColorRGB
 90
      255
102
RTVSPost2010PropOp44
 70
     1
102
RTVSPost2010Prop45
280
     0
102
RTVSPost2010PropOp45
 70
     1
102
RTVSPost2010Prop46
 90
       50
102
RTVSPost2010PropOp46
 70
     1
102
RTVSPost2010Prop47
 90
       50
102
RTVSPost2010PropOp47
 70
     1
102
RTVSPost2010Prop48
 90
       50
102
RTVSPost2010PropOp48
 70
     1
102
RTVSPost2010Prop49
280
     0
102
RTVSPost2010PropOp49
 70
     1
102
RTVSPost2010Prop50
 90
       50
102
RTVSPost2010PropOp50
 70
     1
102
RTVSPost2010Prop51ColorIndex
 90
      256
102
RTVSPost2010Prop51ColorRGB
 90
-16777216
102
RTVSPost2010PropOp51
 70
     0
102
RTVSPost2010Prop52
140
1.0
102
RTVSPost2010PropOp52
 70
     0
102
RTVSPost2010Prop53
 90
        2
102
RTVSPost2010PropOp53
 70
     1
102
RTVSPost2010Prop54
  1
strokes_ogs.tif
102
RTVSPost2010PropOp54
 70
     1
102
RTVSPost2010Prop55
280
     0
102
RTVSPost2010PropOp55
 70
     1
102
RTVSPost2010Prop56
140
1.0
102
RTVSPost2010PropOp56
 70
     1
102
RTVSPost2010Prop57
140
1.0
102
RTVSPost2010PropOp57
 70
     1
  0
ENDSEC
  0
EOF
