  0
SECTION
  2
HEADER
  9
$CLAYER
  8
0
  9
$CELTYPE
  6
BYLAYER
  9
$CECOLOR
 62
   256
  9
$EXTMAX
 10
0
 20
297
 30
0
  9
$EXTMIN
 10
-420
 20
0
 30
0
  9
$LIMMAX
 10
0
 20
297
  9
$LIMMIN
 10
-420
 20
0
  9
$PLIMMAX
 10
0
 20
297
  9
$PLIMMIN
 10
-420
 20
0
  9
$PEXTMAX
 10
0
 20
297
 30
0
  9
$PEXTMIN
 10
-420
 20
0
 30
0
  9
$TEXTSIZE
 40
3.2
  9
$DIMSHO
 70
     0
  9
$DIMASZ
 40
1.0
  9
$DIMTAD
 70
     1
  9
$DIMTIH
 70
     0
  9
$DIMTOH
 70
     0
  9
$DIMEXE
 40
2.54
  9
$DIMEXO
 40
2.54
  9
$DIMTVP
 40
1.0
  9
$DIMSAH
 70
     1
  9
$DIMDLE
 40
0.0
  9
$DIMTXT
 40
3.200000047683716
  9
$DIMGAP
 40
1.600000023841858
  9
$DIMBLK1
  1
_OPEN30
  9
$DIMBLK2
  1
_OPEN30
  0
ENDSEC
  0
SECTION
  2
TABLES
  0
TABLE
  2
LTYPE
 70
     53
  0
LTYPE
  2
CONTINUOUS
 70
    64
  3
Solid line
 72
    65
 73
     0
 40
0.0
  0
LTYPE
  2
ACAD_ISO02W100
 70
     0
  3
ISO dash __ __ __ __ __ __ __ __ __ __ __ __ __
 72
    65
 73
     2
 40
15.0
 49
12.0
 49
-3.0
  0
LTYPE
  2
ACAD_ISO03W100
 70
     0
  3
ISO dash space __    __    __    __    __    __
 72
    65
 73
     2
 40
30.0
 49
12.0
 49
-18.0
  0
LTYPE
  2
ACAD_ISO04W100
 70
     0
  3
ISO long-dash dot ____ . ____ . ____ . ____ . _
 72
    65
 73
     4
 40
30.0
 49
24.0
 49
-3.0
 49
0.0
 49
-3.0
  0
LTYPE
  2
ACAD_ISO05W100
 70
     0
  3
ISO long-dash double-dot ____ .. ____ .. ____ .
 72
    65
 73
     6
 40
33.0
 49
24.0
 49
-3.0
 49
0.0
 49
-3.0
 49
0.0
 49
-3.0
  0
LTYPE
  2
ACAD_ISO06W100
 70
     0
  3
ISO long-dash triple-dot ____ ... ____ ... ____
 72
    65
 73
     8
 40
36.0
 49
24.0
 49
-3.0
 49
0.0
 49
-3.0
 49
0.0
 49
-3.0
 49
0.0
 49
-3.0
  0
LTYPE
  2
ACAD_ISO07W100
 70
     0
  3
ISO dot . . . . . . . . . . . . . . . . . . . .
 72
    65
 73
     2
 40
3.0
 49
0.0
 49
-3.0
  0
LTYPE
  2
ACAD_ISO08W100
 70
     0
  3
ISO long-dash short-dash ____ __ ____ __ ____ _
 72
    65
 73
     4
 40
36.0
 49
24.0
 49
-3.0
 49
6.0
 49
-3.0
  0
LTYPE
  2
ACAD_ISO09W100
 70
     0
  3
ISO long-dash double-short-dash ____ __ __ ____
 72
    65
 73
     6
 40
45.0
 49
24.0
 49
-3.0
 49
6.0
 49
-3.0
 49
6.0
 49
-3.0
  0
LTYPE
  2
ACAD_ISO10W100
 70
     0
  3
ISO dash dot __ . __ . __ . __ . __ . __ . __ .
 72
    65
 73
     4
 40
18.0
 49
12.0
 49
-3.0
 49
0.0
 49
-3.0
  0
LTYPE
  2
ACAD_ISO11W100
 70
     0
  3
ISO double-dash dot __ __ . __ __ . __ __ . __ 
 72
    65
 73
     6
 40
33.0
 49
12.0
 49
-3.0
 49
12.0
 49
-3.0
 49
0.0
 49
-3.0
  0
LTYPE
  2
ACAD_ISO12W100
 70
     0
  3
ISO dash double-dot __ . . __ . . __ . . __ . .
 72
    65
 73
     6
 40
21.0
 49
12.0
 49
-3.0
 49
0.0
 49
-3.0
 49
0.0
 49
-3.0
  0
LTYPE
  2
ACAD_ISO13W100
 70
     0
  3
ISO double-dash double-dot __ __ . . __ __ . . 
 72
    65
 73
     8
 40
36.0
 49
12.0
 49
-3.0
 49
12.0
 49
-3.0
 49
0.0
 49
-3.0
 49
0.0
 49
-3.0
  0
LTYPE
  2
ACAD_ISO14W100
 70
     0
  3
ISO dash triple-dot __ . . . __ . . . __ . . . 
 72
    65
 73
     8
 40
24.0
 49
12.0
 49
-3.0
 49
0.0
 49
-3.0
 49
0.0
 49
-3.0
 49
0.0
 49
-3.0
  0
LTYPE
  2
ACAD_ISO15W100
 70
     0
  3
ISO double-dash triple-dot __ __ . . . __ __ . 
 72
    65
 73
    10
 40
39.0
 49
12.0
 49
-3.0
 49
12.0
 49
-3.0
 49
0.0
 49
-3.0
 49
0.0
 49
-3.0
 49
0.0
 49
-3.0
  0
LTYPE
  2
BORDER
 70
    64
  3
Border __ __ . __ __ . __ __ . __ __ . __ __ .
 72
    65
 73
     6
 40
3.5
 49
1.0
 49
-0.5
 49
1.0
 49
-0.5
 49
0.0
 49
-0.5
  0
LTYPE
  2
BORDER2
 70
    64
  3
Border (.5x) __.__.__.__.__.__.__.__.__.__.__.
 72
    65
 73
     6
 40
1.75
 49
0.5
 49
-0.25
 49
0.5
 49
-0.25
 49
0.0
 49
-0.25
  0
LTYPE
  2
BORDERX2
 70
    64
  3
Border (2x) ____  ____  .  ____  ____  .  ___
 72
    65
 73
     6
 40
7.0
 49
2.0
 49
-1.0
 49
2.0
 49
-1.0
 49
0.0
 49
-1.0
  0
LTYPE
  2
CENTER
 70
    64
  3
Center ____ _ ____ _ ____ _ ____ _ ____ _ ____
 72
    65
 73
     4
 40
12.0
 49
7.5
 49
-1.5
 49
1.5
 49
-1.5
  0
LTYPE
  2
CENTER2
 70
    64
  3
Center (.5x) ___ _ ___ _ ___ _ ___ _ ___ _ ___
 72
    65
 73
     4
 40
6.0
 49
3.75
 49
-0.75
 49
0.75
 49
-0.75
  0
LTYPE
  2
CENTERX2
 70
    64
  3
Center (2x) ________  __  ________  __  _____
 72
    65
 73
     4
 40
24.0
 49
15.0
 49
-3.0
 49
3.0
 49
-3.0
  0
LTYPE
  2
DASHDOT
 70
    64
  3
Dash dot __ . __ . __ . __ . __ . __ . __ . __
 72
    65
 73
     4
 40
6.0
 49
3.0
 49
-1.5
 49
0.0
 49
-1.5
  0
LTYPE
  2
DASHDOT2
 70
    64
  3
Dash dot (.5x) _._._._._._._._._._._._._._._.
 72
    65
 73
     4
 40
3.0
 49
1.5
 49
-0.75
 49
0.0
 49
-0.75
  0
LTYPE
  2
DASHDOTX2
 70
    64
  3
Dash dot (2x) ____  .  ____  .  ____  .  ___
 72
    65
 73
     4
 40
12.0
 49
6.0
 49
-3.0
 49
0.0
 49
-3.0
  0
LTYPE
  2
DASHED
 70
    64
  3
Dashed __ __ __ __ __ __ __ __ __ __ __ __ __ _
 72
    65
 73
     2
 40
4.5
 49
3.0
 49
-1.5
  0
LTYPE
  2
DASHED2
 70
    64
  3
Dashed (.5x) _ _ _ _ _ _ _ _ _ _ _ _ _ _ _ _ _
 72
    65
 73
     2
 40
2.25
 49
1.5
 49
-0.75
  0
LTYPE
  2
DASHEDX2
 70
    64
  3
Dashed (2x) ____  ____  ____  ____  ____  ___
 72
    65
 73
     2
 40
9.0
 49
6.0
 49
-3.0
  0
LTYPE
  2
DIVIDE
 70
    64
  3
Divide ____ . . ____ . . ____ . . ____ . . ____
 72
    65
 73
     6
 40
7.5
 49
3.0
 49
-1.5
 49
0.0
 49
-1.5
 49
0.0
 49
-1.5
  0
LTYPE
  2
DIVIDE2
 70
    64
  3
Divide (.5x) __..__..__..__..__..__..__..__.._
 72
    65
 73
     6
 40
3.75
 49
1.5
 49
-0.75
 49
0.0
 49
-0.75
 49
0.0
 49
-0.75
  0
LTYPE
  2
DIVIDEX2
 70
    64
  3
Divide (2x) ________  .  .  ________  .  .  _
 72
    65
 73
     6
 40
15.0
 49
6.0
 49
-3.0
 49
0.0
 49
-3.0
 49
0.0
 49
-3.0
  0
LTYPE
  2
DOT
 70
    64
  3
Dot . . . . . . . . . . . . . . . . . . . . . .
 72
    65
 73
     2
 40
1.5
 49
0.0
 49
-1.5
  0
LTYPE
  2
DOT2
 70
    64
  3
Dot (.5x) .....................................
 72
    65
 73
     2
 40
0.75
 49
0.0
 49
-0.75
  0
LTYPE
  2
DOTX2
 70
    64
  3
Dot (2x) .  .  .  .  .  .  .  .  .  .  .  .  . 
 72
    65
 73
     2
 40
3.0
 49
0.0
 49
-3.0
  0
LTYPE
  2
HIDDEN
 70
    64
  3
Hidden __ __ __ __ __ __ __ __ __ __ __ __ __ _
 72
    65
 73
     2
 40
4.5
 49
3.0
 49
-1.5
  0
LTYPE
  2
HIDDEN2
 70
    64
  3
Hidden (.5x) _ _ _ _ _ _ _ _ _ _ _ _ _ _ _ _ _
 72
    65
 73
     2
 40
2.25
 49
1.5
 49
-0.75
  0
LTYPE
  2
HIDDENX2
 70
    64
  3
Hidden (2x) ____ ____ ____ ____ ____ ____ ____
 72
    65
 73
     2
 40
9.0
 49
6.0
 49
-3.0
  0
LTYPE
  2
PHANTOM
 70
    64
  3
Phantom ______  __  __  ______  __  __  ______
 72
    65
 73
     6
 40
15.0
 49
7.5
 49
-1.5
 49
1.5
 49
-1.5
 49
1.5
 49
-1.5
  0
LTYPE
  2
PHANTOM2
 70
    64
  3
Phantom (.5x) ___ _ _ ___ _ _ ___ _ _ ___ _ _
 72
    65
 73
     6
 40
7.5
 49
3.75
 49
-0.75
 49
0.75
 49
-0.75
 49
0.75
 49
-0.75
  0
LTYPE
  2
PHANTOMX2
 70
    64
  3
Phantom (2x) ____________    ____    ____   _
 72
    65
 73
     6
 40
30.0
 49
15.0
 49
-3.0
 49
3.0
 49
-3.0
 49
3.0
 49
-3.0
  0
LTYPE
  2
JIS_02_0_7
 70
     0
  3
HIDDEN0.75 _ _ _ _ _ _ _ _ _ _ _ _ _ _ _ _ _
 72
    65
 73
     2
 40
1.3500000000000001
 49
0.75
 49
-0.6
  0
LTYPE
  2
JIS_02_1_0
 70
     0
  3
HIDDEN01 _ _ _ _ _ _ _ _ _ _ _ _ _ _ _ _ _
 72
    65
 73
     2
 40
2.0
 49
1.0
 49
-1.0
  0
LTYPE
  2
JIS_02_1_2
 70
     0
  3
HIDDEN01.25  _ _ _ _ _ _ _ _ _ _ _ _ _ _ _ _ _
 72
    65
 73
     2
 40
2.5
 49
1.25
 49
-1.25
  0
LTYPE
  2
JIS_02_2_0
 70
     0
  3
HIDDEN02 __ __ __ __ __ __ __ __ __ __ __
 72
    65
 73
     2
 40
3.0
 49
2.0
 49
-1.0
  0
LTYPE
  2
JIS_02_4_0
 70
     0
  3
HIDDEN04 ____ ____ ____ ____ ____ ____ ____
 72
    65
 73
     2
 40
5.5
 49
4.0
 49
-1.5
  0
LTYPE
  2
JIS_08_11
 70
     0
  3
1SASEN11 ___ _ ___ _ ___ _ ___ _ ___ _ ___
 72
    65
 73
     4
 40
12.800000000000001
 49
11.0
 49
-0.6
 49
0.6
 49
-0.6
  0
LTYPE
  2
JIS_08_15
 70
     0
  3
1SASEN15 ____ _ ____ _ ____ _ ____ _ ____
 72
    65
 73
     4
 40
17.25
 49
15.0
 49
-0.75
 49
0.75
 49
-0.75
  0
LTYPE
  2
JIS_08_25
 70
     0
  3
1SASEN25 ________  __  ________  __  _____
 72
    65
 73
     4
 40
28.0
 49
25.0
 49
-1.125
 49
0.75
 49
-1.125
  0
LTYPE
  2
JIS_08_37
 70
     0
  3
1SASEN37 ________  __  ________  __  _____
 72
    65
 73
     4
 40
40.499999999999993
 49
37.5
 49
-1.125
 49
0.75
 49
-1.125
  0
LTYPE
  2
JIS_08_50
 70
     0
  3
1SASEN50 _______________  __  ____________
 72
    65
 73
     4
 40
53.0
 49
50.0
 49
-1.125
 49
0.75
 49
-1.125
  0
LTYPE
  2
JIS_09_08
 70
     0
  3
2SASEN8 __ _ _ __ _ _ __ _ _ __ _ _ __ _ _
 72
    65
 73
     6
 40
10.75
 49
8.0
 49
-0.55
 49
0.55
 49
-0.55
 49
0.55
 49
-0.55
  0
LTYPE
  2
JIS_09_15
 70
     0
  3
2SASEN15 ___ _ _ ___ _ _ ___ _ _ ___ _ _ ___
 72
    65
 73
     6
 40
18.899999999999999
 49
15.0
 49
-0.9
 49
0.6
 49
-0.9
 49
0.6
 49
-0.9
  0
LTYPE
  2
JIS_09_29
 70
     0
  3
2SASEN29 ______  __  __  ______  __  __  ___
 72
    65
 73
     6
 40
34.0
 49
29.0
 49
-1.1999999999999991
 49
0.7
 49
-1.1999999999999991
 49
0.7
 49
-1.1999999999999991
  0
LTYPE
  2
JIS_09_50
 70
     0
  3
2SASEN50 ____________  __  __  _____________
 72
    65
 73
     6
 40
55.0
 49
50.0
 49
-1.1999999999999991
 49
0.7
 49
-1.1999999999999991
 49
0.7
 49
-1.1999999999999991
  0
ENDTAB
  0
TABLE
  2
LAYER
 70
     3
  0
LAYER
  2
0
 70
     0
 62
     7
  6
CONTINUOUS
  0
LAYER
  2
1
 70
     0
 62
     7
  6
CONTINUOUS
  0
LAYER
  2
DEFPOINTS
 70
     0
 62
     7
  6
CONTINUOUS
  0
ENDTAB
  0
TABLE
  2
STYLE
 70
     1
  0
STYLE
  2
STANDARD
 70
     0
 40
0.0
 41
1.0
 50
0.0
 71
     0
 42
0.2
  3
txt
  4
BIGFONT
  0
ENDTAB
  0
TABLE
  2
DIMSTYLE
 70
     1
  0
DIMSTYLE
  2
DIMSTYLE
 70
     0
  3

  4

  5
_OPEN30
  6
_OPEN30
  7
_OPEN30
 40
1
 41
3
 42
2.539999961853027
 43
0.38
 44
2.54
 45
0
 46
0
 47
0
 48
0
140
3.200000047683716
141
0.09
142
0
143
25.4
144
1
145
0
146
1
147
1.600000023841858
 71
     0
 72
     0
 73
     0
 74
     0
 75
     0
 76
     0
 78
     0
170
     0
171
     2
 77
     0
172
     0
173
     1
174
     0
175
     0
176
     0
177
     0
178
     0
  0
ENDTAB
  0
ENDSEC
  0
SECTION
  2
BLOCKS
  0
BLOCK
  8
0
  2
_DOT
 70
    64
 10
0
 20
0
  3
_DOT
  0
POLYLINE
  8
0
  6
BYBLOCK
 62
     0
 66
     1
 10
0
 20
0
 70
     1
 40
0.1666666666666667
 41
0.1666666666666667
  0
VERTEX
  8
0
  6
BYBLOCK
 62
     0
 10
-0.08333333333333333
 20
0
 42
1
  0
VERTEX
  8
0
  6
BYBLOCK
 62
     0
 10
0.08333333333333333
 20
0
 42
1
  0
SEQEND
  8
0
  6
BYBLOCK
 62
     0
  0
LINE
  8
0
  6
BYBLOCK
 62
     0
 10
-0.1666666666666667
 20
0
 11
-0.9999999849815067
 21
0
  0
ENDBLK
  8
0
  0
BLOCK
  8
0
  2
*D1
 70
    65
 10
0
 20
0
  0
LINE
  8
0
  6
CONTINUOUS
 62
     7
 10
-634.276353386615
 20
482.2248333973769
 11
-634.276353386615
 21
450.2251528782727
  0
INSERT
  8
0
  6
CONTINUOUS
 62
     7
  2
_DOT
 10
-634.276353386615
 20
482.2248333973769
 41
9
 42
9
 43
9
 50
90.00000000000019
  0
INSERT
  8
0
  6
CONTINUOUS
 62
     7
  2
_DOT
 10
-634.276353386615
 20
450.2251528782727
 41
9
 42
9
 43
9
 50
270.0000000000005
  0
LINE
  8
0
  6
CONTINUOUS
 62
     7
 10
-647.0193861416345
 20
482.2248333973772
 11
-628.276353386615
 21
482.2248333973772
  0
LINE
  8
0
  6
CONTINUOUS
 62
     7
 10
-647.0193861416345
 20
450.2251528782729
 11
-628.276353386615
 21
450.2251528782729
  0
TEXT
  8
0
  6
CONTINUOUS
 62
     7
 10
-636.526353386615
 20
454.0149926228409
 40
9
 41
0.9498250108894696
  1
%%C32
 50
90.00000000000003
  0
POINT
  8
DEFPOINTS
  6
CONTINUOUS
 62
     7
 10
-654.6393859127527
 20
482.2248333973772
  0
POINT
  8
DEFPOINTS
  6
CONTINUOUS
 62
     7
 10
-654.6393859127527
 20
450.2251528782729
  0
POINT
  8
DEFPOINTS
  6
CONTINUOUS
 62
     7
 10
-634.276353386615
 20
450.2251528782727
  0
ENDBLK
  8
0
  0
BLOCK
  8
0
  2
*D2
 70
    65
 10
0
 20
0
  0
LINE
  8
0
  6
CONTINUOUS
 62
     7
 10
-456.7891062742608
 20
355.2262011749629
 11
-456.7891062742608
 21
346.2262910289649
  0
INSERT
  8
0
  6
CONTINUOUS
 62
     7
  2
_DOT
 10
-456.7891062742608
 20
355.2262011749629
 41
9
 42
9
 43
9
 50
90.00000000000019
  0
INSERT
  8
0
  6
CONTINUOUS
 62
     7
  2
_DOT
 10
-456.7891062742608
 20
346.2262910289649
 41
9
 42
9
 43
9
 50
270.0000000000005
  0
LINE
  8
0
  6
CONTINUOUS
 62
     7
 10
-481.8462010376572
 20
355.2262011749629
 11
-450.7891062742608
 21
355.2262011749629
  0
LINE
  8
0
  6
CONTINUOUS
 62
     7
 10
-481.8462010376572
 20
346.2262910289649
 11
-450.7891062742608
 21
346.2262910289649
  0
TEXT
  8
0
  6
CONTINUOUS
 62
     7
 10
-459.0391062742608
 20
347.5162459446077
 40
9
 41
1
  1
9
 50
90.00000000000003
  0
POINT
  8
DEFPOINTS
  6
CONTINUOUS
 62
     7
 10
-489.4662008087753
 20
355.2262011749629
  0
POINT
  8
DEFPOINTS
  6
CONTINUOUS
 62
     7
 10
-489.4662008087753
 20
346.2262910289649
  0
POINT
  8
DEFPOINTS
  6
CONTINUOUS
 62
     7
 10
-456.7891062742608
 20
346.2262910289649
  0
ENDBLK
  8
0
  0
BLOCK
  8
0
  2
*D3
 70
    65
 10
0
 20
0
  0
LINE
  8
0
  6
CONTINUOUS
 62
     7
 10
-246.6363237474209
 20
660.3181552385944
 11
-212.7066002368874
 21
677.7069124013262
  0
LINE
  8
0
  6
CONTINUOUS
 62
     7
 10
-282.233750067256
 20
642.0747115010788
 11
-246.6363237474205
 21
660.3181552385938
  0
INSERT
  8
0
  6
CONTINUOUS
 62
     7
  2
_DOT
 10
-282.233750067256
 20
642.0747115010788
 41
9
 42
9
 43
9
 50
207.1348371892988
  0
INSERT
  8
0
  6
CONTINUOUS
 62
     7
  2
_DOT
 10
-246.6363237474205
 20
660.3181552385938
 41
9
 42
9
 43
9
 50
27.1348371892981
  0
TEXT
  8
0
  6
CONTINUOUS
 62
     7
 10
-236.4921659646173
 20
670.5818550344021
 40
9
 41
0.9882639024673517
  1
%%C40
 50
27.10000000000001
  0
POINT
  8
DEFPOINTS
  6
CONTINUOUS
 62
     7
 10
-282.233750067256
 20
642.0747115010788
  0
POINT
  8
DEFPOINTS
  6
CONTINUOUS
 62
     7
 10
-246.6363237474205
 20
660.3181552385938
  0
ENDBLK
  8
0
  0
BLOCK
  8
0
  2
*D4
 70
    65
 10
0
 20
0
  0
LINE
  8
0
  6
CONTINUOUS
 62
     7
 10
-241.3390034623195
 20
648.6637318660413
 11
-216.951014588301
 21
628.7132057516864
  0
LINE
  8
0
  6
CONTINUOUS
 62
     7
 10
-247.531070352357
 20
653.7291348736309
 11
-241.3390034623195
 21
648.6637318660407
  0
INSERT
  8
0
  6
CONTINUOUS
 62
     7
  2
_DOT
 10
-247.531070352357
 20
653.7291348736309
 41
9
 42
9
 43
9
 50
140.7152134938139
  0
INSERT
  8
0
  6
CONTINUOUS
 62
     7
  2
_DOT
 10
-241.3390034623195
 20
648.6637318660407
 41
9
 42
9
 43
9
 50
320.7152134938147
  0
TEXT
  8
0
  6
CONTINUOUS
 62
     7
 10
-226.0347136640824
 20
641.9606357977569
 40
9
 41
0.922800758368665
  1
%%C8
 50
-39.29999999999995
  0
POINT
  8
DEFPOINTS
  6
CONTINUOUS
 62
     7
 10
-247.531070352357
 20
653.7291348736309
  0
POINT
  8
DEFPOINTS
  6
CONTINUOUS
 62
     7
 10
-241.3390034623195
 20
648.6637318660407
  0
ENDBLK
  8
0
  0
BLOCK
  8
0
  2
*D5
 70
    65
 10
0
 20
0
  0
LINE
  8
0
  6
CONTINUOUS
 62
     7
 10
-549.4656017820954
 20
272.9861211753147
 11
-489.4662008087753
 21
272.9861211753147
  0
INSERT
  8
0
  6
CONTINUOUS
 62
     7
  2
_DOT
 10
-549.4656017820954
 20
272.9861211753147
 41
9
 42
9
 43
9
 50
180.0000000000004
  0
INSERT
  8
0
  6
CONTINUOUS
 62
     7
  2
_DOT
 10
-489.4662008087753
 20
272.9861211753147
 41
9
 42
9
 43
9
  0
LINE
  8
0
  6
CONTINUOUS
 62
     7
 10
-549.4656017820953
 20
338.6062912578468
 11
-549.4656017820954
 21
266.9861211753147
  0
LINE
  8
0
  6
CONTINUOUS
 62
     7
 10
-489.4662008087753
 20
338.6062912578468
 11
-489.4662008087753
 21
266.9861211753147
  0
TEXT
  8
0
  6
CONTINUOUS
 62
     7
 10
-531.6759018104195
 20
275.2361211753147
 40
9
 41
0.9882639024673517
  1
%%C60
  0
POINT
  8
DEFPOINTS
  6
CONTINUOUS
 62
     7
 10
-549.4656017820954
 20
346.2262910289649
  0
POINT
  8
DEFPOINTS
  6
CONTINUOUS
 62
     7
 10
-489.4662008087753
 20
346.2262910289649
  0
POINT
  8
DEFPOINTS
  6
CONTINUOUS
 62
     7
 10
-489.4662008087753
 20
272.9861211753147
  0
ENDBLK
  8
0
  0
BLOCK
  8
0
  2
*D6
 70
    65
 10
0
 20
0
  0
LINE
  8
0
  6
CONTINUOUS
 62
     7
 10
-519.4659012954356
 20
251.8664119000132
 11
-444.4666500787853
 21
251.8664119000132
  0
INSERT
  8
0
  6
CONTINUOUS
 62
     7
  2
_DOT
 10
-519.4659012954356
 20
251.8664119000132
 41
9
 42
9
 43
9
 50
180.0000000000004
  0
INSERT
  8
0
  6
CONTINUOUS
 62
     7
  2
_DOT
 10
-444.4666500787853
 20
251.8664119000132
 41
9
 42
9
 43
9
  0
LINE
  8
0
  6
CONTINUOUS
 62
     7
 10
-444.4666500787853
 20
452.6051531071547
 11
-444.4666500787853
 21
245.8664119000133
  0
TEXT
  8
0
  6
CONTINUOUS
 62
     7
 10
-489.6762760232807
 20
254.1164119000132
 40
9
 41
1.028000044822693
  1
75
  0
POINT
  8
DEFPOINTS
  6
CONTINUOUS
 62
     7
 10
-519.4659012954356
 20
346.2262910289649
  0
POINT
  8
DEFPOINTS
  6
CONTINUOUS
 62
     7
 10
-444.4666500787853
 20
460.2251528782728
  0
POINT
  8
DEFPOINTS
  6
CONTINUOUS
 62
     7
 10
-444.4666500787853
 20
251.8664119000132
  0
ENDBLK
  8
0
  0
BLOCK
  8
0
  2
*D7
 70
    65
 10
0
 20
0
  0
LINE
  8
0
  6
CONTINUOUS
 62
     7
 10
-969.4614085953356
 20
251.8664119000132
 11
-519.4659012954356
 21
251.8664119000132
  0
INSERT
  8
0
  6
CONTINUOUS
 62
     7
  2
_DOT
 10
-969.4614085953356
 20
251.8664119000132
 41
9
 42
9
 43
9
 50
180.0000000000004
  0
INSERT
  8
0
  6
CONTINUOUS
 62
     7
  2
_DOT
 10
-519.4659012954356
 20
251.8664119000132
 41
9
 42
9
 43
9
  0
LINE
  8
0
  6
CONTINUOUS
 62
     7
 10
-519.4659012954355
 20
268.3342134362395
 11
-519.4659012954356
 21
245.8664119000133
  0
TEXT
  8
0
  6
CONTINUOUS
 62
     7
 10
-756.6736554603698
 20
254.1164119000132
 40
9
 41
1.061739175216012
  1
450
  0
POINT
  8
DEFPOINTS
  6
CONTINUOUS
 62
     7
 10
-969.4614085953356
 20
346.2262910289649
  0
POINT
  8
DEFPOINTS
  6
CONTINUOUS
 62
     7
 10
-519.4659012954356
 20
275.9542132073576
  0
POINT
  8
DEFPOINTS
  6
CONTINUOUS
 62
     7
 10
-519.4659012954356
 20
251.8664119000132
  0
ENDBLK
  8
0
  0
BLOCK
  8
0
  2
*D8
 70
    65
 10
0
 20
0
  0
LINE
  8
0
  6
CONTINUOUS
 62
     7
 10
-1044.460659811986
 20
251.8664119000132
 11
-969.4614085953356
 21
251.8664119000132
  0
INSERT
  8
0
  6
CONTINUOUS
 62
     7
  2
_DOT
 10
-1044.460659811986
 20
251.8664119000132
 41
9
 42
9
 43
9
 50
180.0000000000004
  0
INSERT
  8
0
  6
CONTINUOUS
 62
     7
  2
_DOT
 10
-969.4614085953356
 20
251.8664119000132
 41
9
 42
9
 43
9
  0
LINE
  8
0
  6
CONTINUOUS
 62
     7
 10
-1044.460659811986
 20
452.6051531071547
 11
-1044.460659811986
 21
245.8664119000133
  0
LINE
  8
0
  6
CONTINUOUS
 62
     7
 10
-969.4614085953355
 20
338.6062912578468
 11
-969.4614085953356
 21
245.8664119000133
  0
TEXT
  8
0
  6
CONTINUOUS
 62
     7
 10
-1014.671034539831
 20
254.1164119000132
 40
9
 41
1.028000044822693
  1
75
  0
POINT
  8
DEFPOINTS
  6
CONTINUOUS
 62
     7
 10
-1044.460659811986
 20
460.2251528782728
  0
POINT
  8
DEFPOINTS
  6
CONTINUOUS
 62
     7
 10
-969.4614085953356
 20
346.2262910289649
  0
POINT
  8
DEFPOINTS
  6
CONTINUOUS
 62
     7
 10
-969.4614085953356
 20
251.8664119000132
  0
ENDBLK
  8
0
  0
BLOCK
  8
0
  2
*D9
 70
    65
 10
0
 20
0
  0
LINE
  8
0
  6
CONTINUOUS
 62
     7
 10
-569.4654021065355
 20
516.6552065794496
 11
-444.4666500787853
 21
516.6552065794496
  0
INSERT
  8
0
  6
CONTINUOUS
 62
     7
  2
_DOT
 10
-569.4654021065355
 20
516.6552065794496
 41
9
 42
9
 43
9
 50
180.0000000000004
  0
INSERT
  8
0
  6
CONTINUOUS
 62
     7
  2
_DOT
 10
-444.4666500787853
 20
516.6552065794496
 41
9
 42
9
 43
9
  0
LINE
  8
0
  6
CONTINUOUS
 62
     7
 10
-444.4666500787853
 20
488.344848144162
 11
-444.4666500787853
 21
522.6552065794493
  0
TEXT
  8
0
  6
CONTINUOUS
 62
     7
 10
-519.1760266076444
 20
518.9052065794496
 40
9
 41
1.162857191903251
  1
125
  0
POINT
  8
DEFPOINTS
  6
CONTINUOUS
 62
     7
 10
-569.4654021065356
 20
482.2248333973769
  0
POINT
  8
DEFPOINTS
  6
CONTINUOUS
 62
     7
 10
-444.4666500787853
 20
480.7248483730439
  0
POINT
  8
DEFPOINTS
  6
CONTINUOUS
 62
     7
 10
-444.4666500787853
 20
516.6552065794496
  0
ENDBLK
  8
0
  0
BLOCK
  8
0
  2
*D10
 70
    65
 10
0
 20
0
  0
LINE
  8
0
  6
CONTINUOUS
 62
     7
 10
-919.4619077842356
 20
516.6552065794496
 11
-569.4654021065355
 21
516.6552065794496
  0
INSERT
  8
0
  6
CONTINUOUS
 62
     7
  2
_DOT
 10
-919.4619077842356
 20
516.6552065794496
 41
9
 42
9
 43
9
 50
180.0000000000004
  0
INSERT
  8
0
  6
CONTINUOUS
 62
     7
  2
_DOT
 10
-569.4654021065355
 20
516.6552065794496
 41
9
 42
9
 43
9
  0
LINE
  8
0
  6
CONTINUOUS
 62
     7
 10
-569.4654021065356
 20
489.844833168495
 11
-569.4654021065356
 21
522.6552065794493
  0
TEXT
  8
0
  6
CONTINUOUS
 62
     7
 10
-761.1736556391837
 20
518.9052065794496
 40
9
 41
0.8510313569543196
  1
３５０※
  0
POINT
  8
DEFPOINTS
  6
CONTINUOUS
 62
     7
 10
-919.4619077842356
 20
482.2248333973769
  0
POINT
  8
DEFPOINTS
  6
CONTINUOUS
 62
     7
 10
-569.4654021065356
 20
482.2248333973769
  0
POINT
  8
DEFPOINTS
  6
CONTINUOUS
 62
     7
 10
-569.4654021065355
 20
516.6552065794496
  0
ENDBLK
  8
0
  0
BLOCK
  8
0
  2
*D11
 70
    65
 10
0
 20
0
  0
LINE
  8
0
  6
CONTINUOUS
 62
     7
 10
-1044.460659811986
 20
516.6552065794496
 11
-919.4619077842356
 21
516.6552065794496
  0
INSERT
  8
0
  6
CONTINUOUS
 62
     7
  2
_DOT
 10
-1044.460659811986
 20
516.6552065794496
 41
9
 42
9
 43
9
 50
180.0000000000004
  0
INSERT
  8
0
  6
CONTINUOUS
 62
     7
  2
_DOT
 10
-919.4619077842356
 20
516.6552065794496
 41
9
 42
9
 43
9
  0
LINE
  8
0
  6
CONTINUOUS
 62
     7
 10
-1044.460659811986
 20
489.844833168495
 11
-1044.460659811986
 21
522.6552065794493
  0
LINE
  8
0
  6
CONTINUOUS
 62
     7
 10
-919.4619077842356
 20
489.844833168495
 11
-919.4619077842356
 21
522.6552065794493
  0
TEXT
  8
0
  6
CONTINUOUS
 62
     7
 10
-994.1712843130947
 20
518.9052065794496
 40
9
 41
1.162857191903251
  1
125
  0
POINT
  8
DEFPOINTS
  6
CONTINUOUS
 62
     7
 10
-1044.460659811986
 20
482.2248333973769
  0
POINT
  8
DEFPOINTS
  6
CONTINUOUS
 62
     7
 10
-919.4619077842356
 20
482.2248333973769
  0
POINT
  8
DEFPOINTS
  6
CONTINUOUS
 62
     7
 10
-919.4619077842356
 20
516.6552065794496
  0
ENDBLK
  8
0
  0
BLOCK
  8
0
  2
*D12
 70
    65
 10
0
 20
0
  0
LINE
  8
0
  6
CONTINUOUS
 62
     7
 10
-392.8685378167239
 20
466.2249931378245
 11
-392.8685378167239
 21
346.2262910289649
  0
INSERT
  8
0
  6
CONTINUOUS
 62
     7
  2
_DOT
 10
-392.8685378167239
 20
466.2249931378245
 41
9
 42
9
 43
9
 50
90.00000000000019
  0
INSERT
  8
0
  6
CONTINUOUS
 62
     7
  2
_DOT
 10
-392.8685378167239
 20
346.2262910289649
 41
9
 42
9
 43
9
 50
270.0000000000005
  0
LINE
  8
0
  6
CONTINUOUS
 62
     7
 10
-421.846800064337
 20
466.2249931378249
 11
-386.8685378167239
 21
466.2249931378249
  0
LINE
  8
0
  6
CONTINUOUS
 62
     7
 10
-430.1395622926226
 20
346.2262910289649
 11
-386.8685378167239
 21
346.2262910289649
  0
TEXT
  8
0
  6
CONTINUOUS
 62
     7
 10
-395.1185378167239
 20
394.0156415684108
 40
9
 41
1.221000051498413
  1
120
 50
90.00000000000003
  0
POINT
  8
DEFPOINTS
  6
CONTINUOUS
 62
     7
 10
-429.4667998354552
 20
466.2249931378249
  0
POINT
  8
DEFPOINTS
  6
CONTINUOUS
 62
     7
 10
-437.7595620637408
 20
346.2262910289649
  0
POINT
  8
DEFPOINTS
  6
CONTINUOUS
 62
     7
 10
-392.8685378167239
 20
346.2262910289649
  0
ENDBLK
  8
0
  0
BLOCK
  8
0
  2
*D13
 70
    65
 10
0
 20
0
  0
LINE
  8
0
  6
CONTINUOUS
 62
     7
 10
-1044.460659811986
 20
580.6462154708494
 11
-444.4666500787853
 21
580.6462154708494
  0
INSERT
  8
0
  6
CONTINUOUS
 62
     7
  2
_DOT
 10
-1044.460659811986
 20
580.6462154708494
 41
9
 42
9
 43
9
 50
180.0000000000004
  0
INSERT
  8
0
  6
CONTINUOUS
 62
     7
  2
_DOT
 10
-444.4666500787853
 20
580.6462154708494
 41
9
 42
9
 43
9
  0
LINE
  8
0
  6
CONTINUOUS
 62
     7
 10
-1044.460659811986
 20
627.6064509982948
 11
-1044.460659811986
 21
574.646215470849
  0
LINE
  8
0
  6
CONTINUOUS
 62
     7
 10
-444.4666500787853
 20
627.6064509982948
 11
-444.4666500787853
 21
574.646215470849
  0
TEXT
  8
0
  6
CONTINUOUS
 62
     7
 10
-756.6736554603698
 20
582.8962154708494
 40
9
 41
1.135814001393873
  1
600
  0
POINT
  8
DEFPOINTS
  6
CONTINUOUS
 62
     7
 10
-1044.460659811986
 20
635.226450769413
  0
POINT
  8
DEFPOINTS
  6
CONTINUOUS
 62
     7
 10
-444.4666500787853
 20
635.226450769413
  0
POINT
  8
DEFPOINTS
  6
CONTINUOUS
 62
     7
 10
-444.4666500787853
 20
580.6462154708494
  0
ENDBLK
  8
0
  0
BLOCK
  8
0
  2
KOZU0001
 70
    64
 10
0
 20
0
  0
POINT
  8
0
  6
CONTINUOUS
 62
     7
 10
0
 20
0
  0
LINE
  8
0
  6
CONTINUOUS
 62
     7
 10
-94.01162719726563
 20
20.77499389648438
 11
-94.01162719726563
 21
-16.72500610351563
  0
LINE
  8
0
  6
CONTINUOUS
 62
     7
 10
-107.4616394042969
 20
20.77499389648438
 11
-107.4616394042969
 21
-16.72500610351563
  0
LINE
  8
0
  6
CONTINUOUS
 62
     7
 10
-118.921630859375
 20
-20.77499389648438
 11
-111.5116271972656
 21
-20.77499389648438
  0
LINE
  8
0
  6
CONTINUOUS
 62
     7
 10
-89.96162414550781
 20
-20.77499389648438
 11
-82.55162048339844
 21
-20.77499389648438
  0
LINE
  8
0
  6
CONTINUOUS
 62
     7
 10
-82.55162048339844
 20
-20.77499389648438
 11
-82.55162048339844
 21
-27.35000610351563
  0
LINE
  8
0
  6
CONTINUOUS
 62
     7
 10
-118.921630859375
 20
-27.35000610351563
 11
-82.55162048339844
 21
-27.35000610351563
  0
LINE
  8
0
  6
CONTINUOUS
 62
     7
 10
-118.921630859375
 20
-20.77499389648438
 11
-118.921630859375
 21
-27.35000610351563
  0
LINE
  8
0
  6
CONTINUOUS
 62
     7
 10
-78.12812805175781
 20
8.875
 11
-78.12812805175781
 21
7.024999618530273
  0
LINE
  8
0
  6
CONTINUOUS
 62
     7
 10
-78.12812805175781
 20
7.024999618530273
 11
-71.09512329101563
 21
7.024999618530273
  0
LINE
  8
0
  6
CONTINUOUS
 62
     7
 10
-71.09512329101563
 20
27.35000610351563
 11
-71.09512329101563
 21
7.024999618530273
  0
LINE
  8
0
  6
CONTINUOUS
 62
     7
 10
-130.3781280517578
 20
27.35000610351563
 11
-71.09512329101563
 21
27.35000610351563
  0
LINE
  8
0
  6
CONTINUOUS
 62
     7
 10
-130.3781280517578
 20
27.35000610351563
 11
-130.3781280517578
 21
7.024999618530273
  0
LINE
  8
0
  6
CONTINUOUS
 62
     7
 10
-130.3781280517578
 20
7.024999618530273
 11
-123.3451232910156
 21
7.024999618530273
  0
LINE
  8
0
  6
CONTINUOUS
 62
     7
 10
-123.3451232910156
 20
8.875
 11
-123.3451232910156
 21
7.024999618530273
  0
LINE
  8
0
  6
CONTINUOUS
 62
     7
 10
-113.6116333007813
 20
20.77499389648438
 11
-107.4616394042969
 21
20.77499389648438
  0
LINE
  8
0
  6
CONTINUOUS
 62
     7
 10
-94.01162719726563
 20
20.77499389648438
 11
-87.86163330078125
 21
20.77499389648438
  0
LINE
  8
0
  6
CONTINUOUS
 62
     7
 10
38.90507507324219
 20
20.77499389648438
 11
38.90507507324219
 21
-16.72500610351563
  0
LINE
  8
0
  6
CONTINUOUS
 62
     7
 10
25.45506286621094
 20
20.77499389648438
 11
25.45506286621094
 21
-16.72500610351563
  0
LINE
  8
0
  6
CONTINUOUS
 62
     7
 10
38.90507507324219
 20
20.77499389648438
 11
45.05506896972656
 21
20.77499389648438
  0
LINE
  8
0
  6
CONTINUOUS
 62
     7
 10
54.78857421875
 20
8.875
 11
54.78857421875
 21
7.024999618530273
  0
LINE
  8
0
  6
CONTINUOUS
 62
     7
 10
54.78857421875
 20
7.024999618530273
 11
61.82157897949219
 21
7.024999618530273
  0
LINE
  8
0
  6
CONTINUOUS
 62
     7
 10
61.82157897949219
 20
27.35000610351563
 11
61.82157897949219
 21
7.024999618530273
  0
LINE
  8
0
  6
CONTINUOUS
 62
     7
 10
2.538579940795898
 20
27.35000610351563
 11
61.82157897949219
 21
27.35000610351563
  0
LINE
  8
0
  6
CONTINUOUS
 62
     7
 10
2.538579940840988
 20
27.35000610351563
 11
2.538579940840988
 21
7.024999618530273
  0
LINE
  8
0
  6
CONTINUOUS
 62
     7
 10
2.538579940795898
 20
7.024999618530273
 11
9.571573257446289
 21
7.024999618530273
  0
LINE
  8
0
  6
CONTINUOUS
 62
     7
 10
9.571573257446289
 20
8.875
 11
9.571573257446289
 21
7.024999618530273
  0
LINE
  8
0
  6
CONTINUOUS
 62
     7
 10
19.30506896972656
 20
20.77499389648438
 11
25.45506286621094
 21
20.77499389648438
  0
LINE
  8
0
  6
CONTINUOUS
 62
     7
 10
42.955078125
 20
-20.77499389648438
 11
50.36508178710938
 21
-20.77499389648438
  0
LINE
  8
0
  6
CONTINUOUS
 62
     7
 10
50.36508178710938
 20
-20.77499389648438
 11
50.36508178710938
 21
-27.35000610351563
  0
LINE
  8
0
  6
CONTINUOUS
 62
     7
 10
13.99507713317871
 20
-27.35000610351563
 11
50.36508178710938
 21
-27.35000610351563
  0
LINE
  8
0
  6
CONTINUOUS
 62
     7
 10
13.99507713317871
 20
-20.77499389648438
 11
13.99507713317871
 21
-27.35000610351563
  0
LINE
  8
0
  6
CONTINUOUS
 62
     7
 10
13.99507713317871
 20
-20.77499389648438
 11
21.40507507324219
 21
-20.77499389648438
  0
ARC
  8
0
  6
CONTINUOUS
 62
     7
 10
-89.96162414550781
 20
-16.72500610351563
 40
4.049999237060547
 50
180.0000186693354
 51
270.0000006832461
  0
ARC
  8
0
  6
CONTINUOUS
 62
     7
 10
-111.5116271972656
 20
-16.72500610351563
 40
4.049999237060547
 50
270.00001798609
 51
360
  0
ARC
  8
0
  6
CONTINUOUS
 62
     7
 10
-109.3951263427734
 20
8.875
 40
13.94999980926514
 50
132.3197248282829
 51
180.0000186693354
  0
ARC
  8
0
  6
CONTINUOUS
 62
     7
 10
-113.6116333007813
 20
11.52499961853027
 40
9.25
 50
89.99998201391063
 51
123.8932931284815
  0
ARC
  8
0
  6
CONTINUOUS
 62
     7
 10
-92.078125
 20
8.875
 40
13.94999980926514
 50
359.9999813306654
 51
47.68027676557883
  0
ARC
  8
0
  6
CONTINUOUS
 62
     7
 10
-87.86163330078125
 20
11.52499961853027
 40
9.25
 50
56.10670846538022
 51
90.00003665542398
  0
ARC
  8
0
  6
CONTINUOUS
 62
     7
 10
-66.36178588867188
 20
0
 40
48.44999694824219
 50
347.4353854934258
 51
12.56463499714245
  0
ARC
  8
0
  6
CONTINUOUS
 62
     7
 10
-34.54251098632813
 20
7.091827392578125
 40
15.84999942779541
 50
12.56463499714245
 51
89.04484836037608
  0
ARC
  8
0
  6
CONTINUOUS
 62
     7
 10
-34.01406860351563
 20
7.091827392578125
 40
15.84999942779541
 50
90.9551703089586
 51
167.4353665967193
  0
ARC
  8
0
  6
CONTINUOUS
 62
     7
 10
-2.194793701171875
 20
0
 40
48.44999694824219
 50
167.4353665967193
 51
192.5646161004374
  0
ARC
  8
0
  6
CONTINUOUS
 62
     7
 10
-34.01406860351563
 20
-7.091827392578125
 40
15.84999942779541
 50
192.5646334032814
 51
269.035704558311
  0
ARC
  8
0
  6
CONTINUOUS
 62
     7
 10
-34.54251098632813
 20
-7.091827392578125
 40
15.84999942779541
 50
270.9642767723558
 51
347.4353650028583
  0
ARC
  8
0
  6
CONTINUOUS
 62
     7
 10
-29.58859252929685
 20
-1.888778686523436
 40
27.05000305175781
 50
287.0440173994265
 51
348.2820420825622
  0
ARC
  8
0
  6
CONTINUOUS
 62
     7
 10
-38.6947784423828
 20
3.156527725926932e-014
 40
36.35000610351563
 50
348.2820318372785
 51
11.71796816272225
  0
ARC
  8
0
  6
CONTINUOUS
 62
     7
 10
-29.58859252929688
 20
1.888778686523438
 40
27.05000305175781
 50
11.71795108724933
 51
72.9559826005742
  0
ARC
  8
0
  6
CONTINUOUS
 62
     7
 10
-34.27828979492188
 20
-13.40849304199219
 40
43.05000305175781
 50
72.9559826005742
 51
107.0440360687605
  0
ARC
  8
0
  6
CONTINUOUS
 62
     7
 10
-38.96798706054688
 20
1.888778686523438
 40
27.05000305175781
 50
107.0440360687605
 51
168.2820368462341
  0
ARC
  8
0
  6
CONTINUOUS
 62
     7
 10
-29.86180114746094
 20
0
 40
36.35000610351563
 50
168.2820368462341
 51
191.7179458509226
  0
ARC
  8
0
  6
CONTINUOUS
 62
     7
 10
-38.96798706054688
 20
-1.888778686523438
 40
27.05000305175781
 50
191.7179631537667
 51
252.9559639312402
  0
ARC
  8
0
  6
CONTINUOUS
 62
     7
 10
-34.27828979492188
 20
13.40849590301514
 40
43.05000305175781
 50
252.9560185727536
 51
287.0440173994265
  0
ARC
  8
0
  6
CONTINUOUS
 62
     7
 10
45.05506896972656
 20
11.52499961853027
 40
9.25
 50
56.10670846538022
 51
90.00003665542401
  0
ARC
  8
0
  6
CONTINUOUS
 62
     7
 10
40.83857727050781
 20
8.875
 40
13.94999980926514
 50
359.9999813306654
 51
47.68027676557881
  0
ARC
  8
0
  6
CONTINUOUS
 62
     7
 10
23.52157592773438
 20
8.875
 40
13.94999980926514
 50
132.3197248282829
 51
180.0000186693354
  0
ARC
  8
0
  6
CONTINUOUS
 62
     7
 10
19.30506896972656
 20
11.52499961853027
 40
9.25
 50
89.99998201391065
 51
123.8932931284815
  0
ARC
  8
0
  6
CONTINUOUS
 62
     7
 10
21.40507507324219
 20
-16.72500610351563
 40
4.049999237060547
 50
270.00001798609
 51
360
  0
ARC
  8
0
  6
CONTINUOUS
 62
     7
 10
42.955078125
 20
-16.72500610351563
 40
4.049999237060547
 50
180.0000186693354
 51
270.0000006832461
  0
ARC
  8
0
  6
CONTINUOUS
 62
     7
 10
66.55491638183594
 20
0
 40
48.44999694824219
 50
347.4353854934258
 51
12.56463499714245
  0
ARC
  8
0
  6
CONTINUOUS
 62
     7
 10
98.37419128417969
 20
-7.091827392578125
 40
15.84999942779541
 50
270.9642767723558
 51
347.4353650028583
  0
ARC
  8
0
  6
CONTINUOUS
 62
     7
 10
98.90263366699219
 20
-7.091827392578125
 40
15.84999942779541
 50
192.5646334032814
 51
269.035704558311
  0
ARC
  8
0
  6
CONTINUOUS
 62
     7
 10
130.7219085693359
 20
0
 40
48.44999694824219
 50
167.4353665967193
 51
192.5646161004374
  0
ARC
  8
0
  6
CONTINUOUS
 62
     7
 10
98.90263366699219
 20
7.091827392578125
 40
15.84999942779541
 50
90.95517030895863
 51
167.4353665967193
  0
ARC
  8
0
  6
CONTINUOUS
 62
     7
 10
98.37419128417969
 20
7.091827392578125
 40
15.84999942779541
 50
12.56463499714245
 51
89.04484836037608
  0
ARC
  8
0
  6
CONTINUOUS
 62
     7
 10
103.3281097412109
 20
1.888778686523438
 40
27.05000305175781
 50
11.71795108724933
 51
72.95598260057419
  0
ARC
  8
0
  6
CONTINUOUS
 62
     7
 10
94.221923828125
 20
0
 40
36.35000610351563
 50
348.2820318372785
 51
11.71796816272225
  0
ARC
  8
0
  6
CONTINUOUS
 62
     7
 10
103.3281097412109
 20
-1.888778686523438
 40
27.05000305175781
 50
287.0440173994265
 51
348.2820420825622
  0
ARC
  8
0
  6
CONTINUOUS
 62
     7
 10
98.63841247558594
 20
13.40849590301514
 40
43.05000305175781
 50
252.9560185727536
 51
287.0440173994265
  0
ARC
  8
0
  6
CONTINUOUS
 62
     7
 10
93.94871520996094
 20
-1.888778686523438
 40
27.05000305175781
 50
191.7179631537667
 51
252.9559639312402
  0
ARC
  8
0
  6
CONTINUOUS
 62
     7
 10
103.0549011230469
 20
0
 40
36.35000610351563
 50
168.2820368462341
 51
191.7179458509226
  0
ARC
  8
0
  6
CONTINUOUS
 62
     7
 10
93.94871520996094
 20
1.888778686523438
 40
27.05000305175781
 50
107.0440360687605
 51
168.2820368462341
  0
ARC
  8
0
  6
CONTINUOUS
 62
     7
 10
98.63841247558594
 20
-13.40849304199219
 40
43.05000305175781
 50
72.95598260057422
 51
107.0440360687605
  0
ENDBLK
  8
0
  0
BLOCK
  8
0
  2
KOZU0002
 70
    64
 10
0
 20
0
  0
LINE
  8
0
  6
CONTINUOUS
 62
     7
 10
-149.8222000532985
 20
211.742150256471
 11
-149.8222000532985
 21
222.4087104295055
  0
LINE
  8
0
  6
CONTINUOUS
 62
     7
 10
-149.8222000532985
 20
222.4087104295057
 11
-189.8218007021785
 21
222.4087104295057
  0
LINE
  8
0
  6
CONTINUOUS
 62
     7
 10
-149.8222000532985
 20
211.742150256471
 11
-189.8218007021785
 21
211.742150256471
  0
LINE
  8
0
  6
CONTINUOUS
 62
     7
 10
-189.8218007021785
 20
211.742150256471
 11
-189.8218007021785
 21
222.4087104295055
  0
LINE
  8
0
  6
CONTINUOUS
 62
     7
 10
-149.8222000532985
 20
211.742150256471
 11
-149.8222000532985
 21
222.4087104295055
  0
LINE
  8
0
  6
CONTINUOUS
 62
     7
 10
-148.1555500262618
 20
212.2421452645819
 11
-148.1555500262618
 21
221.9087154213945
  0
LINE
  8
0
  6
CONTINUOUS
 62
     7
 10
-149.8222000532985
 20
211.742150256471
 11
-148.6555450343728
 21
211.742150256471
  0
LINE
  8
0
  6
CONTINUOUS
 62
     7
 10
-149.8222000532985
 20
222.4087104295057
 11
-148.6555450343728
 21
222.4087104295057
  0
LINE
  8
0
  6
CENTER
 62
     7
 10
-143.1555999451517
 20
217.0754303429883
 11
-353.1535033517719
 21
217.0754303429883
  0
LINE
  8
0
  6
CENTER
 62
     7
 10
-173.1553004318118
 20
202.0755800996582
 11
-173.1553004318118
 21
232.0752805863182
  0
LINE
  8
0
  6
CENTER
 62
     7
 10
-323.1538028651119
 20
232.0752805863182
 11
-323.1538028651119
 21
202.0755800996582
  0
LINE
  8
0
  6
CONTINUOUS
 62
     7
 10
-189.8218007021785
 20
222.4087104295057
 11
-306.4873025947452
 21
222.4087104295057
  0
LINE
  8
0
  6
CONTINUOUS
 62
     7
 10
-189.8218007021785
 20
211.742150256471
 11
-306.4873025947452
 21
211.742150256471
  0
LINE
  8
0
  6
CONTINUOUS
 62
     7
 10
-189.8218007021785
 20
211.742150256471
 11
-189.8218007021785
 21
222.4087104295055
  0
LINE
  8
0
  6
CONTINUOUS
 62
     7
 10
-306.4873025947452
 20
211.742150256471
 11
-306.4873025947452
 21
222.4087104295055
  0
LINE
  8
0
  6
CONTINUOUS
 62
     7
 10
-346.4869032436253
 20
222.4087104295055
 11
-346.4869032436253
 21
211.742150256471
  0
LINE
  8
0
  6
CONTINUOUS
 62
     7
 10
-348.1535532706619
 20
221.9087154213945
 11
-348.1535532706619
 21
212.2421452645819
  0
LINE
  8
0
  6
CONTINUOUS
 62
     7
 10
-346.4869032436252
 20
222.4087104295057
 11
-347.6535582625509
 21
222.4087104295057
  0
LINE
  8
0
  6
CONTINUOUS
 62
     7
 10
-346.4869032436252
 20
211.742150256471
 11
-347.6535582625509
 21
211.742150256471
  0
LINE
  8
0
  6
CONTINUOUS
 62
     7
 10
-346.4869032436253
 20
211.742150256471
 11
-346.4869032436253
 21
222.4087104295055
  0
LINE
  8
0
  6
CONTINUOUS
 62
     7
 10
-346.4869032436252
 20
222.4087104295057
 11
-306.4873025947452
 21
222.4087104295057
  0
LINE
  8
0
  6
CONTINUOUS
 62
     7
 10
-346.4869032436252
 20
211.742150256471
 11
-306.4873025947452
 21
211.742150256471
  0
LINE
  8
0
  6
CONTINUOUS
 62
     7
 10
-306.4873025947452
 20
211.742150256471
 11
-306.4873025947452
 21
222.4087104295055
  0
ARC
  8
0
  6
CONTINUOUS
 62
     7
 10
-173.1553004318118
 20
217.0754303429883
 40
9.999900162220001
 50
32.23095263550213
 51
147.7690473644979
  0
ARC
  8
0
  6
CONTINUOUS
 62
     7
 10
-173.1553004318118
 20
217.0754303429883
 40
9.999900162219998
 50
212.2309526355028
 51
327.7690473644986
  0
ARC
  8
0
  6
CONTINUOUS
 62
     7
 10
-148.6555450343728
 20
221.9087154213947
 40
0.4999950081110002
 50
0
 51
90.00000000000019
  0
ARC
  8
0
  6
CONTINUOUS
 62
     7
 10
-148.6555450343728
 20
212.242145264582
 40
0.4999950081110002
 50
270.0000000000005
 51
360
  0
ARC
  8
0
  6
CONTINUOUS
 62
     7
 10
-323.1538028651119
 20
217.0754303429883
 40
9.999900162220001
 50
32.23095263550204
 51
147.769047364498
  0
ARC
  8
0
  6
CONTINUOUS
 62
     7
 10
-323.1538028651119
 20
217.0754303429883
 40
9.999900162219998
 50
212.2309526355028
 51
327.7690473644987
  0
ARC
  8
0
  6
CONTINUOUS
 62
     7
 10
-347.6535582625509
 20
212.242145264582
 40
0.4999950081110002
 50
180.0000000000004
 51
270.0000000000005
  0
ARC
  8
0
  6
CONTINUOUS
 62
     7
 10
-347.6535582625509
 20
221.9087154213947
 40
0.4999950081110002
 50
90.00000000000019
 51
180.0000000000004
  0
ENDBLK
  8
0
  0
BLOCK
  8
0
  2
KOZU0003
 70
    64
 10
0
 20
0
  0
LINE
  8
0
  6
CONTINUOUS
 62
     7
 10
-171.6553154074788
 20
151.5353863667402
 11
-174.6552854561448
 21
151.5353863667402
  0
LINE
  8
0
  6
CONTINUOUS
 62
     7
 10
-174.6552854561448
 20
151.5353863667401
 11
-174.6552854561448
 21
118.4087337249876
  0
LINE
  8
0
  6
CONTINUOUS
 62
     7
 10
-171.6553154074788
 20
151.5353863667401
 11
-171.6553154074788
 21
118.4087337249876
  0
LINE
  8
0
  6
CONTINUOUS
 62
     7
 10
-163.3220652722955
 20
115.4087636763216
 11
-182.9885355913282
 21
115.4087636763216
  0
LINE
  8
0
  6
CONTINUOUS
 62
     7
 10
-183.1552005940318
 20
115.5754286790253
 11
-183.1552005940318
 21
118.2087357217432
  0
LINE
  8
0
  6
CONTINUOUS
 62
     7
 10
-163.3553982728363
 20
118.4087337249876
 11
-182.9552025907874
 21
118.4087337249876
  0
LINE
  8
0
  6
CONTINUOUS
 62
     7
 10
-163.1554002695918
 20
115.5754286790253
 11
-163.1554002695918
 21
118.2087357217432
  0
LINE
  8
0
  6
CONTINUOUS
 62
     7
 10
-149.8222000532985
 20
150.0750509594242
 11
-149.8222000532985
 21
160.741611132459
  0
LINE
  8
0
  6
CONTINUOUS
 62
     7
 10
-149.8222000532985
 20
160.741611132459
 11
-189.8218007021785
 21
160.741611132459
  0
LINE
  8
0
  6
CONTINUOUS
 62
     7
 10
-149.8222000532985
 20
150.0750509594243
 11
-171.6553154074788
 21
150.0750509594243
  0
LINE
  8
0
  6
CONTINUOUS
 62
     7
 10
-174.6552854561448
 20
150.0750509594243
 11
-189.8218007021785
 21
150.0750509594243
  0
LINE
  8
0
  6
CONTINUOUS
 62
     7
 10
-189.8218007021785
 20
150.0750509594242
 11
-189.8218007021785
 21
160.741611132459
  0
LINE
  8
0
  6
CONTINUOUS
 62
     7
 10
-149.8222000532985
 20
150.0750509594242
 11
-149.8222000532985
 21
160.741611132459
  0
LINE
  8
0
  6
CONTINUOUS
 62
     7
 10
-148.1555500262618
 20
150.5750459675352
 11
-148.1555500262618
 21
160.241616124348
  0
LINE
  8
0
  6
CONTINUOUS
 62
     7
 10
-149.8222000532985
 20
150.0750509594243
 11
-148.6555450343728
 21
150.0750509594243
  0
LINE
  8
0
  6
CONTINUOUS
 62
     7
 10
-149.8222000532985
 20
160.741611132459
 11
-148.6555450343728
 21
160.741611132459
  0
LINE
  8
0
  6
CENTER
 62
     7
 10
-143.1555999451517
 20
155.4083310459416
 11
-353.1535033517719
 21
155.4083310459416
  0
LINE
  8
0
  6
CENTER
 62
     7
 10
-173.1553004318119
 20
110.4088135952116
 11
-173.1553004318118
 21
155.4083310459416
  0
LINE
  8
0
  6
CENTER
 62
     7
 10
-323.1538028651119
 20
110.4088135952117
 11
-323.1538028651119
 21
155.4083310459416
  0
LINE
  8
0
  6
CONTINUOUS
 62
     7
 10
-189.8218007021785
 20
160.741611132459
 11
-306.4873025947452
 21
160.741611132459
  0
LINE
  8
0
  6
CONTINUOUS
 62
     7
 10
-189.8218007021785
 20
150.0750509594243
 11
-306.4873025947452
 21
150.0750509594243
  0
LINE
  8
0
  6
CONTINUOUS
 62
     7
 10
-189.8218007021785
 20
150.0750509594242
 11
-189.8218007021785
 21
160.741611132459
  0
LINE
  8
0
  6
CONTINUOUS
 62
     7
 10
-306.4873025947452
 20
150.0750509594242
 11
-306.4873025947452
 21
160.741611132459
  0
LINE
  8
0
  6
CENTER
 62
     7
 10
-309.8206026488185
 20
146.6750849042694
 11
-309.8206026488185
 21
158.4083010946075
  0
LINE
  8
0
  6
CENTER
 62
     7
 10
-186.4885006481052
 20
146.6750849042694
 11
-186.4885006481052
 21
158.4083010946075
  0
LINE
  8
0
  6
CONTINUOUS
 62
     7
 10
-176.7052649894
 20
115.4087636763216
 11
-176.7052649894
 21
104.2602104817906
  0
LINE
  8
0
  6
CONTINUOUS
 62
     7
 10
-175.6052759715558
 20
115.4087636763216
 11
-175.6052759715558
 21
104.2602104817906
  0
LINE
  8
0
  6
CONTINUOUS
 62
     7
 10
-176.7052649894
 20
104.2602104817905
 11
-176.1552704804778
 21
102.9324062791199
  0
LINE
  8
0
  6
CONTINUOUS
 62
     7
 10
-175.605275971556
 20
104.2602104817907
 11
-176.1552704804782
 21
102.9324062791201
  0
LINE
  8
0
  6
CONTINUOUS
 62
     7
 10
-176.0837820841575
 20
115.4087636763217
 11
-176.9052629926444
 21
114.9344814526727
  0
LINE
  8
0
  6
CONTINUOUS
 62
     7
 10
-175.4052779683115
 20
115.2231537051991
 11
-176.9052629926445
 21
114.3571369476201
  0
LINE
  8
0
  6
CONTINUOUS
 62
     7
 10
-175.4052779683115
 20
114.6458092001465
 11
-176.9052629926445
 21
113.7797924425674
  0
LINE
  8
0
  6
CONTINUOUS
 62
     7
 10
-175.4052779683116
 20
114.0684646950938
 11
-176.9052629926446
 21
113.2024479375148
  0
LINE
  8
0
  6
CONTINUOUS
 62
     7
 10
-175.4052779683115
 20
113.4911201900411
 11
-176.9052629926445
 21
112.625103432462
  0
LINE
  8
0
  6
CONTINUOUS
 62
     7
 10
-175.4052779683115
 20
112.9137756849884
 11
-176.9052629926445
 21
112.0477589274093
  0
LINE
  8
0
  6
CONTINUOUS
 62
     7
 10
-175.4052779683115
 20
112.3364311799357
 11
-176.9052629926445
 21
111.4704144223566
  0
LINE
  8
0
  6
CONTINUOUS
 62
     7
 10
-175.4052779683116
 20
111.7590866748829
 11
-176.9052629926446
 21
110.8930699173038
  0
LINE
  8
0
  6
CONTINUOUS
 62
     7
 10
-175.4052779683115
 20
111.1817421698301
 11
-176.9052629926445
 21
110.3157254122511
  0
LINE
  8
0
  6
CONTINUOUS
 62
     7
 10
-175.4052779683115
 20
110.6043976647775
 11
-176.9052629926445
 21
109.7383809071985
  0
LINE
  8
0
  6
CONTINUOUS
 62
     7
 10
-175.4052779683114
 20
110.0270531597247
 11
-176.9052629926445
 21
109.1610364021457
  0
LINE
  8
0
  6
CONTINUOUS
 62
     7
 10
-175.4052779683118
 20
109.4497086546723
 11
-176.9052629926447
 21
108.5836918970934
  0
LINE
  8
0
  6
CONTINUOUS
 62
     7
 10
-175.4052779683115
 20
108.8723641496194
 11
-176.9052629926445
 21
108.0063473920403
  0
LINE
  8
0
  6
CONTINUOUS
 62
     7
 10
-175.4052779683116
 20
108.2950196445667
 11
-176.9052629926446
 21
107.4290028869876
  0
LINE
  8
0
  6
CONTINUOUS
 62
     7
 10
-175.4052779683115
 20
107.717675139514
 11
-176.9052629926445
 21
106.8516583819349
  0
LINE
  8
0
  6
CONTINUOUS
 62
     7
 10
-175.4052779683115
 20
107.1403306344611
 11
-176.9052629926445
 21
106.274313876882
  0
LINE
  8
0
  6
CONTINUOUS
 62
     7
 10
-175.4052779683115
 20
106.5629861294085
 11
-176.9052629926445
 21
105.6969693718294
  0
LINE
  8
0
  6
CONTINUOUS
 62
     7
 10
-175.4052779683116
 20
105.9856416243559
 11
-176.9052629926446
 21
105.1196248667768
  0
LINE
  8
0
  6
CONTINUOUS
 62
     7
 10
-175.4052779683116
 20
105.4082971193031
 11
-176.9052629926446
 21
104.542280361724
  0
LINE
  8
0
  6
CONTINUOUS
 62
     7
 10
-175.4052779683114
 20
104.8309526142503
 11
-176.8198586478909
 21
104.0142440781046
  0
LINE
  8
0
  6
CONTINUOUS
 62
     7
 10
-175.4052779683116
 20
104.2536081091977
 11
-176.6268677783795
 21
103.5483229035157
  0
LINE
  8
0
  6
CONTINUOUS
 62
     7
 10
-175.7015247294985
 20
103.5052254568267
 11
-176.4338769088677
 21
103.0824017289263
  0
LINE
  8
0
  6
CONTINUOUS
 62
     7
 10
-176.0837820841575
 20
115.4087636763217
 11
-176.9052629926444
 21
114.9344814526727
  0
LINE
  8
0
  6
CENTER
 62
     7
 10
-176.1552704804778
 20
121.4087037736536
 11
-176.1552704804778
 21
97.93245619800987
  0
LINE
  8
0
  6
CONTINUOUS
 62
     7
 10
-326.7037674226999
 20
115.4087636763216
 11
-326.7037674226999
 21
104.2602104817906
  0
LINE
  8
0
  6
CONTINUOUS
 62
     7
 10
-325.6037784048558
 20
115.4087636763216
 11
-325.6037784048558
 21
104.2602104817906
  0
LINE
  8
0
  6
CONTINUOUS
 62
     7
 10
-326.7037674227003
 20
104.2602104817905
 11
-326.1537729137781
 21
102.9324062791199
  0
LINE
  8
0
  6
CONTINUOUS
 62
     7
 10
-325.6037784048559
 20
104.2602104817907
 11
-326.153772913778
 21
102.9324062791201
  0
LINE
  8
0
  6
CONTINUOUS
 62
     7
 10
-326.0822845174573
 20
115.4087636763216
 11
-326.9037654259441
 21
114.9344814526726
  0
LINE
  8
0
  6
CONTINUOUS
 62
     7
 10
-325.4037804016115
 20
115.2231537051993
 11
-326.9037654259445
 21
114.3571369476203
  0
LINE
  8
0
  6
CONTINUOUS
 62
     7
 10
-325.4037804016116
 20
114.6458092001467
 11
-326.9037654259445
 21
113.7797924425676
  0
LINE
  8
0
  6
CONTINUOUS
 62
     7
 10
-325.4037804016116
 20
114.068464695094
 11
-326.9037654259446
 21
113.2024479375149
  0
LINE
  8
0
  6
CONTINUOUS
 62
     7
 10
-325.4037804016115
 20
113.4911201900412
 11
-326.9037654259445
 21
112.6251034324621
  0
LINE
  8
0
  6
CONTINUOUS
 62
     7
 10
-325.4037804016116
 20
112.9137756849884
 11
-326.9037654259446
 21
112.0477589274093
  0
LINE
  8
0
  6
CONTINUOUS
 62
     7
 10
-325.4037804016115
 20
112.3364311799358
 11
-326.9037654259445
 21
111.4704144223567
  0
LINE
  8
0
  6
CONTINUOUS
 62
     7
 10
-325.4037804016117
 20
111.7590866748832
 11
-326.9037654259446
 21
110.8930699173041
  0
LINE
  8
0
  6
CONTINUOUS
 62
     7
 10
-325.4037804016115
 20
111.1817421698302
 11
-326.9037654259445
 21
110.3157254122512
  0
LINE
  8
0
  6
CONTINUOUS
 62
     7
 10
-325.4037804016115
 20
110.6043976647775
 11
-326.9037654259445
 21
109.7383809071985
  0
LINE
  8
0
  6
CONTINUOUS
 62
     7
 10
-325.4037804016114
 20
110.0270531597248
 11
-326.9037654259444
 21
109.1610364021458
  0
LINE
  8
0
  6
CONTINUOUS
 62
     7
 10
-325.4037804016119
 20
109.4497086546727
 11
-326.9037654259449
 21
108.5836918970937
  0
LINE
  8
0
  6
CONTINUOUS
 62
     7
 10
-325.4037804016117
 20
108.8723641496197
 11
-326.9037654259447
 21
108.0063473920406
  0
LINE
  8
0
  6
CONTINUOUS
 62
     7
 10
-325.4037804016116
 20
108.2950196445668
 11
-326.9037654259446
 21
107.4290028869877
  0
LINE
  8
0
  6
CONTINUOUS
 62
     7
 10
-325.4037804016116
 20
107.717675139514
 11
-326.9037654259446
 21
106.8516583819349
  0
LINE
  8
0
  6
CONTINUOUS
 62
     7
 10
-325.4037804016115
 20
107.1403306344611
 11
-326.9037654259445
 21
106.274313876882
  0
LINE
  8
0
  6
CONTINUOUS
 62
     7
 10
-325.4037804016116
 20
106.5629861294087
 11
-326.9037654259445
 21
105.6969693718296
  0
LINE
  8
0
  6
CONTINUOUS
 62
     7
 10
-325.4037804016116
 20
105.9856416243561
 11
-326.9037654259447
 21
105.1196248667769
  0
LINE
  8
0
  6
CONTINUOUS
 62
     7
 10
-325.4037804016114
 20
105.4082971193032
 11
-326.9037654259444
 21
104.5422803617241
  0
LINE
  8
0
  6
CONTINUOUS
 62
     7
 10
-325.4037804016116
 20
104.8309526142507
 11
-326.8183610811911
 21
104.014244078105
  0
LINE
  8
0
  6
CONTINUOUS
 62
     7
 10
-325.4037804016117
 20
104.2536081091979
 11
-326.6253702116796
 21
103.5483229035159
  0
LINE
  8
0
  6
CONTINUOUS
 62
     7
 10
-325.7000271627989
 20
103.5052254568272
 11
-326.4323793421681
 21
103.0824017289268
  0
LINE
  8
0
  6
CONTINUOUS
 62
     7
 10
-326.0822845174573
 20
115.4087636763214
 11
-326.9037654259441
 21
114.9344814526724
  0
LINE
  8
0
  6
CENTER
 62
     7
 10
-326.1537729137779
 20
121.4087037736536
 11
-326.1537729137779
 21
97.93245619800987
  0
LINE
  8
0
  6
CONTINUOUS
 62
     7
 10
-170.705324892068
 20
115.4087636763216
 11
-170.705324892068
 21
104.2602104817906
  0
LINE
  8
0
  6
CONTINUOUS
 62
     7
 10
-169.6053358742238
 20
115.4087636763216
 11
-169.6053358742238
 21
104.2602104817906
  0
LINE
  8
0
  6
CONTINUOUS
 62
     7
 10
-170.7053248920679
 20
104.2602104817906
 11
-170.1553303831458
 21
102.93240627912
  0
LINE
  8
0
  6
CONTINUOUS
 62
     7
 10
-169.605335874224
 20
104.2602104817907
 11
-170.155330383146
 21
102.93240627912
  0
LINE
  8
0
  6
CONTINUOUS
 62
     7
 10
-170.0838419868258
 20
115.4087636763219
 11
-170.9053228953127
 21
114.9344814526728
  0
LINE
  8
0
  6
CONTINUOUS
 62
     7
 10
-169.4053378709795
 20
115.2231537051992
 11
-170.9053228953125
 21
114.3571369476201
  0
LINE
  8
0
  6
CONTINUOUS
 62
     7
 10
-169.4053378709794
 20
114.6458092001465
 11
-170.9053228953125
 21
113.7797924425674
  0
LINE
  8
0
  6
CONTINUOUS
 62
     7
 10
-169.4053378709796
 20
114.0684646950937
 11
-170.9053228953125
 21
113.2024479375147
  0
LINE
  8
0
  6
CONTINUOUS
 62
     7
 10
-169.4053378709796
 20
113.491120190041
 11
-170.9053228953125
 21
112.6251034324619
  0
LINE
  8
0
  6
CONTINUOUS
 62
     7
 10
-169.4053378709795
 20
112.9137756849882
 11
-170.9053228953125
 21
112.0477589274091
  0
LINE
  8
0
  6
CONTINUOUS
 62
     7
 10
-169.4053378709794
 20
112.3364311799355
 11
-170.9053228953124
 21
111.4704144223565
  0
LINE
  8
0
  6
CONTINUOUS
 62
     7
 10
-169.4053378709794
 20
111.7590866748827
 11
-170.9053228953123
 21
110.8930699173037
  0
LINE
  8
0
  6
CONTINUOUS
 62
     7
 10
-169.4053378709794
 20
111.18174216983
 11
-170.9053228953124
 21
110.315725412251
  0
LINE
  8
0
  6
CONTINUOUS
 62
     7
 10
-169.4053378709794
 20
110.6043976647773
 11
-170.9053228953124
 21
109.7383809071984
  0
LINE
  8
0
  6
CONTINUOUS
 62
     7
 10
-169.4053378709795
 20
110.0270531597246
 11
-170.9053228953125
 21
109.1610364021456
  0
LINE
  8
0
  6
CONTINUOUS
 62
     7
 10
-169.4053378709796
 20
109.4497086546721
 11
-170.9053228953126
 21
108.583691897093
  0
LINE
  8
0
  6
CONTINUOUS
 62
     7
 10
-169.4053378709795
 20
108.8723641496193
 11
-170.9053228953125
 21
108.0063473920402
  0
LINE
  8
0
  6
CONTINUOUS
 62
     7
 10
-169.4053378709795
 20
108.2950196445666
 11
-170.9053228953125
 21
107.4290028869875
  0
LINE
  8
0
  6
CONTINUOUS
 62
     7
 10
-169.4053378709794
 20
107.7176751395139
 11
-170.9053228953124
 21
106.8516583819348
  0
LINE
  8
0
  6
CONTINUOUS
 62
     7
 10
-169.4053378709794
 20
107.1403306344611
 11
-170.9053228953124
 21
106.274313876882
  0
LINE
  8
0
  6
CONTINUOUS
 62
     7
 10
-169.4053378709795
 20
106.5629861294085
 11
-170.9053228953125
 21
105.6969693718294
  0
LINE
  8
0
  6
CONTINUOUS
 62
     7
 10
-169.4053378709795
 20
105.9856416243557
 11
-170.9053228953125
 21
105.1196248667767
  0
LINE
  8
0
  6
CONTINUOUS
 62
     7
 10
-169.4053378709796
 20
105.408297119303
 11
-170.9053228953125
 21
104.5422803617239
  0
LINE
  8
0
  6
CONTINUOUS
 62
     7
 10
-169.4053378709795
 20
104.8309526142502
 11
-170.819918550559
 21
104.0142440781046
  0
LINE
  8
0
  6
CONTINUOUS
 62
     7
 10
-169.4053378709796
 20
104.2536081091976
 11
-170.6269276810475
 21
103.5483229035156
  0
LINE
  8
0
  6
CONTINUOUS
 62
     7
 10
-169.7015846321665
 20
103.5052254568269
 11
-170.4339368115358
 21
103.0824017289264
  0
LINE
  8
0
  6
CONTINUOUS
 62
     7
 10
-170.0838419868258
 20
115.4087636763219
 11
-170.9053228953127
 21
114.9344814526728
  0
LINE
  8
0
  6
CONTINUOUS
 62
     7
 10
-320.7038273253679
 20
115.4087636763216
 11
-320.7038273253679
 21
104.2602104817906
  0
LINE
  8
0
  6
CONTINUOUS
 62
     7
 10
-319.6038383075238
 20
115.4087636763216
 11
-319.6038383075238
 21
104.2602104817906
  0
LINE
  8
0
  6
CONTINUOUS
 62
     7
 10
-320.7038273253681
 20
104.2602104817904
 11
-320.1538328164461
 21
102.9324062791198
  0
LINE
  8
0
  6
CONTINUOUS
 62
     7
 10
-319.6038383075241
 20
104.2602104817907
 11
-320.1538328164462
 21
102.9324062791201
  0
LINE
  8
0
  6
CONTINUOUS
 62
     7
 10
-320.0823444201258
 20
115.4087636763221
 11
-320.9038253286127
 21
114.934481452673
  0
LINE
  8
0
  6
CONTINUOUS
 62
     7
 10
-319.4038403042796
 20
115.2231537051992
 11
-320.9038253286126
 21
114.3571369476201
  0
LINE
  8
0
  6
CONTINUOUS
 62
     7
 10
-319.4038403042796
 20
114.6458092001466
 11
-320.9038253286126
 21
113.7797924425675
  0
LINE
  8
0
  6
CONTINUOUS
 62
     7
 10
-319.4038403042795
 20
114.0684646950939
 11
-320.9038253286125
 21
113.2024479375148
  0
LINE
  8
0
  6
CONTINUOUS
 62
     7
 10
-319.4038403042795
 20
113.4911201900413
 11
-320.9038253286126
 21
112.6251034324621
  0
LINE
  8
0
  6
CONTINUOUS
 62
     7
 10
-319.4038403042796
 20
112.9137756849885
 11
-320.9038253286126
 21
112.0477589274094
  0
LINE
  8
0
  6
CONTINUOUS
 62
     7
 10
-319.4038403042795
 20
112.3364311799354
 11
-320.9038253286125
 21
111.4704144223564
  0
LINE
  8
0
  6
CONTINUOUS
 62
     7
 10
-319.4038403042794
 20
111.7590866748829
 11
-320.9038253286124
 21
110.8930699173039
  0
LINE
  8
0
  6
CONTINUOUS
 62
     7
 10
-319.4038403042796
 20
111.1817421698303
 11
-320.9038253286126
 21
110.3157254122513
  0
LINE
  8
0
  6
CONTINUOUS
 62
     7
 10
-319.4038403042796
 20
110.6043976647775
 11
-320.9038253286125
 21
109.7383809071985
  0
LINE
  8
0
  6
CONTINUOUS
 62
     7
 10
-319.4038403042795
 20
110.0270531597248
 11
-320.9038253286125
 21
109.1610364021458
  0
LINE
  8
0
  6
CONTINUOUS
 62
     7
 10
-319.4038403042796
 20
109.4497086546723
 11
-320.9038253286126
 21
108.5836918970932
  0
LINE
  8
0
  6
CONTINUOUS
 62
     7
 10
-319.4038403042797
 20
108.8723641496196
 11
-320.9038253286127
 21
108.0063473920405
  0
LINE
  8
0
  6
CONTINUOUS
 62
     7
 10
-319.4038403042795
 20
108.2950196445669
 11
-320.9038253286125
 21
107.4290028869878
  0
LINE
  8
0
  6
CONTINUOUS
 62
     7
 10
-319.4038403042796
 20
107.7176751395142
 11
-320.9038253286126
 21
106.8516583819351
  0
LINE
  8
0
  6
CONTINUOUS
 62
     7
 10
-319.4038403042795
 20
107.1403306344613
 11
-320.9038253286126
 21
106.2743138768822
  0
LINE
  8
0
  6
CONTINUOUS
 62
     7
 10
-319.4038403042796
 20
106.5629861294087
 11
-320.9038253286126
 21
105.6969693718296
  0
LINE
  8
0
  6
CONTINUOUS
 62
     7
 10
-319.4038403042796
 20
105.985641624356
 11
-320.9038253286126
 21
105.119624866777
  0
LINE
  8
0
  6
CONTINUOUS
 62
     7
 10
-319.4038403042794
 20
105.4082971193032
 11
-320.9038253286125
 21
104.5422803617241
  0
LINE
  8
0
  6
CONTINUOUS
 62
     7
 10
-319.4038403042798
 20
104.8309526142507
 11
-320.8184209838593
 21
104.014244078105
  0
LINE
  8
0
  6
CONTINUOUS
 62
     7
 10
-319.4038403042796
 20
104.2536081091978
 11
-320.6254301143475
 21
103.5483229035157
  0
LINE
  8
0
  6
CONTINUOUS
 62
     7
 10
-319.7000870654666
 20
103.5052254568269
 11
-320.4324392448357
 21
103.0824017289265
  0
LINE
  8
0
  6
CONTINUOUS
 62
     7
 10
-320.0823444201258
 20
115.4087636763221
 11
-320.9038253286127
 21
114.934481452673
  0
LINE
  8
0
  6
CENTER
 62
     7
 10
-320.1538328164459
 20
121.4087037736536
 11
-320.1538328164459
 21
97.93245619800987
  0
LINE
  8
0
  6
CENTER
 62
     7
 10
-170.1553303831458
 20
121.4087037736536
 11
-170.1553303831458
 21
97.93245619800987
  0
LINE
  8
0
  6
CONTINUOUS
 62
     7
 10
-324.6537878894449
 20
151.5353863667402
 11
-321.6538178407789
 21
151.5353863667402
  0
LINE
  8
0
  6
CONTINUOUS
 62
     7
 10
-321.6538178407789
 20
151.5353863667401
 11
-321.6538178407789
 21
118.4087337249876
  0
LINE
  8
0
  6
CONTINUOUS
 62
     7
 10
-324.6537878894449
 20
151.5353863667401
 11
-324.6537878894449
 21
118.4087337249876
  0
LINE
  8
0
  6
CONTINUOUS
 62
     7
 10
-332.9870380246282
 20
115.4087636763216
 11
-313.3205677055955
 21
115.4087636763216
  0
LINE
  8
0
  6
CONTINUOUS
 62
     7
 10
-313.1539027028919
 20
115.5754286790253
 11
-313.1539027028919
 21
118.2087357217432
  0
LINE
  8
0
  6
CONTINUOUS
 62
     7
 10
-332.9537050240874
 20
118.4087337249876
 11
-313.3539007061362
 21
118.4087337249876
  0
LINE
  8
0
  6
CONTINUOUS
 62
     7
 10
-333.1537030273319
 20
115.5754286790253
 11
-333.1537030273319
 21
118.2087357217432
  0
LINE
  8
0
  6
CONTINUOUS
 62
     7
 10
-346.4869032436253
 20
160.741611132459
 11
-346.4869032436253
 21
150.0750509594242
  0
LINE
  8
0
  6
CONTINUOUS
 62
     7
 10
-348.1535532706619
 20
160.241616124348
 11
-348.1535532706619
 21
150.5750459675352
  0
LINE
  8
0
  6
CONTINUOUS
 62
     7
 10
-346.4869032436252
 20
160.741611132459
 11
-347.6535582625509
 21
160.741611132459
  0
LINE
  8
0
  6
CONTINUOUS
 62
     7
 10
-346.4869032436252
 20
150.0750509594243
 11
-347.6535582625509
 21
150.0750509594243
  0
LINE
  8
0
  6
CONTINUOUS
 62
     7
 10
-346.4869032436253
 20
150.0750509594242
 11
-346.4869032436253
 21
160.741611132459
  0
LINE
  8
0
  6
CONTINUOUS
 62
     7
 10
-346.4869032436252
 20
160.741611132459
 11
-306.4873025947452
 21
160.741611132459
  0
LINE
  8
0
  6
CONTINUOUS
 62
     7
 10
-346.4869032436252
 20
150.0750509594243
 11
-324.6537878894449
 21
150.0750509594243
  0
LINE
  8
0
  6
CONTINUOUS
 62
     7
 10
-321.6538178407789
 20
150.0750509594243
 11
-306.4873025947452
 21
150.0750509594243
  0
LINE
  8
0
  6
CONTINUOUS
 62
     7
 10
-306.4873025947452
 20
150.0750509594242
 11
-306.4873025947452
 21
160.741611132459
  0
LINE
  8
0
  6
CONTINUOUS
 62
     7
 10
-299.4471914044894
 20
154.9209752752488
 11
-300.4367648580425
 21
154.9209752752488
  0
LINE
  8
0
  6
CONTINUOUS
 62
     7
 10
-299.941978131266
 20
154.9209752752487
 11
-299.941978131266
 21
154.5824369885069
  0
LINE
  8
0
  6
CONTINUOUS
 62
     7
 10
-298.8482390510231
 20
155.051182308611
 11
-299.4211499978171
 21
155.051182308611
  0
LINE
  8
0
  6
CONTINUOUS
 62
     7
 10
-299.7336468778864
 20
155.2074307486457
 11
-300.1503093846455
 21
155.2074307486457
  0
LINE
  8
0
  6
CONTINUOUS
 62
     7
 10
-299.186777337765
 20
156.2490870155436
 11
-299.186777337765
 21
154.5824369885069
  0
LINE
  8
0
  6
CONTINUOUS
 62
     7
 10
-300.2284336046629
 20
156.1970042021989
 11
-300.4888476713874
 21
156.1970042021989
  0
LINE
  8
0
  6
CONTINUOUS
 62
     7
 10
-300.8013445514567
 20
154.816809648559
 11
-302.441953171821
 21
154.816809648559
  0
LINE
  8
0
  6
CONTINUOUS
 62
     7
 10
-301.6346695649751
 20
156.0407557621641
 11
-301.6346695649751
 21
155.3115963753354
  0
LINE
  8
0
  6
CONTINUOUS
 62
     7
 10
-301.3482140915781
 20
154.9990994952661
 11
-301.3482140915781
 21
154.6084783951793
  0
LINE
  8
0
  6
CONTINUOUS
 62
     7
 10
-301.8950836316996
 20
154.9990994952661
 11
-301.8950836316996
 21
154.6084783951793
  0
LINE
  8
0
  6
CONTINUOUS
 62
     7
 10
-301.1659242448711
 20
155.57201044206
 11
-302.0773734784067
 21
155.57201044206
  0
LINE
  8
0
  6
CONTINUOUS
 62
     7
 10
-302.2596633251139
 20
156.1709627955263
 11
-301.0096758048364
 21
156.1709627955263
  0
LINE
  8
0
  6
CONTINUOUS
 62
     7
 10
-301.0096758048364
 20
156.1709627955262
 11
-301.0096758048364
 21
155.0772237152834
  0
LINE
  8
0
  6
CONTINUOUS
 62
     7
 10
-301.0096758048364
 20
155.0772237152835
 11
-302.2596633251139
 21
155.0772237152835
  0
LINE
  8
0
  6
CONTINUOUS
 62
     7
 10
-302.2596633251139
 20
155.0772237152834
 11
-302.2596633251139
 21
156.1709627955262
  0
LINE
  8
0
  6
CONTINUOUS
 62
     7
 10
-303.1540025406717
 20
156.3249885608117
 11
-303.1540025406717
 21
154.4916735310715
  0
LINE
  8
0
  6
CONTINUOUS
 62
     7
 10
-298.3207174622655
 20
156.4916535635155
 11
-302.9873375379681
 21
156.4916535635155
  0
LINE
  8
0
  6
CONTINUOUS
 62
     7
 10
-298.1540524595617
 20
156.3249885608117
 11
-298.1540524595617
 21
154.4916735310715
  0
LINE
  8
0
  6
CONTINUOUS
 62
     7
 10
-298.3207174622655
 20
154.3250085283678
 11
-302.9873375379681
 21
154.3250085283678
  0
LINE
  8
0
  6
CONTINUOUS
 62
     7
 10
-185.1551806264758
 20
149.9750519578021
 11
-187.8218206697345
 21
149.9750519578021
  0
LINE
  8
0
  6
CONTINUOUS
 62
     7
 10
-187.8218206697345
 20
149.9750519578021
 11
-187.8218206697345
 21
150.0750509594242
  0
LINE
  8
0
  6
CONTINUOUS
 62
     7
 10
-185.1551806264758
 20
149.9750519578021
 11
-185.1551806264758
 21
150.0750509594242
  0
LINE
  8
0
  6
CONTINUOUS
 62
     7
 10
-185.1551806264758
 20
150.0750509594243
 11
-187.8218206697345
 21
150.0750509594243
  0
LINE
  8
0
  6
CONTINUOUS
 62
     7
 10
-308.4872826271892
 20
149.9750519578021
 11
-311.1539226704479
 21
149.9750519578021
  0
LINE
  8
0
  6
CONTINUOUS
 62
     7
 10
-311.1539226704479
 20
149.9750519578021
 11
-311.1539226704479
 21
150.0750509594242
  0
LINE
  8
0
  6
CONTINUOUS
 62
     7
 10
-308.4872826271892
 20
149.9750519578021
 11
-308.4872826271892
 21
150.0750509594242
  0
LINE
  8
0
  6
CONTINUOUS
 62
     7
 10
-308.4872826271892
 20
150.0750509594243
 11
-311.1539226704479
 21
150.0750509594243
  0
ARC
  8
0
  6
CONTINUOUS
 62
     7
 10
-182.9552025907874
 20
118.2087357217432
 40
0.1999980032443999
 50
90.00000000000019
 51
180.0000000000004
  0
ARC
  8
0
  6
CONTINUOUS
 62
     7
 10
-163.3553982728363
 20
118.2087357217432
 40
0.1999980032443999
 50
0
 51
90.00000000000019
  0
ARC
  8
0
  6
CONTINUOUS
 62
     7
 10
-182.9885355913282
 20
115.5754286790253
 40
0.1666650027036667
 50
180.0000000000004
 51
270.0000000000005
  0
ARC
  8
0
  6
CONTINUOUS
 62
     7
 10
-163.3220652722955
 20
115.5754286790253
 40
0.1666650027036667
 50
270.0000000000005
 51
360
  0
ARC
  8
0
  6
CONTINUOUS
 62
     7
 10
-148.6555450343728
 20
160.241616124348
 40
0.4999950081110002
 50
0
 51
90.00000000000019
  0
ARC
  8
0
  6
CONTINUOUS
 62
     7
 10
-148.6555450343728
 20
150.5750459675353
 40
0.4999950081110002
 50
270.0000000000005
 51
360
  0
ARC
  8
0
  6
CONTINUOUS
 62
     7
 10
-313.3539007061362
 20
118.2087357217432
 40
0.1999980032443999
 50
0
 51
90.00000000000019
  0
ARC
  8
0
  6
CONTINUOUS
 62
     7
 10
-332.9537050240874
 20
118.2087357217432
 40
0.1999980032443999
 50
90.00000000000019
 51
180.0000000000004
  0
ARC
  8
0
  6
CONTINUOUS
 62
     7
 10
-313.3205677055955
 20
115.5754286790253
 40
0.1666650027036667
 50
270.0000000000005
 51
360
  0
ARC
  8
0
  6
CONTINUOUS
 62
     7
 10
-332.9870380246282
 20
115.5754286790253
 40
0.1666650027036667
 50
180.0000000000004
 51
270.0000000000005
  0
ARC
  8
0
  6
CONTINUOUS
 62
     7
 10
-347.6535582625509
 20
150.5750459675353
 40
0.4999950081110002
 50
180.0000000000004
 51
270.0000000000005
  0
ARC
  8
0
  6
CONTINUOUS
 62
     7
 10
-347.6535582625509
 20
160.241616124348
 40
0.4999950081110002
 50
90.00000000000019
 51
180.0000000000004
  0
ARC
  8
0
  6
CONTINUOUS
 62
     7
 10
-315.1851527681916
 20
156.0927215926274
 40
15.06088479021855
 50
356.6301658590616
 51
0.000445035300431643
  0
ARC
  8
0
  6
CONTINUOUS
 62
     7
 10
-297.8224365076795
 20
155.2585726127261
 40
1.911895737306281
 50
149.7045144771487
 51
181.5328055628328
  0
ARC
  8
0
  6
CONTINUOUS
 62
     7
 10
-298.6285935185142
 20
154.5599813614642
 40
1.244848141224459
 50
101.3828158834977
 51
129.5439621013563
  0
ARC
  8
0
  6
CONTINUOUS
 62
     7
 10
-300.2277723970716
 20
156.0935048693125
 40
0.1035051144790788
 50
359.631172312497
 51
90.36603027213909
  0
ARC
  8
0
  6
CONTINUOUS
 62
     7
 10
-301.2557620116788
 20
153.6128014869376
 40
1.724876031103548
 50
89.61090424696836
 51
114.5785638229696
  0
ARC
  8
0
  6
CONTINUOUS
 62
     7
 10
-300.8581321111243
 20
155.3724274737344
 40
0.7013687999776864
 50
113.6855256709083
 51
163.4673093247144
  0
ARC
  8
0
  6
CONTINUOUS
 62
     7
 10
-302.3883139775305
 20
155.353654264354
 40
0.70993390191898
 50
17.91298677260956
 51
68.61569938961912
  0
ARC
  8
0
  6
CONTINUOUS
 62
     7
 10
-302.9873375379681
 20
156.3249885608118
 40
0.1666650027036667
 50
90.00000000000019
 51
180.0000000000004
  0
ARC
  8
0
  6
CONTINUOUS
 62
     7
 10
-302.9873375379681
 20
154.4916735310715
 40
0.1666650027036667
 50
180.0000000000004
 51
270.0000000000005
  0
ARC
  8
0
  6
CONTINUOUS
 62
     7
 10
-298.3207174622655
 20
154.4916735310715
 40
0.1666650027036667
 50
270.0000000000005
 51
360
  0
ARC
  8
0
  6
CONTINUOUS
 62
     7
 10
-298.3207174622655
 20
156.3249885608118
 40
0.1666650027036667
 50
0
 51
90.00000000000019
  0
ARC
  8
0
  6
CONTINUOUS
 62
     7
 10
-186.4885006481052
 20
152.7879868367673
 40
3.112931883831801
 50
244.6392330163609
 51
295.3607669836405
  0
ARC
  8
0
  6
CONTINUOUS
 62
     7
 10
-309.8206026488185
 20
152.7879868367673
 40
3.112931883831801
 50
244.6392330163609
 51
295.3607669836405
  0
ENDBLK
  8
0
  0
BLOCK
  8
0
  2
KOZU0004
 70
    64
 10
0
 20
0
  0
LINE
  8
0
  6
CONTINUOUS
 62
     7
 10
-89.81167896911263
 20
226.5196949559628
 11
-89.81167896911263
 21
226.7565389633496
  0
LINE
  8
0
  6
CONTINUOUS
 62
     7
 10
-86.47834563577926
 20
226.5196949559628
 11
-86.47834563577926
 21
226.7565389633496
  0
LINE
  8
0
  6
CONTINUOUS
 62
     7
 10
-89.81167896911263
 20
207.6112606239275
 11
-89.81167896911263
 21
207.3744166165407
  0
LINE
  8
0
  6
CONTINUOUS
 62
     7
 10
-86.47834563577926
 20
207.3744166165407
 11
-86.47834563577926
 21
207.6112606239275
  0
LINE
  8
0
  6
CONTINUOUS
 62
     7
 10
-87.47001230244594
 20
213.3904777899452
 11
-88.82001230244596
 21
213.3904777899452
  0
LINE
  8
0
  6
CONTINUOUS
 62
     7
 10
-87.47001230244594
 20
220.7404777899452
 11
-88.82001230244596
 21
220.7404777899452
  0
LINE
  8
0
  6
CONTINUOUS
 62
     7
 10
-89.65334563577933
 20
214.2238111232785
 11
-89.65334563577933
 21
219.9071444566118
  0
LINE
  8
0
  6
CONTINUOUS
 62
     7
 10
-86.63667896911257
 20
214.2238111232785
 11
-86.63667896911257
 21
219.9071444566118
  0
LINE
  8
0
  6
CONTINUOUS
 62
     7
 10
-93.14501230244595
 20
209.2535211421733
 11
-93.14501230244595
 21
213.8165463416755
  0
LINE
  8
0
  6
CONTINUOUS
 62
     7
 10
-89.47834563577926
 20
224.3170303137694
 11
-89.47834563577926
 21
223.7535392981152
  0
LINE
  8
0
  6
CONTINUOUS
 62
     7
 10
-92.81167896911263
 20
224.3170303137694
 11
-92.81167896911263
 21
223.7535392981152
  0
LINE
  8
0
  6
CONTINUOUS
 62
     7
 10
-90.02836459762553
 20
222.578215565854
 11
-92.26166000726626
 21
222.578215565854
  0
LINE
  8
0
  6
CONTINUOUS
 62
     7
 10
-90.02836459762553
 20
211.5527400140365
 11
-92.26166000726626
 21
211.5527400140365
  0
LINE
  8
0
  6
CONTINUOUS
 62
     7
 10
-92.81167896911263
 20
209.8139252661209
 11
-92.81167896911263
 21
210.3774162817751
  0
LINE
  8
0
  6
CONTINUOUS
 62
     7
 10
-89.47834563577926
 20
209.8139252661209
 11
-89.47834563577926
 21
210.3774162817751
  0
LINE
  8
0
  6
CONTINUOUS
 62
     7
 10
-83.47834563577925
 20
224.3170303137694
 11
-83.47834563577925
 21
223.7535392981152
  0
LINE
  8
0
  6
CONTINUOUS
 62
     7
 10
-86.26166000726626
 20
222.578215565854
 11
-84.02836459762551
 21
222.578215565854
  0
LINE
  8
0
  6
CONTINUOUS
 62
     7
 10
-86.81167896911263
 20
224.3170303137694
 11
-86.81167896911263
 21
223.7535392981152
  0
LINE
  8
0
  6
CONTINUOUS
 62
     7
 10
-86.81167896911263
 20
209.8139252661209
 11
-86.81167896911263
 21
210.3774162817751
  0
LINE
  8
0
  6
CONTINUOUS
 62
     7
 10
-86.26166000726626
 20
211.5527400140365
 11
-84.02836459762551
 21
211.5527400140365
  0
LINE
  8
0
  6
CONTINUOUS
 62
     7
 10
-83.47834563577925
 20
209.8139252661209
 11
-83.47834563577925
 21
210.3774162817751
  0
LINE
  8
0
  6
CONTINUOUS
 62
     7
 10
-93.14501230244595
 20
220.3144092382148
 11
-93.14501230244595
 21
224.877434437717
  0
LINE
  8
0
  6
CONTINUOUS
 62
     7
 10
-93.02222774154298
 20
224.9442926424105
 11
-93.02222774154298
 21
220.3767973796604
  0
LINE
  8
0
  6
CONTINUOUS
 62
     7
 10
-93.02222774154298
 20
213.7541582002299
 11
-93.02222774154298
 21
209.1866629374798
  0
LINE
  8
0
  6
CONTINUOUS
 62
     7
 10
-83.26779686334879
 20
224.9442926424105
 11
-83.26779686334879
 21
220.3767973796604
  0
LINE
  8
0
  6
CONTINUOUS
 62
     7
 10
-83.14501230244593
 20
220.3144092382148
 11
-83.14501230244593
 21
224.877434437717
  0
LINE
  8
0
  6
CONTINUOUS
 62
     7
 10
-83.26779686334879
 20
213.7541582002299
 11
-83.26779686334879
 21
209.1866629374798
  0
LINE
  8
0
  6
CONTINUOUS
 62
     7
 10
-83.14501230244593
 20
209.2535211421733
 11
-83.14501230244593
 21
213.8165463416755
  0
LINE
  8
0
  6
CENTER
 62
     7
 10
-88.14501230244595
 20
203.8988111232785
 11
-88.14501230244595
 21
230.2321444566118
  0
LINE
  8
0
  6
CENTER
 62
     7
 10
-75.2116789691126
 20
217.0654777899452
 11
-101.0783456357792
 21
217.0654777899452
  0
LINE
  8
0
  6
CENTER
 62
     7
 10
-91.14501230244595
 20
205.86012192768
 11
-91.14501230244595
 21
228.2708336522103
  0
LINE
  8
0
  6
CENTER
 62
     7
 10
-85.14501230244593
 20
205.86012192768
 11
-85.14501230244593
 21
228.2708336522103
  0
CIRCLE
  8
0
  6
CONTINUOUS
 62
     7
 10
-81.47834563577925
 20
217.0654777899452
 40
1.333333333333333
  0
CIRCLE
  8
0
  6
CONTINUOUS
 62
     7
 10
-94.81167896911263
 20
217.0654777899452
 40
1.333333333333333
  0
ARC
  8
0
  6
CONTINUOUS
 62
     7
 10
-88.14501230244595
 20
217.0654777899452
 40
9.833333333333332
 50
260.2417434046188
 51
279.7582565953826
  0
ARC
  8
0
  6
CONTINUOUS
 62
     7
 10
-88.14501230244595
 20
217.0654777899452
 40
9.833333333333332
 50
80.24174340461811
 51
99.75825659538189
  0
ARC
  8
0
  6
CONTINUOUS
 62
     7
 10
-88.14501230244595
 20
217.0654777899452
 40
9.600000000000001
 50
279.9978434875686
 51
80.00215651243224
  0
ARC
  8
0
  6
CONTINUOUS
 62
     7
 10
-88.14501230244595
 20
217.0654777899452
 40
9.600000000000001
 50
99.99784348756776
 51
260.0021565124329
  0
ARC
  8
0
  6
CONTINUOUS
 62
     7
 10
-94.81167896911263
 20
217.0654777899452
 40
3.333333333333337
 50
305.6853347126527
 51
54.31466528734803
  0
ARC
  8
0
  6
CONTINUOUS
 62
     7
 10
-91.05905751460803
 20
223.2082031497385
 40
0.7194728846497439
 50
23.30472248652095
 51
41.13701605079734
  0
ARC
  8
0
  6
CONTINUOUS
 62
     7
 10
-91.1000268428556
 20
223.1713713167669
 40
0.7745591261526335
 50
41.19525509556155
 51
58.23530278081697
  0
ARC
  8
0
  6
CONTINUOUS
 62
     7
 10
-91.1335202293766
 20
223.1180367757583
 40
0.8375371580400144
 50
58.2079632747999
 51
74.37963106148396
  0
ARC
  8
0
  6
CONTINUOUS
 62
     7
 10
-91.14465259437755
 20
223.0806463957007
 40
0.8765443643472881
 50
74.33692149895005
 51
90.02351250614032
  0
ARC
  8
0
  6
CONTINUOUS
 62
     7
 10
-91.14537201051412
 20
223.0806463956994
 40
0.8765443643486945
 50
89.97648749386435
 51
105.6630785010321
  0
ARC
  8
0
  6
CONTINUOUS
 62
     7
 10
-91.15650437551513
 20
223.1180367757584
 40
0.8375371580398971
 50
105.6203689385153
 51
121.7920367252001
  0
ARC
  8
0
  6
CONTINUOUS
 62
     7
 10
-91.18999776203596
 20
223.1713713167665
 40
0.7745591261531214
 50
121.7646972191796
 51
138.8047449044263
  0
ARC
  8
0
  6
CONTINUOUS
 62
     7
 10
-91.23096709028467
 20
223.208203149739
 40
0.719472884648806
 50
138.8629839491917
 51
156.6952775134914
  0
ARC
  8
0
  6
CONTINUOUS
 62
     7
 10
-91.28181576695995
 20
223.7539910206823
 40
0.6631966893266823
 50
180.0390258260071
 51
199.7865451867629
  0
ARC
  8
0
  6
CONTINUOUS
 62
     7
 10
-91.24530019898062
 20
223.7678507047465
 40
0.7022484563815599
 50
199.8420480302952
 51
218.847265332156
  0
ARC
  8
0
  6
CONTINUOUS
 62
     7
 10
-91.19490780937822
 20
223.8085928987207
 40
0.7670505055747527
 50
218.856409471448
 51
236.7710681664642
  0
ARC
  8
0
  6
CONTINUOUS
 62
     7
 10
-91.15798284171986
 20
223.8641947486896
 40
0.8337952283321359
 50
236.7423263826706
 51
253.6839268194073
  0
ARC
  8
0
  6
CONTINUOUS
 62
     7
 10
-91.14542170212594
 20
223.9044852200981
 40
0.8759922472797925
 50
253.6357732855329
 51
270.0267774911546
  0
ARC
  8
0
  6
CONTINUOUS
 62
     7
 10
-91.14460290276584
 20
223.9044852200981
 40
0.8759922472797881
 50
269.9732225088468
 51
286.3642267144686
  0
ARC
  8
0
  6
CONTINUOUS
 62
     7
 10
-91.13204176317193
 20
223.8641947486896
 40
0.8337952283321271
 50
286.3160731805947
 51
303.2576736173301
  0
ARC
  8
0
  6
CONTINUOUS
 62
     7
 10
-91.09511679551356
 20
223.8085928987207
 40
0.7670505055747581
 50
303.2289318335372
 51
321.1435905285541
  0
ARC
  8
0
  6
CONTINUOUS
 62
     7
 10
-91.04472440591117
 20
223.7678507047465
 40
0.7022484563815585
 50
321.1527346678454
 51
340.1579519697063
  0
ARC
  8
0
  6
CONTINUOUS
 62
     7
 10
-91.00820883793183
 20
223.7539910206823
 40
0.6631966893266852
 50
340.2134548132385
 51
359.9609741739944
  0
ARC
  8
0
  6
CONTINUOUS
 62
     7
 10
-91.00820883793183
 20
223.7530875755481
 40
0.6631966893266823
 50
0.03902582600634486
 51
19.7865451867622
  0
ARC
  8
0
  6
CONTINUOUS
 62
     7
 10
-91.04472440591117
 20
223.7392278914839
 40
0.7022484563815599
 50
19.84204803029445
 51
38.84726533215531
  0
ARC
  8
0
  6
CONTINUOUS
 62
     7
 10
-91.09511679551356
 20
223.6984856975097
 40
0.7670505055747527
 50
38.85640947144729
 51
56.77106816646352
  0
ARC
  8
0
  6
CONTINUOUS
 62
     7
 10
-91.13204176317261
 20
223.6428838475395
 40
0.8337952283336934
 50
56.74232638268776
 51
73.68392681939186
  0
ARC
  8
0
  6
CONTINUOUS
 62
     7
 10
-91.14460290276584
 20
223.6025933761323
 40
0.8759922472797925
 50
73.63577328553217
 51
90.02677749115395
  0
ARC
  8
0
  6
CONTINUOUS
 62
     7
 10
-91.14542170212594
 20
223.6025933761323
 40
0.8759922472797881
 50
89.97322250884606
 51
106.3642267144679
  0
ARC
  8
0
  6
CONTINUOUS
 62
     7
 10
-91.15798284171986
 20
223.642883847541
 40
0.8337952283321271
 50
106.316073180594
 51
123.2576736173293
  0
ARC
  8
0
  6
CONTINUOUS
 62
     7
 10
-91.19490780937822
 20
223.6984856975097
 40
0.7670505055747581
 50
123.2289318335365
 51
141.1435905285534
  0
ARC
  8
0
  6
CONTINUOUS
 62
     7
 10
-91.24530019898062
 20
223.7392278914839
 40
0.7022484563815585
 50
141.1527346678447
 51
160.1579519697056
  0
ARC
  8
0
  6
CONTINUOUS
 62
     7
 10
-91.28181576695995
 20
223.7530875755481
 40
0.6631966893266852
 50
160.2134548132378
 51
179.9609741739937
  0
ARC
  8
0
  6
CONTINUOUS
 62
     7
 10
-91.06897897111737
 20
223.7951362200959
 40
1.601178988445237
 50
310.5344463969935
 51
329.1019254258144
  0
ARC
  8
0
  6
CONTINUOUS
 62
     7
 10
-91.01181128985486
 20
223.7603610444755
 40
1.53426701262762
 50
329.1199866540023
 51
348.2278301718461
  0
ARC
  8
0
  6
CONTINUOUS
 62
     7
 10
-90.98354816208583
 20
223.7535085239208
 40
1.505200594188518
 50
348.2636925328698
 51
7.617856665417965
  0
ARC
  8
0
  6
CONTINUOUS
 62
     7
 10
-91.00237218714956
 20
223.749969470756
 40
1.524327975413719
 50
7.655910540665413
 51
26.84709726602216
  0
ARC
  8
0
  6
CONTINUOUS
 62
     7
 10
-91.05581995927169
 20
223.7222475162711
 40
1.584534528241135
 50
26.86866032285945
 51
45.56843453899026
  0
ARC
  8
0
  6
CONTINUOUS
 62
     7
 10
-91.11068948404109
 20
223.6663739738534
 40
1.662844892929942
 50
45.56612718746678
 51
63.67157477003425
  0
ARC
  8
0
  6
CONTINUOUS
 62
     7
 10
-91.14022961881774
 20
223.6081468628076
 40
1.728133544339159
 50
63.64998494504209
 51
81.29459436736187
  0
ARC
  8
0
  6
CONTINUOUS
 62
     7
 10
-91.14501230244595
 20
223.5832616281941
 40
1.753456233463832
 50
81.26318943478181
 51
98.73681056521819
  0
ARC
  8
0
  6
CONTINUOUS
 62
     7
 10
-91.1497949860737
 20
223.6081468628065
 40
1.728133544340363
 50
98.70540563264487
 51
116.3500150549522
  0
ARC
  8
0
  6
CONTINUOUS
 62
     7
 10
-91.17933512085047
 20
223.666373973853
 40
1.66284489293042
 50
116.3284252299693
 51
134.433872812531
  0
ARC
  8
0
  6
CONTINUOUS
 62
     7
 10
-91.23420464562089
 20
223.7222475162717
 40
1.584534528240209
 50
134.4315654610043
 51
153.1313396771454
  0
ARC
  8
0
  6
CONTINUOUS
 62
     7
 10
-91.28765241774217
 20
223.749969470756
 40
1.524327975413762
 50
153.1529027339786
 51
172.3440894593338
  0
ARC
  8
0
  6
CONTINUOUS
 62
     7
 10
-91.30647644280596
 20
223.7535085239208
 40
1.505200594188631
 50
172.3821433345826
 51
191.7363074671308
  0
ARC
  8
0
  6
CONTINUOUS
 62
     7
 10
-91.27821331503726
 20
223.7603610444753
 40
1.534267012627411
 50
191.7721698281527
 51
210.8800133459999
  0
ARC
  8
0
  6
CONTINUOUS
 62
     7
 10
-91.22104563377361
 20
223.7951362200966
 40
1.601178988446246
 50
210.8980745741916
 51
229.4655536030014
  0
ARC
  8
0
  6
CONTINUOUS
 62
     7
 10
-90.98914711968691
 20
224.3165392720803
 40
1.510801563706967
 50
0.01862231118281612
 51
18.91383724922038
  0
ARC
  8
0
  6
CONTINUOUS
 62
     7
 10
-91.03075063971888
 20
224.3014732046119
 40
1.555042582239456
 50
18.94209735873184
 51
37.47567637212179
  0
ARC
  8
0
  6
CONTINUOUS
 62
     7
 10
-91.08816452936783
 20
224.257184702766
 40
1.627553144256433
 50
37.48327514974118
 51
55.45991980355718
  0
ARC
  8
0
  6
CONTINUOUS
 62
     7
 10
-91.1302344934074
 20
224.1967431213283
 40
1.701193655282461
 50
55.44695455735653
 51
72.89890836608238
  0
ARC
  8
0
  6
CONTINUOUS
 62
     7
 10
-91.1445458584404
 20
224.1529456611709
 40
1.747263278401489
 50
72.87268791838469
 51
90.01529550442794
  0
ARC
  8
0
  6
CONTINUOUS
 62
     7
 10
-91.14547874645139
 20
224.1529456611709
 40
1.747263278401485
 50
89.98470449557206
 51
107.1273120816153
  0
ARC
  8
0
  6
CONTINUOUS
 62
     7
 10
-91.15979011148438
 20
224.1967431213283
 40
1.701193655282464
 50
107.1010916339176
 51
124.5530454426435
  0
ARC
  8
0
  6
CONTINUOUS
 62
     7
 10
-91.20186007552407
 20
224.257184702766
 40
1.627553144256438
 50
124.5400801964428
 51
142.5167248502591
  0
ARC
  8
0
  6
CONTINUOUS
 62
     7
 10
-91.25927396517291
 20
224.3014732046119
 40
1.555042582239454
 50
142.5243236278782
 51
161.0579026412682
  0
ARC
  8
0
  6
CONTINUOUS
 62
     7
 10
-91.30087748520528
 20
224.3165392720803
 40
1.510801563706624
 50
161.0861627507775
 51
179.9813776888194
  0
ARC
  8
0
  6
CONTINUOUS
 62
     7
 10
-91.22104563377441
 20
210.3358193597946
 40
1.601178988445237
 50
130.5344463969929
 51
149.1019254258137
  0
ARC
  8
0
  6
CONTINUOUS
 62
     7
 10
-91.27821331503704
 20
210.370594535415
 40
1.53426701262762
 50
149.1199866540016
 51
168.2278301718454
  0
ARC
  8
0
  6
CONTINUOUS
 62
     7
 10
-91.30647644280602
 20
210.3774470559697
 40
1.505200594188518
 50
168.2636925328691
 51
187.6178566654187
  0
ARC
  8
0
  6
CONTINUOUS
 62
     7
 10
-91.28765241774222
 20
210.3809861091343
 40
1.524327975413719
 50
187.6559105406661
 51
206.8470972660229
  0
ARC
  8
0
  6
CONTINUOUS
 62
     7
 10
-91.2342046456201
 20
210.4087080636193
 40
1.584534528241135
 50
206.8686603228601
 51
225.568434538991
  0
ARC
  8
0
  6
CONTINUOUS
 62
     7
 10
-91.1793351208507
 20
210.4645816060371
 40
1.662844892929942
 50
225.5661271874675
 51
243.671574770035
  0
ARC
  8
0
  6
CONTINUOUS
 62
     7
 10
-91.14979498607404
 20
210.5228087170829
 40
1.728133544339159
 50
243.6499849450428
 51
261.2945943673626
  0
ARC
  8
0
  6
CONTINUOUS
 62
     7
 10
-91.14501230244595
 20
210.5476939516963
 40
1.753456233463832
 50
261.2631894347825
 51
278.7368105652189
  0
ARC
  8
0
  6
CONTINUOUS
 62
     7
 10
-91.14022961881814
 20
210.522808717084
 40
1.728133544340363
 50
278.7054056326456
 51
296.3500150549529
  0
ARC
  8
0
  6
CONTINUOUS
 62
     7
 10
-91.11068948404143
 20
210.4645816060375
 40
1.66284489293042
 50
296.32842522997
 51
314.4338728125317
  0
ARC
  8
0
  6
CONTINUOUS
 62
     7
 10
-91.05581995927095
 20
210.4087080636188
 40
1.584534528240209
 50
314.431565461005
 51
333.1313396771462
  0
ARC
  8
0
  6
CONTINUOUS
 62
     7
 10
-91.00237218714968
 20
210.3809861091343
 40
1.524327975413762
 50
333.1529027339793
 51
352.3440894593344
  0
ARC
  8
0
  6
CONTINUOUS
 62
     7
 10
-90.98354816208594
 20
210.3774470559696
 40
1.505200594188631
 50
352.3821433345833
 51
11.73630746713003
  0
ARC
  8
0
  6
CONTINUOUS
 62
     7
 10
-91.01181128985463
 20
210.3705945354151
 40
1.534267012627411
 50
11.77216982815197
 51
30.88001334599921
  0
ARC
  8
0
  6
CONTINUOUS
 62
     7
 10
-91.06897897111817
 20
210.3358193597939
 40
1.601178988446246
 50
30.89807457419089
 51
49.46555360300074
  0
ARC
  8
0
  6
CONTINUOUS
 62
     7
 10
-91.30087748520528
 20
209.8144163078102
 40
1.510801563706625
 50
180.0186223111814
 51
198.9138372492232
  0
ARC
  8
0
  6
CONTINUOUS
 62
     7
 10
-91.25927396517291
 20
209.8294823752785
 40
1.555042582239456
 50
198.9420973587325
 51
217.4756763721225
  0
ARC
  8
0
  6
CONTINUOUS
 62
     7
 10
-91.20186007552407
 20
209.8737708771246
 40
1.627553144256433
 50
217.4832751497419
 51
235.4599198035579
  0
ARC
  8
0
  6
CONTINUOUS
 62
     7
 10
-91.15979011148438
 20
209.9342124585622
 40
1.701193655282461
 50
235.4469545573572
 51
252.8989083660831
  0
ARC
  8
0
  6
CONTINUOUS
 62
     7
 10
-91.14547874645139
 20
209.9780099187196
 40
1.747263278401489
 50
252.8726879183854
 51
270.0152955044287
  0
ARC
  8
0
  6
CONTINUOUS
 62
     7
 10
-91.1445458584404
 20
209.9780099187196
 40
1.747263278401485
 50
269.9847044955728
 51
287.127312081616
  0
ARC
  8
0
  6
CONTINUOUS
 62
     7
 10
-91.1302344934074
 20
209.9342124585622
 40
1.701193655282464
 50
287.1010916339184
 51
304.5530454426442
  0
ARC
  8
0
  6
CONTINUOUS
 62
     7
 10
-91.08816452936783
 20
209.8737708771246
 40
1.627553144256438
 50
304.5400801964435
 51
322.5167248502598
  0
ARC
  8
0
  6
CONTINUOUS
 62
     7
 10
-91.03075063971888
 20
209.8294823752785
 40
1.555042582239454
 50
322.5243236278789
 51
341.0579026412689
  0
ARC
  8
0
  6
CONTINUOUS
 62
     7
 10
-90.98914711968651
 20
209.8144163078102
 40
1.510801563706624
 50
341.0861627507782
 51
359.98137768882
  0
ARC
  8
0
  6
CONTINUOUS
 62
     7
 10
-91.28181576695995
 20
210.3778680043423
 40
0.6631966893266823
 50
180.0390258260071
 51
199.7865451867629
  0
ARC
  8
0
  6
CONTINUOUS
 62
     7
 10
-91.24530019898062
 20
210.3917276884064
 40
0.7022484563815599
 50
199.8420480302952
 51
218.847265332156
  0
ARC
  8
0
  6
CONTINUOUS
 62
     7
 10
-91.19490780937822
 20
210.4324698823807
 40
0.7670505055747527
 50
218.856409471448
 51
236.7710681664642
  0
ARC
  8
0
  6
CONTINUOUS
 62
     7
 10
-91.15798284171986
 20
210.4880717323495
 40
0.8337952283321359
 50
236.7423263826706
 51
253.6839268194073
  0
ARC
  8
0
  6
CONTINUOUS
 62
     7
 10
-91.14542170212594
 20
210.528362203758
 40
0.8759922472797925
 50
253.6357732855329
 51
270.0267774911546
  0
ARC
  8
0
  6
CONTINUOUS
 62
     7
 10
-91.14460290276584
 20
210.528362203758
 40
0.8759922472797881
 50
269.9732225088468
 51
286.3642267144686
  0
ARC
  8
0
  6
CONTINUOUS
 62
     7
 10
-91.13204176317193
 20
210.4880717323495
 40
0.8337952283321271
 50
286.3160731805947
 51
303.2576736173301
  0
ARC
  8
0
  6
CONTINUOUS
 62
     7
 10
-91.09511679551356
 20
210.4324698823807
 40
0.7670505055747581
 50
303.2289318335372
 51
321.1435905285541
  0
ARC
  8
0
  6
CONTINUOUS
 62
     7
 10
-91.04472440591117
 20
210.3917276884064
 40
0.7022484563815585
 50
321.1527346678454
 51
340.1579519697063
  0
ARC
  8
0
  6
CONTINUOUS
 62
     7
 10
-91.00820883793183
 20
210.3778680043423
 40
0.6631966893266852
 50
340.2134548132385
 51
359.9609741739944
  0
ARC
  8
0
  6
CONTINUOUS
 62
     7
 10
-91.00820883793183
 20
210.376964559208
 40
0.6631966893266823
 50
0.03902582600634486
 51
19.7865451867622
  0
ARC
  8
0
  6
CONTINUOUS
 62
     7
 10
-91.04472440591117
 20
210.3631048751439
 40
0.7022484563815599
 50
19.84204803029445
 51
38.84726533215531
  0
ARC
  8
0
  6
CONTINUOUS
 62
     7
 10
-91.09511679551356
 20
210.3223626811696
 40
0.7670505055747527
 50
38.85640947144729
 51
56.77106816646352
  0
ARC
  8
0
  6
CONTINUOUS
 62
     7
 10
-91.13204176317261
 20
210.2667608311994
 40
0.8337952283336934
 50
56.74232638268776
 51
73.68392681939186
  0
ARC
  8
0
  6
CONTINUOUS
 62
     7
 10
-91.14460290276584
 20
210.2264703597922
 40
0.8759922472797925
 50
73.63577328553217
 51
90.02677749115395
  0
ARC
  8
0
  6
CONTINUOUS
 62
     7
 10
-91.14542170212594
 20
210.2264703597922
 40
0.8759922472797881
 50
89.97322250884606
 51
106.3642267144679
  0
ARC
  8
0
  6
CONTINUOUS
 62
     7
 10
-91.15798284171986
 20
210.2667608312009
 40
0.8337952283321271
 50
106.316073180594
 51
123.2576736173293
  0
ARC
  8
0
  6
CONTINUOUS
 62
     7
 10
-91.19490780937822
 20
210.3223626811696
 40
0.7670505055747581
 50
123.2289318335365
 51
141.1435905285534
  0
ARC
  8
0
  6
CONTINUOUS
 62
     7
 10
-91.24530019898062
 20
210.3631048751439
 40
0.7022484563815585
 50
141.1527346678447
 51
160.1579519697056
  0
ARC
  8
0
  6
CONTINUOUS
 62
     7
 10
-91.28181576695995
 20
210.376964559208
 40
0.6631966893266852
 50
160.2134548132378
 51
179.9609741739937
  0
ARC
  8
0
  6
CONTINUOUS
 62
     7
 10
-91.23096709028387
 20
210.922752430152
 40
0.7194728846496173
 50
203.3047224865211
 51
221.1370160508006
  0
ARC
  8
0
  6
CONTINUOUS
 62
     7
 10
-91.18999776203596
 20
210.959584263124
 40
0.7745591261531201
 50
221.1952550955744
 51
238.2353027808211
  0
ARC
  8
0
  6
CONTINUOUS
 62
     7
 10
-91.15650437551513
 20
211.012918804132
 40
0.837537158039894
 50
238.2079632748007
 51
254.3796310614854
  0
ARC
  8
0
  6
CONTINUOUS
 62
     7
 10
-91.14537201051412
 20
211.0503091841911
 40
0.8765443643486874
 50
254.3369214989687
 51
270.0235125061363
  0
ARC
  8
0
  6
CONTINUOUS
 62
     7
 10
-91.14465259437755
 20
211.0503091841897
 40
0.8765443643472926
 50
269.9764874938604
 51
285.6630785010507
  0
ARC
  8
0
  6
CONTINUOUS
 62
     7
 10
-91.1335202293766
 20
211.0129188041322
 40
0.8375371580400174
 50
285.6203689385168
 51
301.7920367252008
  0
ARC
  8
0
  6
CONTINUOUS
 62
     7
 10
-91.1000268428556
 20
210.9595842631235
 40
0.7745591261526312
 50
301.7646972191837
 51
318.8047449044392
  0
ARC
  8
0
  6
CONTINUOUS
 62
     7
 10
-91.05905751460803
 20
210.922752430152
 40
0.7194728846497418
 50
318.8629839492034
 51
336.6952775134798
  0
ARC
  8
0
  6
CONTINUOUS
 62
     7
 10
-85.06897897111736
 20
223.7951362200959
 40
1.601178988445237
 50
310.5344463969935
 51
329.1019254258144
  0
ARC
  8
0
  6
CONTINUOUS
 62
     7
 10
-85.01181128985485
 20
223.7603610444755
 40
1.53426701262762
 50
329.1199866540023
 51
348.2278301718461
  0
ARC
  8
0
  6
CONTINUOUS
 62
     7
 10
-84.98354816208581
 20
223.7535085239208
 40
1.505200594188518
 50
348.2636925328698
 51
7.617856665417965
  0
ARC
  8
0
  6
CONTINUOUS
 62
     7
 10
-85.00237218714955
 20
223.749969470756
 40
1.524327975413719
 50
7.655910540665413
 51
26.84709726602216
  0
ARC
  8
0
  6
CONTINUOUS
 62
     7
 10
-85.05581995927167
 20
223.7222475162711
 40
1.584534528241135
 50
26.86866032285945
 51
45.56843453899026
  0
ARC
  8
0
  6
CONTINUOUS
 62
     7
 10
-85.11068948404108
 20
223.6663739738534
 40
1.662844892929942
 50
45.56612718746678
 51
63.67157477003425
  0
ARC
  8
0
  6
CONTINUOUS
 62
     7
 10
-85.14022961881773
 20
223.6081468628076
 40
1.728133544339159
 50
63.64998494504209
 51
81.29459436736187
  0
ARC
  8
0
  6
CONTINUOUS
 62
     7
 10
-85.14501230244593
 20
223.5832616281941
 40
1.753456233463832
 50
81.26318943478181
 51
98.73681056521819
  0
ARC
  8
0
  6
CONTINUOUS
 62
     7
 10
-85.14979498607369
 20
223.6081468628065
 40
1.728133544340363
 50
98.70540563264487
 51
116.3500150549522
  0
ARC
  8
0
  6
CONTINUOUS
 62
     7
 10
-85.17933512085045
 20
223.666373973853
 40
1.66284489293042
 50
116.3284252299693
 51
134.433872812531
  0
ARC
  8
0
  6
CONTINUOUS
 62
     7
 10
-85.23420464562088
 20
223.7222475162717
 40
1.584534528240209
 50
134.4315654610043
 51
153.1313396771454
  0
ARC
  8
0
  6
CONTINUOUS
 62
     7
 10
-85.28765241774215
 20
223.749969470756
 40
1.524327975413762
 50
153.1529027339786
 51
172.3440894593338
  0
ARC
  8
0
  6
CONTINUOUS
 62
     7
 10
-85.30647644280595
 20
223.7535085239208
 40
1.505200594188631
 50
172.3821433345826
 51
191.7363074671308
  0
ARC
  8
0
  6
CONTINUOUS
 62
     7
 10
-85.27821331503725
 20
223.7603610444753
 40
1.534267012627411
 50
191.7721698281527
 51
210.8800133459999
  0
ARC
  8
0
  6
CONTINUOUS
 62
     7
 10
-85.2210456337736
 20
223.7951362200966
 40
1.601178988446246
 50
210.8980745741916
 51
229.4655536030014
  0
ARC
  8
0
  6
CONTINUOUS
 62
     7
 10
-84.98914711968672
 20
224.3165392720803
 40
1.510801563706853
 50
0.01862231118173966
 51
18.91383724922076
  0
ARC
  8
0
  6
CONTINUOUS
 62
     7
 10
-85.03075063971909
 20
224.3014732046118
 40
1.555042582239641
 50
18.94209735873393
 51
37.47567637212193
  0
ARC
  8
0
  6
CONTINUOUS
 62
     7
 10
-85.08816452936782
 20
224.2571847027658
 40
1.627553144256433
 50
37.48327514974118
 51
55.45991980355718
  0
ARC
  8
0
  6
CONTINUOUS
 62
     7
 10
-85.13023449340739
 20
224.1967431213282
 40
1.701193655282461
 50
55.44695455735653
 51
72.89890836608238
  0
ARC
  8
0
  6
CONTINUOUS
 62
     7
 10
-85.14454585844038
 20
224.1529456611709
 40
1.747263278401489
 50
72.87268791838469
 51
90.01529550442794
  0
ARC
  8
0
  6
CONTINUOUS
 62
     7
 10
-85.14547874645137
 20
224.1529456611709
 40
1.747263278401485
 50
89.98470449557206
 51
107.1273120816153
  0
ARC
  8
0
  6
CONTINUOUS
 62
     7
 10
-85.15979011148437
 20
224.1967431213282
 40
1.701193655282464
 50
107.1010916339176
 51
124.5530454426435
  0
ARC
  8
0
  6
CONTINUOUS
 62
     7
 10
-85.20186007552405
 20
224.2571847027658
 40
1.627553144256438
 50
124.5400801964428
 51
142.5167248502591
  0
ARC
  8
0
  6
CONTINUOUS
 62
     7
 10
-85.25927396517278
 20
224.3014732046118
 40
1.555042582239644
 50
142.5243236278781
 51
161.0579026412661
  0
ARC
  8
0
  6
CONTINUOUS
 62
     7
 10
-85.30087748520504
 20
224.3165392720803
 40
1.510801563706851
 50
161.0861627507792
 51
179.9813776888183
  0
ARC
  8
0
  6
CONTINUOUS
 62
     7
 10
-85.00820883793182
 20
223.7530875755481
 40
0.6631966893266823
 50
0.03902582600634486
 51
19.7865451867622
  0
ARC
  8
0
  6
CONTINUOUS
 62
     7
 10
-85.04472440591115
 20
223.7392278914839
 40
0.7022484563815599
 50
19.84204803029445
 51
38.84726533215531
  0
ARC
  8
0
  6
CONTINUOUS
 62
     7
 10
-85.09511679551355
 20
223.6984856975097
 40
0.7670505055747527
 50
38.85640947144729
 51
56.77106816646352
  0
ARC
  8
0
  6
CONTINUOUS
 62
     7
 10
-85.13204176317191
 20
223.642883847541
 40
0.8337952283321359
 50
56.74232638266988
 51
73.68392681940661
  0
ARC
  8
0
  6
CONTINUOUS
 62
     7
 10
-85.14460290276583
 20
223.6025933761323
 40
0.8759922472797925
 50
73.63577328553217
 51
90.02677749115395
  0
ARC
  8
0
  6
CONTINUOUS
 62
     7
 10
-85.14542170212593
 20
223.6025933761323
 40
0.8759922472797881
 50
89.97322250884606
 51
106.3642267144679
  0
ARC
  8
0
  6
CONTINUOUS
 62
     7
 10
-85.15798284171984
 20
223.642883847541
 40
0.8337952283321271
 50
106.316073180594
 51
123.2576736173293
  0
ARC
  8
0
  6
CONTINUOUS
 62
     7
 10
-85.19490780937821
 20
223.6984856975097
 40
0.7670505055747581
 50
123.2289318335365
 51
141.1435905285534
  0
ARC
  8
0
  6
CONTINUOUS
 62
     7
 10
-85.2453001989806
 20
223.7392278914839
 40
0.7022484563815585
 50
141.1527346678447
 51
160.1579519697056
  0
ARC
  8
0
  6
CONTINUOUS
 62
     7
 10
-85.28181576695994
 20
223.7530875755481
 40
0.6631966893266852
 50
160.2134548132378
 51
179.9609741739937
  0
ARC
  8
0
  6
CONTINUOUS
 62
     7
 10
-85.28181576695994
 20
223.7539910206823
 40
0.6631966893266823
 50
180.0390258260071
 51
199.7865451867629
  0
ARC
  8
0
  6
CONTINUOUS
 62
     7
 10
-85.2453001989806
 20
223.7678507047465
 40
0.7022484563815599
 50
199.8420480302952
 51
218.847265332156
  0
ARC
  8
0
  6
CONTINUOUS
 62
     7
 10
-85.19490780937821
 20
223.8085928987207
 40
0.7670505055747527
 50
218.856409471448
 51
236.7710681664642
  0
ARC
  8
0
  6
CONTINUOUS
 62
     7
 10
-85.15798284171922
 20
223.8641947486911
 40
0.8337952283336934
 50
236.7423263826885
 51
253.6839268193926
  0
ARC
  8
0
  6
CONTINUOUS
 62
     7
 10
-85.14542170212593
 20
223.9044852200981
 40
0.8759922472797925
 50
253.6357732855329
 51
270.0267774911546
  0
ARC
  8
0
  6
CONTINUOUS
 62
     7
 10
-85.14460290276583
 20
223.9044852200981
 40
0.8759922472797881
 50
269.9732225088468
 51
286.3642267144686
  0
ARC
  8
0
  6
CONTINUOUS
 62
     7
 10
-85.13204176317191
 20
223.8641947486896
 40
0.8337952283321271
 50
286.3160731805947
 51
303.2576736173301
  0
ARC
  8
0
  6
CONTINUOUS
 62
     7
 10
-85.09511679551355
 20
223.8085928987207
 40
0.7670505055747581
 50
303.2289318335372
 51
321.1435905285541
  0
ARC
  8
0
  6
CONTINUOUS
 62
     7
 10
-85.04472440591115
 20
223.7678507047465
 40
0.7022484563815585
 50
321.1527346678454
 51
340.1579519697063
  0
ARC
  8
0
  6
CONTINUOUS
 62
     7
 10
-85.00820883793182
 20
223.7539910206823
 40
0.6631966893266852
 50
340.2134548132385
 51
359.9609741739944
  0
ARC
  8
0
  6
CONTINUOUS
 62
     7
 10
-85.0590575146079
 20
223.2082031497386
 40
0.7194728846496173
 50
23.30472248652038
 51
41.13701605079988
  0
ARC
  8
0
  6
CONTINUOUS
 62
     7
 10
-85.10002684285581
 20
223.1713713167665
 40
0.7745591261531201
 50
41.19525509557371
 51
58.23530278082038
  0
ARC
  8
0
  6
CONTINUOUS
 62
     7
 10
-85.13352022937659
 20
223.1180367757584
 40
0.837537158039894
 50
58.20796327479994
 51
74.37963106148467
  0
ARC
  8
0
  6
CONTINUOUS
 62
     7
 10
-85.14465259437765
 20
223.0806463956994
 40
0.8765443643486874
 50
74.33692149896797
 51
90.02351250613565
  0
ARC
  8
0
  6
CONTINUOUS
 62
     7
 10
-85.14537201051422
 20
223.0806463957007
 40
0.8765443643472926
 50
89.97648749385968
 51
105.66307850105
  0
ARC
  8
0
  6
CONTINUOUS
 62
     7
 10
-85.15650437551511
 20
223.1180367757583
 40
0.8375371580400174
 50
105.6203689385161
 51
121.7920367252001
  0
ARC
  8
0
  6
CONTINUOUS
 62
     7
 10
-85.18999776203629
 20
223.1713713167669
 40
0.7745591261526312
 50
121.7646972191831
 51
138.8047449044385
  0
ARC
  8
0
  6
CONTINUOUS
 62
     7
 10
-85.2309670902838
 20
223.2082031497385
 40
0.7194728846497418
 50
138.8629839492027
 51
156.6952775134791
  0
ARC
  8
0
  6
CONTINUOUS
 62
     7
 10
-85.2210456337744
 20
210.3358193597946
 40
1.601178988445237
 50
130.5344463969929
 51
149.1019254258137
  0
ARC
  8
0
  6
CONTINUOUS
 62
     7
 10
-85.27821331503702
 20
210.370594535415
 40
1.53426701262762
 50
149.1199866540016
 51
168.2278301718454
  0
ARC
  8
0
  6
CONTINUOUS
 62
     7
 10
-85.306476442806
 20
210.3774470559697
 40
1.505200594188518
 50
168.2636925328691
 51
187.6178566654187
  0
ARC
  8
0
  6
CONTINUOUS
 62
     7
 10
-85.28765241774221
 20
210.3809861091343
 40
1.524327975413719
 50
187.6559105406661
 51
206.8470972660229
  0
ARC
  8
0
  6
CONTINUOUS
 62
     7
 10
-85.23420464562008
 20
210.4087080636193
 40
1.584534528241135
 50
206.8686603228601
 51
225.568434538991
  0
ARC
  8
0
  6
CONTINUOUS
 62
     7
 10
-85.17933512085068
 20
210.4645816060371
 40
1.662844892929942
 50
225.5661271874675
 51
243.671574770035
  0
ARC
  8
0
  6
CONTINUOUS
 62
     7
 10
-85.14979498607403
 20
210.5228087170829
 40
1.728133544339159
 50
243.6499849450428
 51
261.2945943673626
  0
ARC
  8
0
  6
CONTINUOUS
 62
     7
 10
-85.14501230244593
 20
210.5476939516963
 40
1.753456233463832
 50
261.2631894347825
 51
278.7368105652189
  0
ARC
  8
0
  6
CONTINUOUS
 62
     7
 10
-85.14022961881813
 20
210.522808717084
 40
1.728133544340363
 50
278.7054056326456
 51
296.3500150549529
  0
ARC
  8
0
  6
CONTINUOUS
 62
     7
 10
-85.11068948404142
 20
210.4645816060375
 40
1.66284489293042
 50
296.32842522997
 51
314.4338728125317
  0
ARC
  8
0
  6
CONTINUOUS
 62
     7
 10
-85.05581995927093
 20
210.4087080636188
 40
1.584534528240209
 50
314.431565461005
 51
333.1313396771462
  0
ARC
  8
0
  6
CONTINUOUS
 62
     7
 10
-85.00237218714966
 20
210.3809861091343
 40
1.524327975413762
 50
333.1529027339793
 51
352.3440894593344
  0
ARC
  8
0
  6
CONTINUOUS
 62
     7
 10
-84.98354816208592
 20
210.3774470559696
 40
1.505200594188631
 50
352.3821433345833
 51
11.73630746713003
  0
ARC
  8
0
  6
CONTINUOUS
 62
     7
 10
-85.01181128985462
 20
210.3705945354151
 40
1.534267012627411
 50
11.77216982815197
 51
30.88001334599921
  0
ARC
  8
0
  6
CONTINUOUS
 62
     7
 10
-85.06897897111816
 20
210.3358193597939
 40
1.601178988446246
 50
30.89807457419089
 51
49.46555360300074
  0
ARC
  8
0
  6
CONTINUOUS
 62
     7
 10
-85.2309670902838
 20
210.922752430152
 40
0.7194728846497439
 50
203.3047224865217
 51
221.137016050798
  0
ARC
  8
0
  6
CONTINUOUS
 62
     7
 10
-85.18999776203629
 20
210.9595842631235
 40
0.7745591261526335
 50
221.1952550955623
 51
238.2353027808177
  0
ARC
  8
0
  6
CONTINUOUS
 62
     7
 10
-85.15650437551511
 20
211.0129188041322
 40
0.8375371580400144
 50
238.2079632748006
 51
254.3796310614846
  0
ARC
  8
0
  6
CONTINUOUS
 62
     7
 10
-85.14537201051422
 20
211.0503091841897
 40
0.8765443643472881
 50
254.3369214989507
 51
270.0235125061411
  0
ARC
  8
0
  6
CONTINUOUS
 62
     7
 10
-85.14465259437765
 20
211.0503091841911
 40
0.8765443643486945
 50
269.9764874938651
 51
285.6630785010327
  0
ARC
  8
0
  6
CONTINUOUS
 62
     7
 10
-85.13352022937659
 20
211.012918804132
 40
0.8375371580398971
 50
285.620368938516
 51
301.7920367252008
  0
ARC
  8
0
  6
CONTINUOUS
 62
     7
 10
-85.10002684285581
 20
210.959584263124
 40
0.7745591261531214
 50
301.7646972191803
 51
318.804744904427
  0
ARC
  8
0
  6
CONTINUOUS
 62
     7
 10
-85.05905751460722
 20
210.9227524301514
 40
0.719472884648806
 50
318.8629839491924
 51
336.6952775134921
  0
ARC
  8
0
  6
CONTINUOUS
 62
     7
 10
-85.00820883793182
 20
210.376964559208
 40
0.6631966893266823
 50
0.03902582600634486
 51
19.7865451867622
  0
ARC
  8
0
  6
CONTINUOUS
 62
     7
 10
-85.04472440591115
 20
210.3631048751439
 40
0.7022484563815599
 50
19.84204803029445
 51
38.84726533215531
  0
ARC
  8
0
  6
CONTINUOUS
 62
     7
 10
-85.09511679551355
 20
210.3223626811696
 40
0.7670505055747527
 50
38.85640947144729
 51
56.77106816646352
  0
ARC
  8
0
  6
CONTINUOUS
 62
     7
 10
-85.13204176317191
 20
210.2667608312009
 40
0.8337952283321359
 50
56.74232638266988
 51
73.68392681940661
  0
ARC
  8
0
  6
CONTINUOUS
 62
     7
 10
-85.14460290276583
 20
210.2264703597922
 40
0.8759922472797925
 50
73.63577328553217
 51
90.02677749115395
  0
ARC
  8
0
  6
CONTINUOUS
 62
     7
 10
-85.14542170212593
 20
210.2264703597922
 40
0.8759922472797881
 50
89.97322250884606
 51
106.3642267144679
  0
ARC
  8
0
  6
CONTINUOUS
 62
     7
 10
-85.15798284171984
 20
210.2667608312009
 40
0.8337952283321271
 50
106.316073180594
 51
123.2576736173293
  0
ARC
  8
0
  6
CONTINUOUS
 62
     7
 10
-85.19490780937821
 20
210.3223626811696
 40
0.7670505055747581
 50
123.2289318335365
 51
141.1435905285534
  0
ARC
  8
0
  6
CONTINUOUS
 62
     7
 10
-85.2453001989806
 20
210.3631048751439
 40
0.7022484563815585
 50
141.1527346678447
 51
160.1579519697056
  0
ARC
  8
0
  6
CONTINUOUS
 62
     7
 10
-85.28181576695994
 20
210.376964559208
 40
0.6631966893266852
 50
160.2134548132378
 51
179.9609741739937
  0
ARC
  8
0
  6
CONTINUOUS
 62
     7
 10
-85.28181576695994
 20
210.3778680043423
 40
0.6631966893266823
 50
180.0390258260071
 51
199.7865451867629
  0
ARC
  8
0
  6
CONTINUOUS
 62
     7
 10
-85.2453001989806
 20
210.3917276884064
 40
0.7022484563815599
 50
199.8420480302952
 51
218.847265332156
  0
ARC
  8
0
  6
CONTINUOUS
 62
     7
 10
-85.19490780937821
 20
210.4324698823807
 40
0.7670505055747527
 50
218.856409471448
 51
236.7710681664642
  0
ARC
  8
0
  6
CONTINUOUS
 62
     7
 10
-85.15798284171922
 20
210.488071732351
 40
0.8337952283336934
 50
236.7423263826885
 51
253.6839268193926
  0
ARC
  8
0
  6
CONTINUOUS
 62
     7
 10
-85.14542170212593
 20
210.528362203758
 40
0.8759922472797925
 50
253.6357732855329
 51
270.0267774911546
  0
ARC
  8
0
  6
CONTINUOUS
 62
     7
 10
-85.14460290276583
 20
210.528362203758
 40
0.8759922472797881
 50
269.9732225088468
 51
286.3642267144686
  0
ARC
  8
0
  6
CONTINUOUS
 62
     7
 10
-85.13204176317191
 20
210.4880717323495
 40
0.8337952283321271
 50
286.3160731805947
 51
303.2576736173301
  0
ARC
  8
0
  6
CONTINUOUS
 62
     7
 10
-85.09511679551355
 20
210.4324698823807
 40
0.7670505055747581
 50
303.2289318335372
 51
321.1435905285541
  0
ARC
  8
0
  6
CONTINUOUS
 62
     7
 10
-85.04472440591115
 20
210.3917276884064
 40
0.7022484563815585
 50
321.1527346678454
 51
340.1579519697063
  0
ARC
  8
0
  6
CONTINUOUS
 62
     7
 10
-85.00820883793182
 20
210.3778680043423
 40
0.6631966893266852
 50
340.2134548132385
 51
359.9609741739944
  0
ARC
  8
0
  6
CONTINUOUS
 62
     7
 10
-85.30087748520492
 20
209.8144163078102
 40
1.510801563706967
 50
180.0186223111835
 51
198.9138372492211
  0
ARC
  8
0
  6
CONTINUOUS
 62
     7
 10
-85.2592739651729
 20
209.8294823752785
 40
1.555042582239456
 50
198.9420973587325
 51
217.4756763721225
  0
ARC
  8
0
  6
CONTINUOUS
 62
     7
 10
-85.20186007552405
 20
209.8737708771246
 40
1.627553144256433
 50
217.4832751497419
 51
235.4599198035579
  0
ARC
  8
0
  6
CONTINUOUS
 62
     7
 10
-85.15979011148437
 20
209.9342124585622
 40
1.701193655282461
 50
235.4469545573572
 51
252.8989083660831
  0
ARC
  8
0
  6
CONTINUOUS
 62
     7
 10
-85.14547874645137
 20
209.9780099187196
 40
1.747263278401489
 50
252.8726879183854
 51
270.0152955044287
  0
ARC
  8
0
  6
CONTINUOUS
 62
     7
 10
-85.14454585844038
 20
209.9780099187196
 40
1.747263278401485
 50
269.9847044955728
 51
287.127312081616
  0
ARC
  8
0
  6
CONTINUOUS
 62
     7
 10
-85.13023449340739
 20
209.9342124585622
 40
1.701193655282464
 50
287.1010916339184
 51
304.5530454426442
  0
ARC
  8
0
  6
CONTINUOUS
 62
     7
 10
-85.08816452936782
 20
209.8737708771246
 40
1.627553144256438
 50
304.5400801964435
 51
322.5167248502598
  0
ARC
  8
0
  6
CONTINUOUS
 62
     7
 10
-85.03075063971886
 20
209.8294823752785
 40
1.555042582239454
 50
322.5243236278789
 51
341.0579026412689
  0
ARC
  8
0
  6
CONTINUOUS
 62
     7
 10
-84.98914711968649
 20
209.8144163078102
 40
1.510801563706624
 50
341.0861627507782
 51
359.98137768882
  0
ARC
  8
0
  6
CONTINUOUS
 62
     7
 10
-94.81167896911263
 20
217.0654777899452
 40
3.45611789423624
 50
306.5655798515979
 51
53.43442014840282
  0
ARC
  8
0
  6
CONTINUOUS
 62
     7
 10
-92.35556107487635
 20
213.75415820023
 40
0.6666666666666666
 50
126.565579851597
 51
180.0000000000004
  0
ARC
  8
0
  6
CONTINUOUS
 62
     7
 10
-92.35556107487635
 20
220.3767973796605
 40
0.6666666666666666
 50
180.0000000000004
 51
233.4344201484037
  0
ARC
  8
0
  6
CONTINUOUS
 62
     7
 10
-92.47834563577926
 20
220.3144092382149
 40
0.6666666666666666
 50
180.0000000000004
 51
234.3146652873495
  0
ARC
  8
0
  6
CONTINUOUS
 62
     7
 10
-92.47834563577926
 20
213.8165463416755
 40
0.6666666666666666
 50
125.6853347126512
 51
180.0000000000004
  0
ARC
  8
0
  6
CONTINUOUS
 62
     7
 10
-92.35556107487635
 20
224.9442926424106
 40
0.6666666666666666
 50
118.1206700134623
 51
180.0000000000004
  0
ARC
  8
0
  6
CONTINUOUS
 62
     7
 10
-92.47834563577926
 20
224.8774344377171
 40
0.6666666666666666
 50
119.0173618730952
 51
180.0000000000004
  0
ARC
  8
0
  6
CONTINUOUS
 62
     7
 10
-92.35556107487635
 20
209.1866629374799
 40
0.6666666666666666
 50
180.0000000000004
 51
241.8793299865385
  0
ARC
  8
0
  6
CONTINUOUS
 62
     7
 10
-92.47834563577926
 20
209.2535211421734
 40
0.6666666666666666
 50
180.0000000000004
 51
240.9826381269055
  0
ARC
  8
0
  6
CONTINUOUS
 62
     7
 10
-81.47834563577925
 20
217.0654777899452
 40
3.45611789423624
 50
126.5655798515972
 51
233.4344201484035
  0
ARC
  8
0
  6
CONTINUOUS
 62
     7
 10
-83.93446353001542
 20
220.3767973796605
 40
0.6666666666666666
 50
306.5655798515978
 51
360
  0
ARC
  8
0
  6
CONTINUOUS
 62
     7
 10
-83.81167896911262
 20
220.3144092382149
 40
0.6666666666666666
 50
305.6853347126519
 51
360
  0
ARC
  8
0
  6
CONTINUOUS
 62
     7
 10
-81.47834563577925
 20
217.0654777899452
 40
3.333333333333337
 50
125.685334712652
 51
234.3146652873487
  0
ARC
  8
0
  6
CONTINUOUS
 62
     7
 10
-83.93446353001542
 20
213.75415820023
 40
0.6666666666666666
 50
0
 51
53.43442014840299
  0
ARC
  8
0
  6
CONTINUOUS
 62
     7
 10
-83.81167896911262
 20
213.8165463416755
 40
0.6666666666666666
 50
0
 51
54.3146652873488
  0
ARC
  8
0
  6
CONTINUOUS
 62
     7
 10
-83.81167896911262
 20
209.2535211421734
 40
0.6666666666666666
 50
299.0173618730959
 51
360
  0
ARC
  8
0
  6
CONTINUOUS
 62
     7
 10
-83.93446353001542
 20
209.1866629374799
 40
0.6666666666666666
 50
298.1206700134629
 51
360
  0
ARC
  8
0
  6
CONTINUOUS
 62
     7
 10
-83.93446353001542
 20
224.9442926424106
 40
0.6666666666666666
 50
0
 51
61.87932998653776
  0
ARC
  8
0
  6
CONTINUOUS
 62
     7
 10
-83.81167896911262
 20
224.8774344377171
 40
0.6666666666666666
 50
0
 51
60.9826381269048
  0
ARC
  8
0
  6
CONTINUOUS
 62
     7
 10
-89.32001230244596
 20
213.7238111232786
 40
0.5
 50
143.1301023541553
 51
306.8698976458441
  0
ARC
  8
0
  6
CONTINUOUS
 62
     7
 10
-86.97001230244594
 20
213.7238111232786
 40
0.5
 50
233.1301023541573
 51
36.86989764584467
  0
ARC
  8
0
  6
CONTINUOUS
 62
     7
 10
-86.97001230244594
 20
220.4071444566119
 40
0.5000000000000007
 50
323.130102354156
 51
126.8698976458434
  0
ARC
  8
0
  6
CONTINUOUS
 62
     7
 10
-89.32001230244596
 20
220.4071444566119
 40
0.5000000000000002
 50
53.13010235415663
 51
216.8698976458454
  0
ARC
  8
0
  6
CONTINUOUS
 62
     7
 10
-86.30334563577925
 20
219.9071444566119
 40
0.3333333333333333
 50
143.1301023541575
 51
180.0000000000004
  0
ARC
  8
0
  6
CONTINUOUS
 62
     7
 10
-87.47001230244594
 20
221.0738111232785
 40
0.3333333333333333
 50
270.0000000000005
 51
306.8698976458438
  0
ARC
  8
0
  6
CONTINUOUS
 62
     7
 10
-88.82001230244596
 20
221.0738111232785
 40
0.3333333333333333
 50
233.1301023541577
 51
270.0000000000005
  0
ARC
  8
0
  6
CONTINUOUS
 62
     7
 10
-89.98667896911265
 20
219.9071444566119
 40
0.3333333333333333
 50
0
 51
36.86989764584256
  0
ARC
  8
0
  6
CONTINUOUS
 62
     7
 10
-89.98667896911265
 20
214.2238111232786
 40
0.3333333333333333
 50
323.1301023541582
 51
360
  0
ARC
  8
0
  6
CONTINUOUS
 62
     7
 10
-88.82001230244596
 20
213.0571444566119
 40
0.3333333333333333
 50
90.00000000000019
 51
126.8698976458431
  0
ARC
  8
0
  6
CONTINUOUS
 62
     7
 10
-87.47001230244594
 20
213.0571444566119
 40
0.3333333333333333
 50
53.13010235415696
 51
90.00000000000019
  0
ARC
  8
0
  6
CONTINUOUS
 62
     7
 10
-86.30334563577925
 20
214.2238111232786
 40
0.3333333333333333
 50
180.0000000000004
 51
216.8698976458433
  0
CIRCLE
  8
0
  6
CENTER
 62
     7
 10
-88.14501230244595
 20
217.0654777899452
 40
6.666666666666666
  0
ENDBLK
  8
0
  0
BLOCK
  8
0
  2
KOZU0005
 70
    64
 10
0
 20
0
  0
LINE
  8
0
  6
CENTER
 62
     7
 10
-98.48703303273904
 20
155.4083310459416
 11
-77.82057269748452
 21
155.4083310459416
  0
LINE
  8
0
  6
CENTER
 62
     7
 10
-88.15380286511176
 20
107.0754802618783
 11
-88.15380286511176
 21
165.741561213569
  0
LINE
  8
0
  6
CENTER
 62
     7
 10
-88.17179970164546
 20
98.81250868941841
 11
-80.43285442293313
 21
115.4087303970616
  0
LINE
  8
0
  6
CENTER
 62
     7
 10
-88.1422347215742
 20
98.82629506603888
 11
-95.87475130729018
 21
115.4087303970617
  0
LINE
  8
0
  6
CONTINUOUS
 62
     7
 10
-94.92725976184262
 20
112.0754303429883
 11
-89.56220557528161
 21
100.5700345109993
  0
LINE
  8
0
  6
CONTINUOUS
 62
     7
 10
-93.71355616845216
 20
112.0754303429883
 11
-88.56527696275467
 21
101.0349099576546
  0
LINE
  8
0
  6
CONTINUOUS
 62
     7
 10
-89.5622055752815
 20
100.5700345109995
 11
-88.50258696495325
 21
99.59907294578677
  0
LINE
  8
0
  6
CONTINUOUS
 62
     7
 10
-88.5652769627546
 20
101.0349099576546
 11
-88.50258696495338
 21
99.5990729457866
  0
LINE
  8
0
  6
CONTINUOUS
 62
     7
 10
-94.74433256024477
 20
112.0754303429883
 11
-94.98659615953019
 21
111.7294420665626
  0
LINE
  8
0
  6
CONTINUOUS
 62
     7
 10
-94.13395135983495
 20
112.0754303429883
 11
-94.74259982837907
 21
111.2061902458305
  0
LINE
  8
0
  6
CONTINUOUS
 62
     7
 10
-93.52357015942573
 20
112.0754303429884
 11
-94.49860349722819
 21
110.6829384250985
  0
LINE
  8
0
  6
CONTINUOUS
 62
     7
 10
-93.2611535548124
 20
111.5784853990852
 11
-94.25460716607728
 21
110.1596866043664
  0
LINE
  8
0
  6
CONTINUOUS
 62
     7
 10
-93.01715722366131
 20
111.055233578353
 11
-94.01061083492633
 21
109.6364347836342
  0
LINE
  8
0
  6
CONTINUOUS
 62
     7
 10
-92.7731608925105
 20
110.5319817576209
 11
-93.76661450377543
 21
109.1131829629022
  0
LINE
  8
0
  6
CONTINUOUS
 62
     7
 10
-92.52916456135951
 20
110.0087299368889
 11
-93.52261817262453
 21
108.5899311421701
  0
LINE
  8
0
  6
CONTINUOUS
 62
     7
 10
-92.28516823020864
 20
109.4854781161568
 11
-93.27862184147359
 21
108.066679321438
  0
LINE
  8
0
  6
CONTINUOUS
 62
     7
 10
-92.04117189905759
 20
108.9622262954246
 11
-93.03462551032268
 21
107.5434275007058
  0
LINE
  8
0
  6
CONTINUOUS
 62
     7
 10
-91.79717556790673
 20
108.4389744746926
 11
-92.79062917917167
 21
107.0201756799737
  0
LINE
  8
0
  6
CONTINUOUS
 62
     7
 10
-91.55317923675577
 20
107.9157226539604
 11
-92.54663284802078
 21
106.4969238592416
  0
LINE
  8
0
  6
CONTINUOUS
 62
     7
 10
-91.3091829056049
 20
107.3924708332285
 11
-92.30263651686985
 21
105.9736720385095
  0
LINE
  8
0
  6
CONTINUOUS
 62
     7
 10
-91.065186574454
 20
106.8692190124963
 11
-92.05864018571899
 21
105.4504202177776
  0
LINE
  8
0
  6
CONTINUOUS
 62
     7
 10
-90.82119024330315
 20
106.3459671917643
 11
-91.81464385456809
 21
104.9271683970454
  0
LINE
  8
0
  6
CONTINUOUS
 62
     7
 10
-90.57719391215238
 20
105.8227153710322
 11
-91.57064752341725
 21
104.4039165763134
  0
LINE
  8
0
  6
CONTINUOUS
 62
     7
 10
-90.33319758100124
 20
105.2994635503001
 11
-91.32665119226627
 21
103.8806647555813
  0
LINE
  8
0
  6
CONTINUOUS
 62
     7
 10
-90.08920124985033
 20
104.776211729568
 11
-91.08265486111537
 21
103.3574129348491
  0
LINE
  8
0
  6
CONTINUOUS
 62
     7
 10
-89.84520491869944
 20
104.2529599088359
 11
-90.83865852996435
 21
102.8341611141171
  0
LINE
  8
0
  6
CONTINUOUS
 62
     7
 10
-89.60120858754857
 20
103.7297080881037
 11
-90.59466219881344
 21
102.3109092933849
  0
LINE
  8
0
  6
CONTINUOUS
 62
     7
 10
-89.35721225639747
 20
103.2064562673716
 11
-90.35066586766249
 21
101.7876574726528
  0
LINE
  8
0
  6
CONTINUOUS
 62
     7
 10
-89.11321592524659
 20
102.6832044466395
 11
-90.10666953651156
 21
101.2644056519207
  0
LINE
  8
0
  6
CONTINUOUS
 62
     7
 10
-88.86921959409581
 20
102.1599526259075
 11
-89.86267320536081
 21
100.7411538311886
  0
LINE
  8
0
  6
CONTINUOUS
 62
     7
 10
-88.62522326294484
 20
101.6367008051754
 11
-89.56211280634466
 21
100.2986838712314
  0
LINE
  8
0
  6
CONTINUOUS
 62
     7
 10
-88.38122693179382
 20
101.1134489844433
 11
-89.19029688156641
 21
99.95797734836086
  0
LINE
  8
0
  6
CONTINUOUS
 62
     7
 10
-88.33343750268055
 20
100.3099846676574
 11
-88.81848095678802
 21
99.61727082549037
  0
LINE
  8
0
  6
CONTINUOUS
 62
     7
 10
-82.59404956177136
 20
112.0754303429882
 11
-87.74232876746888
 21
101.0349099576545
  0
LINE
  8
0
  6
CONTINUOUS
 62
     7
 10
-81.38034596838084
 20
112.0754303429883
 11
-86.74540015494182
 21
100.5700345109994
  0
LINE
  8
0
  6
CONTINUOUS
 62
     7
 10
-87.74232876746896
 20
101.0349099576545
 11
-87.80501876527018
 21
99.59907294578663
  0
LINE
  8
0
  6
CONTINUOUS
 62
     7
 10
-86.74540015494195
 20
100.5700345109995
 11
-87.80501876527022
 21
99.59907294578673
  0
LINE
  8
0
  6
CONTINUOUS
 62
     7
 10
-81.19901140511804
 20
111.9910679769287
 11
-82.92445400983584
 21
111.8401113094512
  0
LINE
  8
0
  6
CONTINUOUS
 62
     7
 10
-81.44300773626915
 20
111.4678161561966
 11
-83.16845034098679
 21
111.3168594887192
  0
LINE
  8
0
  6
CONTINUOUS
 62
     7
 10
-81.68700406742003
 20
110.9445643354648
 11
-83.41244667213773
 21
110.7936076679874
  0
LINE
  8
0
  6
CONTINUOUS
 62
     7
 10
-81.9310003985709
 20
110.4213125147324
 11
-83.65644300328856
 21
110.270355847255
  0
LINE
  8
0
  6
CONTINUOUS
 62
     7
 10
-82.1749967297218
 20
109.8980606940002
 11
-83.90043933443968
 21
109.7471040265228
  0
LINE
  8
0
  6
CONTINUOUS
 62
     7
 10
-82.41899306087265
 20
109.3748088732682
 11
-84.14443566559042
 21
109.2238522057908
  0
LINE
  8
0
  6
CONTINUOUS
 62
     7
 10
-82.66298939202358
 20
108.851557052536
 11
-84.38843199674135
 21
108.7006003850587
  0
LINE
  8
0
  6
CONTINUOUS
 62
     7
 10
-82.90698572317452
 20
108.3283052318043
 11
-84.63242832789227
 21
108.1773485643268
  0
LINE
  8
0
  6
CONTINUOUS
 62
     7
 10
-83.15098205432545
 20
107.805053411072
 11
-84.87642465904321
 21
107.6540967435945
  0
LINE
  8
0
  6
CONTINUOUS
 62
     7
 10
-83.39497838547652
 20
107.28180159034
 11
-85.12042099019416
 21
107.1308449228625
  0
LINE
  8
0
  6
CONTINUOUS
 62
     7
 10
-83.63897471662722
 20
106.7585497696076
 11
-85.36441732134509
 21
106.6075931021301
  0
LINE
  8
0
  6
CONTINUOUS
 62
     7
 10
-83.88297104777828
 20
106.2352979488758
 11
-85.60841365249593
 21
106.0843412813983
  0
LINE
  8
0
  6
CONTINUOUS
 62
     7
 10
-84.12696737892915
 20
105.7120461281437
 11
-85.85240998364691
 21
105.5610894606663
  0
LINE
  8
0
  6
CONTINUOUS
 62
     7
 10
-84.37096371008008
 20
105.1887943074116
 11
-86.09640631479772
 21
105.0378376399342
  0
LINE
  8
0
  6
CONTINUOUS
 62
     7
 10
-84.61496004123097
 20
104.6655424866793
 11
-86.34040264594884
 21
104.5145858192019
  0
LINE
  8
0
  6
CONTINUOUS
 62
     7
 10
-84.85895637238208
 20
104.1422906659475
 11
-86.58439897709984
 21
103.9913339984701
  0
LINE
  8
0
  6
CONTINUOUS
 62
     7
 10
-85.10295270353281
 20
103.6190388452153
 11
-86.82839530825051
 21
103.4680821777379
  0
LINE
  8
0
  6
CONTINUOUS
 62
     7
 10
-85.34694903468379
 20
103.0957870244833
 11
-87.07239163940149
 21
102.9448303570059
  0
LINE
  8
0
  6
CONTINUOUS
 62
     7
 10
-85.59094536583466
 20
102.572535203751
 11
-87.31638797055248
 21
102.4215785362736
  0
LINE
  8
0
  6
CONTINUOUS
 62
     7
 10
-85.83494169698557
 20
102.049283383019
 11
-87.56038430170338
 21
101.8983267155416
  0
LINE
  8
0
  6
CONTINUOUS
 62
     7
 10
-86.07893802813653
 20
101.526031562287
 11
-87.80438063285429
 21
101.3750748948095
  0
LINE
  8
0
  6
CONTINUOUS
 62
     7
 10
-86.32293435928732
 20
101.0027797415548
 11
-87.95013578647658
 21
100.8604180634025
  0
LINE
  8
0
  6
CONTINUOUS
 62
     7
 10
-86.56693069043847
 20
100.4795279208227
 11
-87.97213345552422
 21
100.3565886089224
  0
LINE
  8
0
  6
CONTINUOUS
 62
     7
 10
-87.15170161264848
 20
99.92646218655543
 11
-87.99413112457209
 21
99.85275915444244
  0
LINE
  8
0
  6
CONTINUOUS
 62
     7
 10
-84.48717280563102
 20
151.5353863667401
 11
-84.48717280563102
 21
115.0754003916543
  0
LINE
  8
0
  6
CONTINUOUS
 62
     7
 10
-91.82043292459254
 20
151.5353863667401
 11
-91.82043292459254
 21
115.0754003916543
  0
LINE
  8
0
  6
CONTINUOUS
 62
     7
 10
-97.98703802462809
 20
112.0754303429883
 11
-78.32056770559552
 21
112.0754303429883
  0
LINE
  8
0
  6
CONTINUOUS
 62
     7
 10
-78.15390270289174
 20
112.242095345692
 11
-78.15390270289174
 21
114.8754023884099
  0
LINE
  8
0
  6
CONTINUOUS
 62
     7
 10
-97.95370502408743
 20
115.0754003916543
 11
-78.35390070613613
 21
115.0754003916543
  0
LINE
  8
0
  6
CONTINUOUS
 62
     7
 10
-98.15370302733176
 20
112.242095345692
 11
-98.15370302733176
 21
114.8754023884099
  0
LINE
  8
0
  6
PHANTOM
 62
     7
 10
-101.8223755250356
 20
112.0754303429883
 11
-74.67706982146774
 21
112.0754303429883
  0
ARC
  8
0
  6
CONTINUOUS
 62
     7
 10
-88.15380286511176
 20
155.4083310459416
 40
5.333280086517334
 50
226.5674634422109
 51
313.4325365577906
  0
CIRCLE
  8
0
  6
CONTINUOUS
 62
     7
 10
-88.15380286511176
 20
155.4083310459416
 40
5.333280086517334
  0
ARC
  8
0
  6
CONTINUOUS
 62
     7
 10
-78.35390070613613
 20
114.8754023884099
 40
0.1999980032443999
 50
0
 51
90.00000000000019
  0
ARC
  8
0
  6
CONTINUOUS
 62
     7
 10
-97.95370502408743
 20
114.8754023884099
 40
0.1999980032443999
 50
90.00000000000019
 51
180.0000000000004
  0
ARC
  8
0
  6
CONTINUOUS
 62
     7
 10
-78.32056770559552
 20
112.242095345692
 40
0.1666650027036667
 50
270.0000000000005
 51
360
  0
ARC
  8
0
  6
CONTINUOUS
 62
     7
 10
-97.98703802462804
 20
112.242095345692
 40
0.1666650027036667
 50
180.0000000000004
 51
270.0000000000005
  0
ENDBLK
  8
0
  0
BLOCK
  8
0
  2
KOZU0006
 70
    64
 10
0
 20
0
  0
LINE
  8
0
  6
HIDDEN
 62
     7
 10
1.196151174020317e-007
 20
296.9999999986237
 11
1.196135599457193e-007
 21
-1.376406544296233e-009
  0
LINE
  8
0
  6
CONTINUOUS
 62
     7
 10
-405.0000000000001
 20
281.9999991488949
 11
-405.0000000000001
 21
14.99999914889486
  0
LINE
  8
0
  6
CONTINUOUS
 62
     7
 10
-405.0000000000001
 20
281.9999991488949
 11
-15
 21
281.9999991488949
  0
LINE
  8
0
  6
CONTINUOUS
 62
     7
 10
-120
 20
54.99999914889487
 11
-120
 21
14.99999914889486
  0
LINE
  8
0
  6
CONTINUOUS
 62
     7
 10
-173.5
 20
44.99999914889486
 11
-100
 21
44.99999914889486
  0
LINE
  8
0
  6
CONTINUOUS
 62
     7
 10
-155.5
 20
44.99999914889487
 11
-155.5
 21
29.99999914889487
  0
LINE
  8
0
  6
CONTINUOUS
 62
     7
 10
-173.5
 20
29.99999914889486
 11
-100
 21
29.99999914889486
  0
LINE
  8
0
  6
CONTINUOUS
 62
     7
 10
-405.0000000000001
 20
14.99999914889486
 11
-15
 21
14.99999914889486
  0
LINE
  8
0
  6
CONTINUOUS
 62
     7
 10
-100
 20
54.99999914889487
 11
-100
 21
14.99999914889486
  0
LINE
  8
0
  6
CONTINUOUS
 62
     7
 10
-173.5
 20
54.99999914889486
 11
-15
 21
54.99999914889486
  0
LINE
  8
0
  6
CONTINUOUS
 62
     7
 10
-100
 20
34.99999914889486
 11
-15
 21
34.99999914889486
  0
LINE
  8
0
  6
CONTINUOUS
 62
     7
 10
-15
 20
281.9999991488949
 11
-15
 21
14.99999914889486
  0
LINE
  8
0
  6
HIDDEN
 62
     7
 10
1.196151174020317e-007
 20
296.9999999986247
 11
1.196135599457193e-007
 21
-1.376406544296233e-009
  0
LINE
  8
0
  6
HIDDEN
 62
     7
 10
1.196151174020317e-007
 20
296.9999999986237
 11
-419.999999880385
 21
296.9999999986259
  0
LINE
  8
0
  6
HIDDEN
 62
     7
 10
1.196135599457193e-007
 20
-1.376406544296233e-009
 11
-419.9999998803865
 21
-1.374204080824215e-009
  0
LINE
  8
0
  6
HIDDEN
 62
     7
 10
1.196151174020317e-007
 20
296.9999999986247
 11
-419.999999880385
 21
296.999999998627
  0
LINE
  8
0
  6
HIDDEN
 62
     7
 10
1.196166748583441e-007
 20
296.9999999986247
 11
-419.9999998803834
 21
296.999999998627
  0
LINE
  8
0
  6
HIDDEN
 62
     7
 10
0
 20
297.0000001025692
 11
0
 21
0
  0
LINE
  8
0
  6
CONTINUOUS
 62
     7
 10
-138
 20
54.99999914889487
 11
-138
 21
29.99999914889487
  0
LINE
  8
0
  6
CONTINUOUS
 62
     7
 10
-173.5
 20
54.99999914889487
 11
-173.5
 21
14.99999914889486
  0
LINE
  8
0
  6
HIDDEN
 62
     7
 10
-420
 20
297.0000001025692
 11
-420
 21
0
  0
TEXT
  8
0
  6
CONTINUOUS
 62
     7
 10
-98.07142877578737
 20
30.99999914889486
 40
3
 41
0.8643456467059479
  1
品番
  0
TEXT
  8
0
  6
CONTINUOUS
 62
     7
 10
-109.0000004768372
 20
47.24999914889486
 40
3.5
 41
0.8643458756793734
  1
ｍｍ
  0
TEXT
  8
0
  6
CONTINUOUS
 62
     7
 10
-118.5714287757874
 20
50.99999914889486
 40
3
 41
0.8643456467059479
  1
単位
  0
TEXT
  8
0
  6
CONTINUOUS
 62
     7
 10
-171.5714287757874
 20
25.99999914889486
 40
3
 41
0.8643456467059479
  1
備考
  0
TEXT
  8
0
  6
CONTINUOUS
 62
     7
 10
-154.0714287757874
 20
40.99999914889486
 40
3
 41
0.8643456467059479
  1
検図
  0
TEXT
  8
0
  6
CONTINUOUS
 62
     7
 10
-98.07142877578737
 20
50.99999914889486
 40
3
 41
0.8643456467059479
  1
名称
  0
TEXT
  8
0
  6
CONTINUOUS
 62
     7
 10
-134.5714201927185
 20
48.50000153308065
 40
2.999995231628418
 41
0.8512496636006857
  1
第三角法
  0
TEXT
  8
0
  6
CONTINUOUS
 62
     7
 10
-118.5714287757874
 20
40.99999914889486
 40
3
 41
0.8643456467059479
  1
尺度
  0
TEXT
  8
0
  6
CONTINUOUS
 62
     7
 10
-172.0714287757874
 20
40.99999914889486
 40
3
 41
0.8643456467059479
  1
製図
  0
TEXT
  8
0
  6
CONTINUOUS
 62
     7
 10
-136.5714287757874
 20
40.99999914889486
 40
3
 41
0.8643456467059479
  1
日付
  0
TEXT
  8
0
  6
CONTINUOUS
 62
     7
 10
-118.5714287757874
 20
25.99999914889486
 40
3
 41
0.8553419794355121
  1
図面数
  0
INSERT
  8
0
  6
CONTINUOUS
 62
     7
  2
KOZU0001
 10
-155.75
 20
49.99999914889486
 41
0.09090906381607058
 42
0.09090906381607058
 43
0.09090906381607058
 50
-3.004568130436444e-013
  0
ENDBLK
  8
0
  0
BLOCK
  8
0
  2
KOZU0007
 70
    64
 10
0
 20
0
  0
LINE
  8
0
  6
CONTINUOUS
 62
     7
 10
0
 20
0
 11
8.49363242957827
 21
-12.98083446784602
  0
LINE
  8
0
  6
CONTINUOUS
 62
     7
 10
0
 20
0
 11
2.479370558007341
 21
-1.962835025089095
  0
LINE
  8
0
  6
CONTINUOUS
 62
     7
 10
0
 20
0
 11
0.8057954313524161
 21
-3.05789035487568
  0
TEXT
  8
0
  6
CONTINUOUS
 62
     7
 10
10.2171712076219
 20
-11.98083446784631
 40
3
 41
0.8638655838846159
  1
抗菌
  0
LINE
  8
0
  6
CONTINUOUS
 62
     7
 10
0
 20
0
 11
8.49363242957827
 21
-12.98083446784602
  0
LINE
  8
0
  6
CONTINUOUS
 62
     7
 10
8.49363242957827
 20
-12.98083446784602
 11
17.0771714603456
 21
-12.98083446784602
  0
ENDBLK
  8
0
  0
BLOCK
  8
0
  2
KOZU0008
 70
    64
 10
0
 20
0
  0
LINE
  8
0
  6
CONTINUOUS
 62
     7
 10
0
 20
0
 11
6.989272922405121
 21
6.427634919711863
  0
LINE
  8
0
  6
CONTINUOUS
 62
     7
 10
0
 20
0
 11
1.531271778910336
 21
2.766804373052586
  0
LINE
  8
0
  6
CONTINUOUS
 62
     7
 10
0
 20
0
 11
2.88510004695982
 21
1.294680431095868
  0
TEXT
  8
0
  6
CONTINUOUS
 62
     7
 10
9.384516545650911
 20
7.427634919711537
 40
3
 41
0.8510313569543196
  1
ＴＯＴＯ
  0
LINE
  8
0
  6
CONTINUOUS
 62
     7
 10
0
 20
0
 11
6.989272922405121
 21
6.427634919711863
  0
LINE
  8
0
  6
CONTINUOUS
 62
     7
 10
6.989272922405178
 20
6.427634919711878
 11
22.24451703679318
 21
6.427634919711878
  0
ENDBLK
  8
0
  0
BLOCK
  8
0
  2
KOZU0009
 70
    64
 10
0
 20
0
  0
LINE
  8
0
  6
CONTINUOUS
 62
     7
 10
0
 20
0
 11
7.676431324576242
 21
-6.29632377086412
  0
LINE
  8
0
  6
CONTINUOUS
 62
     7
 10
0
 20
0
 11
2.953737798858567
 21
-1.129350572330969
  0
LINE
  8
0
  6
CONTINUOUS
 62
     7
 10
0
 20
0
 11
1.685379895688272
 21
-2.675723137179915
  0
TEXT
  8
0
  6
CONTINUOUS
 62
     7
 10
9.511284421019752
 20
-5.546323770864291
 40
3
 41
0.8462185218554585
  1
%%C４．５×４５
  0
TEXT
  8
0
  6
CONTINUOUS
 62
     7
 10
9.511284421019752
 20
-10.54632377086429
 40
3
 41
0.8443929637145115
  1
十字穴付タッピンねじ
  0
LINE
  8
0
  6
CONTINUOUS
 62
     7
 10
0
 20
0
 11
7.676431324576242
 21
-6.29632377086412
  0
LINE
  8
0
  6
CONTINUOUS
 62
     7
 10
7.676431324576242
 20
-6.296323770864106
 11
40.37128562741776
 21
-6.296323770864106
  0
ENDBLK
  8
0
  0
ENDSEC
  0
SECTION
  2
ENTITIES
  0
LINE
  8
0
  6
CONTINUOUS
 62
     7
 10
-519.4659012954356
 20
336.226291028965
 11
-519.4659012954356
 21
286.0572555810666
  0
LINE
  8
0
  6
CONTINUOUS
 62
     7
 10
-285.2833946930011
 20
591.7442012894503
 11
-240.687183330453
 21
591.7442012894503
  0
LINE
  8
0
  6
PHANTOM
 62
     7
 10
-1051.16774782703
 20
346.2262910289649
 11
-437.7595620637408
 21
346.2262910289649
  0
TEXT
  8
0
  6
CONTINUOUS
 62
     7
 10
-1074.353570757153
 20
138.755774763279
 40
10.5
 41
0.8430099898416067
  1
必ず縦向きに取り付けてください
  0
TEXT
  8
0
  6
CONTINUOUS
 62
     7
 10
-1074.353570757153
 20
113.755774956979
 40
10.5
 41
0.8414057109549256
  1
手すりを取り付ける際は、同梱のタッピンねじ（Φ４．５×４５）を使用するか、
  0
TEXT
  8
0
  6
CONTINUOUS
 62
     7
 10
-1074.353570757153
 20
96.25577519539756
 40
10.5
 41
0.8416149647227532
  1
又は、施工方法にあった当社指定の固定金具を必ず使用してください
  0
TEXT
  8
0
  6
CONTINUOUS
 62
     7
 10
-285.0137411028765
 20
595.0413641710765
 40
9
 41
0.8487395307167668
  1
取付座詳細
  0
TEXT
  8
0
  6
CONTINUOUS
 62
     7
 10
-1030.838593807491
 20
348.2012911421529
 40
9
 41
0.8418367665547591
  1
W.L.
  0
INSERT
  8
0
  6
CONTINUOUS
 62
     7
  2
KOZU0002
 10
0
 20
0
 41
3
 42
3
 43
3
  0
INSERT
  8
0
  6
CONTINUOUS
 62
     7
  2
KOZU0003
 10
0
 20
0
 41
3
 42
3
 43
3
  0
INSERT
  8
0
  6
CONTINUOUS
 62
     7
  2
KOZU0004
 10
0
 20
0
 41
3
 42
3
 43
3
  0
INSERT
  8
0
  6
CONTINUOUS
 62
     7
  2
KOZU0005
 10
0
 20
0
 41
3
 42
3
 43
3
  0
DIMENSION
  8
0
  6
CONTINUOUS
 62
     7
  2
*D1
 70
     0
 10
-634.276353386615
 20
450.2251528782729
 11
-634.276353386615
 21
466.224993137825
  3
DIMSTYLE
 13
-654.6393859127527
 23
482.2248333973772
 14
-654.6393859127527
 24
450.2251528782729
 50
90
1001
ACAD
1000
DSTYLE
1002
{
1070
     6
1000
_DOT
1070
     7
1000
_DOT
1070
    40
1040
3
1070
    77
1070
     1
1070
   172
1070
     1
1070
   147
1040
0
1002
}
  0
DIMENSION
  8
0
  6
CONTINUOUS
 62
     7
  2
*D2
 70
     0
 10
-456.7891062742608
 20
346.2262910289649
 11
-456.7891062742608
 21
350.7262461019639
  3
DIMSTYLE
 13
-489.4662008087753
 23
355.2262011749629
 14
-489.4662008087753
 24
346.2262910289649
 50
90
1001
ACAD
1000
DSTYLE
1002
{
1070
     6
1000
_DOT
1070
     7
1000
_DOT
1070
    40
1040
3
1070
    77
1070
     1
1070
   172
1070
     1
1070
   147
1040
0
1002
}
  0
DIMENSION
  8
0
  6
CONTINUOUS
 62
     7
  2
*D3
 70
     3
 11
-223.5727150793192
 21
672.1381009655717
 10
-282.233750067256
 20
642.0747115010788
  3
DIMSTYLE
 15
-246.6363237474205
 25
660.3181552385938
1001
ACAD
1000
DSTYLE
1002
{
1070
     6
1000
_DOT
1070
     7
1000
_DOT
1070
    40
1040
3
1070
    77
1070
     1
1070
   172
1070
     1
1070
   147
1040
0
1002
}
  0
DIMENSION
  8
0
  6
CONTINUOUS
 62
     7
  2
*D4
 70
     3
 11
-222.918619313773
 21
633.5949881131055
 10
-247.531070352357
 20
653.7291348736309
  3
DIMSTYLE
 15
-241.3390034623195
 25
648.6637318660407
1001
ACAD
1000
DSTYLE
1002
{
1070
     6
1000
_DOT
1070
     7
1000
_DOT
1070
    40
1040
3
1070
    77
1070
     1
1070
   172
1070
     1
1070
   147
1040
0
1002
}
  0
DIMENSION
  8
0
  6
CONTINUOUS
 62
     7
  2
*D5
 70
     0
 10
-489.4662008087753
 20
272.9861211753147
 11
-519.4659012954354
 21
272.9861211753147
  3
DIMSTYLE
 13
-549.4656017820954
 23
346.2262910289649
 14
-489.4662008087753
 24
346.2262910289649
 50
0
1001
ACAD
1000
DSTYLE
1002
{
1070
     6
1000
_DOT
1070
     7
1000
_DOT
1070
    40
1040
3
1070
    77
1070
     1
1070
   172
1070
     1
1070
   147
1040
0
1002
}
  0
DIMENSION
  8
0
  6
CONTINUOUS
 62
     7
  2
*D6
 70
     0
 10
-444.4666500787853
 20
251.8664119000132
 11
-481.9662756871105
 21
251.8664119000132
  3
DIMSTYLE
 13
-519.4659012954356
 23
346.2262910289649
 14
-444.4666500787853
 24
460.2251528782728
 50
0
1001
ACAD
1000
DSTYLE
1002
{
1070
     6
1000
_DOT
1070
     7
1000
_DOT
1070
    40
1040
3
1070
    77
1070
     1
1070
   172
1070
     1
1070
   147
1040
0
1070
    75
1070
     1
1002
}
  0
DIMENSION
  8
0
  6
CONTINUOUS
 62
     7
  2
*D7
 70
     0
 10
-519.4659012954356
 20
251.8664119000132
 11
-744.4636549453857
 21
251.8664119000132
  3
DIMSTYLE
 13
-969.4614085953356
 23
346.2262910289649
 14
-519.4659012954356
 24
275.9542132073576
 50
0
1001
ACAD
1000
DSTYLE
1002
{
1070
     6
1000
_DOT
1070
     7
1000
_DOT
1070
    40
1040
3
1070
    77
1070
     1
1070
   172
1070
     1
1070
   147
1040
0
1070
    75
1070
     1
1002
}
  0
DIMENSION
  8
0
  6
CONTINUOUS
 62
     7
  2
*D8
 70
     0
 10
-969.4614085953356
 20
251.8664119000132
 11
-1006.961034203661
 21
251.8664119000132
  3
DIMSTYLE
 13
-1044.460659811986
 23
460.2251528782728
 14
-969.4614085953356
 24
346.2262910289649
 50
0
1001
ACAD
1000
DSTYLE
1002
{
1070
     6
1000
_DOT
1070
     7
1000
_DOT
1070
    40
1040
3
1070
    77
1070
     1
1070
   172
1070
     1
1070
   147
1040
0
1002
}
  0
INSERT
  8
0
  6
CONTINUOUS
 62
     7
  2
KOZU0007
 10
-899.7510818971701
 20
464.1194979676392
 41
3
 42
3
 43
3
  0
DIMENSION
  8
0
  6
CONTINUOUS
 62
     7
  2
*D9
 70
     0
 10
-444.4666500787853
 20
516.6552065794496
 11
-506.9660260926603
 21
516.6552065794496
  3
DIMSTYLE
 13
-569.4654021065356
 23
482.2248333973769
 14
-444.4666500787853
 24
480.7248483730439
 50
0
1001
ACAD
1000
DSTYLE
1002
{
1070
     6
1000
_DOT
1070
     7
1000
_DOT
1070
    40
1040
3
1070
    77
1070
     1
1070
   172
1070
     1
1070
   147
1040
0
1070
    75
1070
     1
1002
}
  0
DIMENSION
  8
0
  6
CONTINUOUS
 62
     7
  2
*D10
 70
     0
 10
-569.4654021065356
 20
516.6552065794496
 11
-744.4636549453857
 21
516.6552065794496
  3
DIMSTYLE
 13
-919.4619077842356
 23
482.2248333973769
 14
-569.4654021065356
 24
482.2248333973769
 50
0
1001
ACAD
1000
DSTYLE
1002
{
1070
     6
1000
_DOT
1070
     7
1000
_DOT
1070
    40
1040
3
1070
    77
1070
     1
1070
   172
1070
     1
1070
   147
1040
0
1070
    75
1070
     1
1002
}
  0
DIMENSION
  8
0
  6
CONTINUOUS
 62
     7
  2
*D11
 70
     0
 10
-919.4619077842356
 20
516.6552065794496
 11
-981.9612837981106
 21
516.6552065794496
  3
DIMSTYLE
 13
-1044.460659811986
 23
482.2248333973769
 14
-919.4619077842356
 24
482.2248333973769
 50
0
1001
ACAD
1000
DSTYLE
1002
{
1070
     6
1000
_DOT
1070
     7
1000
_DOT
1070
    40
1040
3
1070
    77
1070
     1
1070
   172
1070
     1
1070
   147
1040
0
1002
}
  0
INSERT
  8
0
  6
CONTINUOUS
 62
     7
  2
KOZU0008
 10
-965.0077671099706
 20
356.0444044557525
 41
3
 42
3
 43
3
  0
INSERT
  8
0
  6
CONTINUOUS
 62
     7
  2
KOZU0009
 10
-958.8115149225724
 20
331.2935829397843
 41
3
 42
3
 43
3
  0
DIMENSION
  8
0
  6
CONTINUOUS
 62
     7
  2
*D12
 70
     0
 10
-392.8685378167239
 20
346.2262910289649
 11
-392.8685378167239
 21
406.2256420833949
  3
DIMSTYLE
 13
-429.4667998354552
 23
466.2249931378249
 14
-437.7595620637408
 24
346.2262910289649
 50
90
1001
ACAD
1000
DSTYLE
1002
{
1070
     6
1000
_DOT
1070
     7
1000
_DOT
1070
    40
1040
3
1070
    77
1070
     1
1070
   172
1070
     1
1070
   147
1040
0
1002
}
  0
DIMENSION
  8
0
  6
CONTINUOUS
 62
     7
  2
*D13
 70
     0
 10
-444.4666500787853
 20
580.6462154708494
 11
-744.4636549453857
 21
580.6462154708494
  3
DIMSTYLE
 13
-1044.460659811986
 23
635.226450769413
 14
-444.4666500787853
 24
635.226450769413
 50
0
1001
ACAD
1000
DSTYLE
1002
{
1070
     6
1000
_DOT
1070
     7
1000
_DOT
1070
    40
1040
3
1070
    77
1070
     1
1070
   172
1070
     1
1070
   147
1040
0
1002
}
  0
LINE
  8
1
  6
CONTINUOUS
 62
     7
 10
-333
 20
827.9999974466848
 11
-333
 21
701.9999974466848
  0
LINE
  8
1
  6
CONTINUOUS
 62
     7
 10
-333
 20
755.9999974466848
 11
-63.00000000000001
 21
755.9999974466848
  0
LINE
  8
1
  6
CONTINUOUS
 62
     7
 10
-63.00000000000001
 20
827.9999974466848
 11
-63.00000000000001
 21
701.9999974466848
  0
LINE
  8
1
  6
CONTINUOUS
 62
     7
 10
-333
 20
773.9999974466848
 11
-63.00000000000001
 21
773.9999974466848
  0
LINE
  8
1
  6
CONTINUOUS
 62
     7
 10
-333
 20
791.9999974466848
 11
-63.00000000000001
 21
791.9999974466848
  0
LINE
  8
1
  6
CONTINUOUS
 62
     7
 10
-183
 20
827.9999974466848
 11
-63.00000000000001
 21
827.9999974466848
  0
LINE
  8
1
  6
CONTINUOUS
 62
     7
 10
-333
 20
827.9999974466848
 11
-183
 21
827.9999974466848
  0
LINE
  8
1
  6
CONTINUOUS
 62
     7
 10
-333
 20
809.9999974466848
 11
-63.00000000000001
 21
809.9999974466848
  0
LINE
  8
1
  6
CONTINUOUS
 62
     7
 10
-183
 20
827.9999974466848
 11
-183
 21
701.9999974466848
  0
LINE
  8
1
  6
CONTINUOUS
 62
     7
 10
-348.5052853328602
 20
176.9999974466846
 11
-78.00000000000001
 21
176.9999974466846
  0
LINE
  8
1
  6
CONTINUOUS
 62
     7
 10
-348.5052853328602
 20
194.9999974466846
 11
-78.00000000000001
 21
194.9999974466846
  0
LINE
  8
1
  6
CONTINUOUS
 62
     7
 10
-348.5052853328602
 20
212.9999974466846
 11
-78.00000000000001
 21
212.9999974466846
  0
LINE
  8
1
  6
CONTINUOUS
 62
     7
 10
-333
 20
737.9999974466848
 11
-63.00000000000001
 21
737.9999974466848
  0
LINE
  8
1
  6
CONTINUOUS
 62
     7
 10
-333
 20
719.9999974466848
 11
-63.00000000000001
 21
719.9999974466848
  0
LINE
  8
1
  6
CONTINUOUS
 62
     7
 10
-333
 20
701.9999974466848
 11
-63.00000000000001
 21
701.9999974466848
  0
TEXT
  8
1
  6
CONTINUOUS
 62
     7
 10
-327.0543723106384
 20
796.4999974466848
 40
9
 41
0.8023251639841329
  1
ＵＧＹＨＲ６００Ｗ３＃ＮＷ１
  0
TEXT
  8
1
  6
CONTINUOUS
 62
     7
 10
-270.6000001430512
 20
814.4999974466848
 40
9
 41
0.882352951194058
  1
品　番
  0
TEXT
  8
1
  6
CONTINUOUS
 62
     7
 10
-327.0543723106384
 20
778.4999974466848
 40
9
 41
0.8023251639841329
  1
ＵＧＹＨＲ６００Ｗ３＃ＥＬＷ
  0
TEXT
  8
1
  6
CONTINUOUS
 62
     7
 10
-177.2100001573562
 20
778.4999974466848
 40
9
 41
0.8462185218554585
  1
フィナベージュ
  0
TEXT
  8
1
  6
CONTINUOUS
 62
     7
 10
-177.2100001573562
 20
796.4999974466848
 40
9
 41
0.8510313569543196
  1
ホワイト
  0
TEXT
  8
1
  6
CONTINUOUS
 62
     7
 10
-135.6000001430512
 20
814.4999974466848
 40
9
 41
0.882352951194058
  1
表面色
  0
TEXT
  8
1
  6
CONTINUOUS
 62
     7
 10
-177.2100001573562
 20
760.4999974466848
 40
9
 41
0.8462185218554585
  1
フィナブラウン
  0
TEXT
  8
1
  6
CONTINUOUS
 62
     7
 10
-327.0543723106384
 20
760.4999974466848
 40
9
 41
0.8023251639841329
  1
ＵＧＹＨＲ６００Ｗ３＃ＭＷＷ
  0
TEXT
  8
1
  6
CONTINUOUS
 62
     7
 10
-345.9339314801114
 20
180.7499974466846
 40
9
 41
0.841707574778384
  1
・ブラケットの材質：ステンレス（ＳＵＳ３０４・鏡面仕上げ）
  0
TEXT
  8
1
  6
CONTINUOUS
 62
     7
 10
-345.9339314801114
 20
198.7499974466846
 40
9
 41
0.8417580277859179
  1
・握りバーの材質：天然木（ハードメープル無垢材）（※部）
  0
TEXT
  8
1
  6
CONTINUOUS
 62
     7
 10
-345.9339314801114
 20
216.7499974466846
 40
9
 41
0.844451174532908
  1
・握りバーの色：上記
  0
TEXT
  8
1
  6
CONTINUOUS
 62
     7
 10
-412.4999994635583
 20
99.74999744668457
 40
10.5
 41
0.4709576039072528
  1
’２０．０４．１０
  0
TEXT
  8
1
  6
CONTINUOUS
 62
     7
 10
-276.0000014305115
 20
129.7499974466846
 40
10.5
 41
0.8423708582864588
  1
インテリア・バー（コンテンポラリタイプ）
  0
TEXT
  8
1
  6
CONTINUOUS
 62
     7
 10
-234.0000014305115
 20
69.74999744668457
 40
10.5
 41
0.8437660974860092
  1
ＵＧＹＨＲ６００Ｗ３＃＊
  0
TEXT
  8
1
  6
CONTINUOUS
 62
     7
 10
-344.9999996423723
 20
99.74999744668457
 40
10.5
 41
0.9003601225913644
  1
１：３
  0
TEXT
  8
1
  6
CONTINUOUS
 62
     7
 10
-431.9389032565064
 20
115.4999974466878
 40
9
 41
0.8991597079429307
  1
由
  0
TEXT
  8
1
  6
CONTINUOUS
 62
     7
 10
-431.9389032565064
 20
100.4999974466878
 40
9
 41
0.8991597079429307
  1
井
  0
TEXT
  8
1
  6
CONTINUOUS
 62
     7
 10
-344.9999996423723
 20
54.74999744668457
 40
10.5
 41
0.9003601225913644
  1
１／１
  0
TEXT
  8
1
  6
CONTINUOUS
 62
     7
 10
-488.9389032565064
 20
107.9999974466878
 40
9
 41
0.8991597079429307
  1
正
  0
TEXT
  8
1
  6
CONTINUOUS
 62
     7
 10
-177.2100001573562
 20
742.4999974466848
 40
9
 41
0.8462185218554585
  1
フィナホワイト
  0
TEXT
  8
1
  6
CONTINUOUS
 62
     7
 10
-327.0543723106384
 20
742.4999974466848
 40
9
 41
0.8023251639841329
  1
ＵＧＹＨＲ６００Ｗ３＃ＥＷＷ
  0
TEXT
  8
1
  6
CONTINUOUS
 62
     7
 10
-327.0543723106384
 20
724.4999974466848
 40
9
 41
0.8023251639841329
  1
ＵＧＹＨＲ６００Ｗ３＃ＥＭＷ
  0
TEXT
  8
1
  6
CONTINUOUS
 62
     7
 10
-177.2100001573562
 20
724.4999974466848
 40
9
 41
0.8443929637145115
  1
フィナソフトブラウン
  0
TEXT
  8
1
  6
CONTINUOUS
 62
     7
 10
-177.2100001573562
 20
706.4999974466848
 40
9
 41
0.847256584327762
  1
ミルベージュ
  0
TEXT
  8
1
  6
CONTINUOUS
 62
     7
 10
-327.0543723106384
 20
706.4999974466848
 40
9
 41
0.8023251639841329
  1
ＵＧＹＨＲ６００Ｗ３＃ＭＬＷ
  0
TEXT
  8
1
  6
CONTINUOUS
 62
     7
 10
-382.501548306942
 20
706.4999974466848
 40
9
 41
0.6302520908227488
  1
２０’０２廃番
  0
INSERT
  8
1
  6
CONTINUOUS
 62
     7
  2
KOZU0006
 10
0
 20
0
 41
3
 42
3
 43
3
  0
ENDSEC
  0
EOF
