  0
SECTION
  2
HEADER
  9
$ACADVER
  1
AC1015
  9
$ACADMAINTVER
 70
     6
  9
$DWGCODEPAGE
  3
ANSI_932
  9
$INSBASE
 10
0.0
 20
0.0
 30
0.0
  9
$EXTMIN
 10
-420.0
 20
0.0
 30
0.0
  9
$EXTMAX
 10
0.0
 20
297.0
 30
0.0
  9
$LIMMIN
 10
-420.0
 20
0.0
  9
$LIMMAX
 10
0.0
 20
297.0
  9
$ORTHOMODE
 70
     0
  9
$REGENMODE
 70
     1
  9
$FILLMODE
 70
     1
  9
$QTEXTMODE
 70
     0
  9
$MIRRTEXT
 70
     1
  9
$LTSCALE
 40
1.0
  9
$ATTMODE
 70
     1
  9
$TEXTSIZE
 40
2.5
  9
$TRACEWID
 40
1.0
  9
$TEXTSTYLE
  7
Standard
  9
$CLAYER
  8
0
  9
$CELTYPE
  6
ByLayer
  9
$CECOLOR
 62
   256
  9
$CELTSCALE
 40
1.0
  9
$DISPSILH
 70
     0
  9
$DIMSCALE
 40
1.0
  9
$DIMASZ
 40
2.5
  9
$DIMEXO
 40
0.625
  9
$DIMDLI
 40
3.75
  9
$DIMRND
 40
0.0
  9
$DIMDLE
 40
0.0
  9
$DIMEXE
 40
1.25
  9
$DIMTP
 40
0.0
  9
$DIMTM
 40
0.0
  9
$DIMTXT
 40
2.5
  9
$DIMCEN
 40
2.5
  9
$DIMTSZ
 40
0.0
  9
$DIMTOL
 70
     0
  9
$DIMLIM
 70
     0
  9
$DIMTIH
 70
     0
  9
$DIMTOH
 70
     0
  9
$DIMSE1
 70
     0
  9
$DIMSE2
 70
     0
  9
$DIMTAD
 70
     1
  9
$DIMZIN
 70
     8
  9
$DIMBLK
  1

  9
$DIMASO
 70
     1
  9
$DIMSHO
 70
     1
  9
$DIMPOST
  1

  9
$DIMAPOST
  1

  9
$DIMALT
 70
     0
  9
$DIMALTD
 70
     3
  9
$DIMALTF
 40
0.03937007874016
  9
$DIMLFAC
 40
1.0
  9
$DIMTOFL
 70
     1
  9
$DIMTVP
 40
0.0
  9
$DIMTIX
 70
     0
  9
$DIMSOXD
 70
     0
  9
$DIMSAH
 70
     0
  9
$DIMBLK1
  1

  9
$DIMBLK2
  1

  9
$DIMSTYLE
  2
ISO-25
  9
$DIMCLRD
 70
     0
  9
$DIMCLRE
 70
     0
  9
$DIMCLRT
 70
     0
  9
$DIMTFAC
 40
1.0
  9
$DIMGAP
 40
0.625
  9
$DIMJUST
 70
     0
  9
$DIMSD1
 70
     0
  9
$DIMSD2
 70
     0
  9
$DIMTOLJ
 70
     0
  9
$DIMTZIN
 70
     8
  9
$DIMALTZ
 70
     0
  9
$DIMALTTZ
 70
     0
  9
$DIMUPT
 70
     0
  9
$DIMDEC
 70
     2
  9
$DIMTDEC
 70
     2
  9
$DIMALTU
 70
     2
  9
$DIMALTTD
 70
     3
  9
$DIMTXSTY
  7
Standard
  9
$DIMAUNIT
 70
     0
  9
$DIMADEC
 70
     0
  9
$DIMALTRND
 40
0.0
  9
$DIMAZIN
 70
     0
  9
$DIMDSEP
 70
    44
  9
$DIMATFIT
 70
     3
  9
$DIMFRAC
 70
     0
  9
$DIMLDRBLK
  1

  9
$DIMLUNIT
 70
     2
  9
$DIMLWD
 70
    -2
  9
$DIMLWE
 70
    -2
  9
$DIMTMOVE
 70
     0
  9
$LUNITS
 70
     2
  9
$LUPREC
 70
     4
  9
$SKETCHINC
 40
1.0
  9
$FILLETRAD
 40
10.0
  9
$AUNITS
 70
     0
  9
$AUPREC
 70
     0
  9
$MENU
  1
.
  9
$ELEVATION
 40
0.0
  9
$PELEVATION
 40
0.0
  9
$THICKNESS
 40
0.0
  9
$LIMCHECK
 70
     0
  9
$CHAMFERA
 40
0.0
  9
$CHAMFERB
 40
0.0
  9
$CHAMFERC
 40
0.0
  9
$CHAMFERD
 40
0.0
  9
$SKPOLY
 70
     0
  9
$TDCREATE
 40
2459754.619287315
  9
$TDUCREATE
 40
2459754.244287315
  9
$TDUPDATE
 40
2459754.619288044
  9
$TDUUPDATE
 40
2459754.244288044
  9
$TDINDWG
 40
0.0000000116
  9
$TDUSRTIMER
 40
0.0000000116
  9
$USRTIMER
 70
     1
  9
$ANGBASE
 50
0.0
  9
$ANGDIR
 70
     0
  9
$PDMODE
 70
     0
  9
$PDSIZE
 40
0.0
  9
$PLINEWID
 40
0.0
  9
$SPLFRAME
 70
     0
  9
$SPLINETYPE
 70
     6
  9
$SPLINESEGS
 70
     8
  9
$HANDSEED
  5
29E
  9
$SURFTAB1
 70
     6
  9
$SURFTAB2
 70
     6
  9
$SURFTYPE
 70
     6
  9
$SURFU
 70
     6
  9
$SURFV
 70
     6
  9
$UCSBASE
  2

  9
$UCSNAME
  2

  9
$UCSORG
 10
0.0
 20
0.0
 30
0.0
  9
$UCSXDIR
 10
1.0
 20
0.0
 30
0.0
  9
$UCSYDIR
 10
0.0
 20
1.0
 30
0.0
  9
$UCSORTHOREF
  2

  9
$UCSORTHOVIEW
 70
     0
  9
$UCSORGTOP
 10
0.0
 20
0.0
 30
0.0
  9
$UCSORGBOTTOM
 10
0.0
 20
0.0
 30
0.0
  9
$UCSORGLEFT
 10
0.0
 20
0.0
 30
0.0
  9
$UCSORGRIGHT
 10
0.0
 20
0.0
 30
0.0
  9
$UCSORGFRONT
 10
0.0
 20
0.0
 30
0.0
  9
$UCSORGBACK
 10
0.0
 20
0.0
 30
0.0
  9
$PUCSBASE
  2

  9
$PUCSNAME
  2

  9
$PUCSORG
 10
0.0
 20
0.0
 30
0.0
  9
$PUCSXDIR
 10
1.0
 20
0.0
 30
0.0
  9
$PUCSYDIR
 10
0.0
 20
1.0
 30
0.0
  9
$PUCSORTHOREF
  2

  9
$PUCSORTHOVIEW
 70
     0
  9
$PUCSORGTOP
 10
0.0
 20
0.0
 30
0.0
  9
$PUCSORGBOTTOM
 10
0.0
 20
0.0
 30
0.0
  9
$PUCSORGLEFT
 10
0.0
 20
0.0
 30
0.0
  9
$PUCSORGRIGHT
 10
0.0
 20
0.0
 30
0.0
  9
$PUCSORGFRONT
 10
0.0
 20
0.0
 30
0.0
  9
$PUCSORGBACK
 10
0.0
 20
0.0
 30
0.0
  9
$USERI1
 70
     0
  9
$USERI2
 70
     0
  9
$USERI3
 70
     0
  9
$USERI4
 70
     0
  9
$USERI5
 70
     0
  9
$USERR1
 40
0.0
  9
$USERR2
 40
0.0
  9
$USERR3
 40
0.0
  9
$USERR4
 40
0.0
  9
$USERR5
 40
0.0
  9
$WORLDVIEW
 70
     1
  9
$SHADEDGE
 70
     3
  9
$SHADEDIF
 70
    70
  9
$TILEMODE
 70
     1
  9
$MAXACTVP
 70
    64
  9
$PINSBASE
 10
0.0
 20
0.0
 30
0.0
  9
$PLIMCHECK
 70
     0
  9
$PEXTMIN
 10
1.000000000000000E+20
 20
1.000000000000000E+20
 30
1.000000000000000E+20
  9
$PEXTMAX
 10
-1.000000000000000E+20
 20
-1.000000000000000E+20
 30
-1.000000000000000E+20
  9
$PLIMMIN
 10
-420.0
 20
0.0
  9
$PLIMMAX
 10
0.0
 20
297.0
  9
$UNITMODE
 70
     0
  9
$VISRETAIN
 70
     1
  9
$PLINEGEN
 70
     0
  9
$PSLTSCALE
 70
     1
  9
$TREEDEPTH
 70
  3020
  9
$CMLSTYLE
  2
Standard
  9
$CMLJUST
 70
     0
  9
$CMLSCALE
 40
20.0
  9
$PROXYGRAPHICS
 70
     1
  9
$MEASUREMENT
 70
     1
  9
$CELWEIGHT
370
    -1
  9
$ENDCAPS
280
     0
  9
$JOINSTYLE
280
     0
  9
$LWDISPLAY
290
     0
  9
$INSUNITS
 70
     4
  9
$HYPERLINKBASE
  1

  9
$STYLESHEET
  1

  9
$XEDIT
290
     1
  9
$CEPSNTYPE
380
     0
  9
$PSTYLEMODE
290
     1
  9
$FINGERPRINTGUID
  2
{88a1144e-4c02-4a1a-a8d5-8caf9d71f27f}
  9
$VERSIONGUID
  2
{FAEB1C32-E019-11D5-929B-00C0DF256EC4}
  9
$EXTNAMES
290
     1
  9
$PSVPSCALE
 40
0.0
  9
$OLESTARTUP
290
     0
  0
ENDSEC
  0
SECTION
  2
CLASSES
  0
CLASS
  1
ACDBDICTIONARYWDFLT
  2
AcDbDictionaryWithDefault
  3
ObjectDBX Classes
 90
        0
280
     0
281
     0
  0
CLASS
  1
VISUALSTYLE
  2
AcDbVisualStyle
  3
ObjectDBX Classes
 90
     4095
280
     0
281
     0
  0
CLASS
  1
MATERIAL
  2
AcDbMaterial
  3
ObjectDBX Classes
 90
     1153
280
     0
281
     0
  0
CLASS
  1
SCALE
  2
AcDbScale
  3
ObjectDBX Classes
 90
     1153
280
     0
281
     0
  0
CLASS
  1
TABLESTYLE
  2
AcDbTableStyle
  3
ObjectDBX Classes
 90
     4095
280
     0
281
     0
  0
CLASS
  1
MLEADERSTYLE
  2
AcDbMLeaderStyle
  3
ACDB_MLEADERSTYLE_CLASS
 90
     4095
280
     0
281
     0
  0
CLASS
  1
SUN
  2
AcDbSun
  3
SCENEOE
 90
     1153
280
     0
281
     0
  0
CLASS
  1
DICTIONARYVAR
  2
AcDbDictionaryVar
  3
ObjectDBX Classes
 90
        0
280
     0
281
     0
  0
CLASS
  1
ACDBPLACEHOLDER
  2
AcDbPlaceHolder
  3
ObjectDBX Classes
 90
        0
280
     0
281
     0
  0
CLASS
  1
LAYOUT
  2
AcDbLayout
  3
ObjectDBX Classes
 90
        0
280
     0
281
     0
  0
ENDSEC
  0
SECTION
  2
TABLES
  0
TABLE
  2
VPORT
  5
8
102
{ACAD_XDICTIONARY
360
260
102
}
330
0
100
AcDbSymbolTable
 70
     1
  0
VPORT
  5
29
330
8
100
AcDbSymbolTableRecord
100
AcDbViewportTableRecord
  2
*Active
 70
     0
 10
0.0
 20
0.0
 11
1.0
 21
1.0
 12
344.1869158878504
 22
148.5
 13
0.0
 23
0.0
 14
10.0
 24
10.0
 15
10.0
 25
10.0
 16
0.0
 26
0.0
 36
1.0
 17
0.0
 27
0.0
 37
0.0
 40
297.0
 41
1.972972972850329
 42
50.0
 43
0.0
 44
0.0
 50
0.0
 51
0.0
 71
     0
 72
   100
 73
     1
 74
     3
 75
     0
 76
     0
 77
     0
 78
     0
281
     0
 65
     1
110
0.0
120
0.0
130
0.0
111
1.0
121
0.0
131
0.0
112
0.0
122
1.0
132
0.0
 79
     0
146
0.0
  0
ENDTAB
  0
TABLE
  2
LTYPE
  5
5
330
0
100
AcDbSymbolTable
 70
     5
  0
LTYPE
  5
14
330
5
100
AcDbSymbolTableRecord
100
AcDbLinetypeTableRecord
  2
ByBlock
 70
     0
  3

 72
    65
 73
     0
 40
0.0
  0
LTYPE
  5
15
330
5
100
AcDbSymbolTableRecord
100
AcDbLinetypeTableRecord
  2
ByLayer
 70
     0
  3

 72
    65
 73
     0
 40
0.0
  0
LTYPE
  5
16
330
5
100
AcDbSymbolTableRecord
100
AcDbLinetypeTableRecord
  2
Continuous
 70
     0
  3
Solid line
 72
    65
 73
     0
 40
0.0
  0
LTYPE
  5
6E
330
5
100
AcDbSymbolTableRecord
100
AcDbLinetypeTableRecord
  2
CONTINOUS
 70
     0
  3
______________________________
 72
    65
 73
     0
 40
0.0
  0
LTYPE
  5
6F
330
5
100
AcDbSymbolTableRecord
100
AcDbLinetypeTableRecord
  2
DASHED
 70
     0
  3
__ __ __ __ __ __ __ __ __ __ __ __ __ __ __ __
 72
    65
 73
     2
 40
4.5
 49
3.0
 74
     0
 49
-1.5
 74
     0
  0
LTYPE
  5
70
330
5
100
AcDbSymbolTableRecord
100
AcDbLinetypeTableRecord
  2
PHANTOM
 70
     0
  3
______  __  __  ______  __  __  _____
 72
    65
 73
     6
 40
15.0
 49
7.5
 74
     0
 49
-1.5
 74
     0
 49
1.5
 74
     0
 49
-1.5
 74
     0
 49
1.5
 74
     0
 49
-1.5
 74
     0
  0
LTYPE
  5
71
330
5
100
AcDbSymbolTableRecord
100
AcDbLinetypeTableRecord
  2
CENTER
 70
     0
  3
____ _ ____ _ ____ _ ____ _ ____ _ ____
 72
    65
 73
     4
 40
12.0
 49
7.5
 74
     0
 49
-1.5
 74
     0
 49
1.5
 74
     0
 49
-1.5
 74
     0
  0
ENDTAB
  0
TABLE
  2
LAYER
  5
2
330
0
100
AcDbSymbolTable
 70
     3
  0
LAYER
  5
10
330
2
100
AcDbSymbolTableRecord
100
AcDbLayerTableRecord
  2
0
 70
     0
 62
     7
  6
Continuous
370
    -3
390
F
  0
LAYER
  5
1D0
330
2
100
AcDbSymbolTableRecord
100
AcDbLayerTableRecord
  2
Defpoints
 70
     0
 62
     7
  6
Continuous
290
     0
370
    -3
390
F
  0
LAYER
  5
233
330
2
100
AcDbSymbolTableRecord
100
AcDbLayerTableRecord
  2
AV
 70
     0
 62
     7
  6
Continuous
370
    -3
390
F
  0
ENDTAB
  0
TABLE
  2
STYLE
  5
3
330
0
100
AcDbSymbolTable
 70
     1
  0
STYLE
  5
11
330
3
100
AcDbSymbolTableRecord
100
AcDbTextStyleTableRecord
  2
Standard
 70
     0
 40
0.0
 41
1.0
 50
0.0
 71
     0
 42
2.5
  3
ROMANS
  4
BIGFONT
  0
ENDTAB
  0
TABLE
  2
VIEW
  5
6
330
0
100
AcDbSymbolTable
 70
     0
  0
ENDTAB
  0
TABLE
  2
UCS
  5
7
330
0
100
AcDbSymbolTable
 70
     0
  0
ENDTAB
  0
TABLE
  2
APPID
  5
9
330
0
100
AcDbSymbolTable
 70
     2
  0
APPID
  5
12
330
9
100
AcDbSymbolTableRecord
100
AcDbRegAppTableRecord
  2
ACAD
 70
     0
  0
APPID
  5
29A
330
9
100
AcDbSymbolTableRecord
100
AcDbRegAppTableRecord
  2
ACAD_MLEADERVER
 70
     0
  0
ENDTAB
  0
TABLE
  2
DIMSTYLE
  5
A
330
0
100
AcDbSymbolTable
 70
     1
100
AcDbDimStyleTable
  0
DIMSTYLE
105
27
102
{ACAD_REACTORS
330
1CA
330
1DE
330
1EE
330
1FA
330
206
330
213
330
220
102
}
330
A
100
AcDbSymbolTableRecord
100
AcDbDimStyleTableRecord
  2
ISO-25
 70
     0
 41
2.5
 42
0.625
 43
3.75
 44
1.25
 73
     0
 74
     0
 77
     1
 78
     8
140
2.5
141
2.5
143
0.03937007874016
147
0.625
171
     3
172
     1
178
     0
271
     2
272
     2
274
     3
278
    44
283
     0
284
     8
340
11
  0
ENDTAB
  0
TABLE
  2
BLOCK_RECORD
  5
1
330
0
100
AcDbSymbolTable
 70
    14
  0
BLOCK_RECORD
  5
1F
330
1
100
AcDbSymbolTableRecord
100
AcDbBlockTableRecord
  2
*Model_Space
340
22
  0
BLOCK_RECORD
  5
1B
330
1
100
AcDbSymbolTableRecord
100
AcDbBlockTableRecord
  2
*Paper_Space
340
1E
  0
BLOCK_RECORD
  5
23
330
1
100
AcDbSymbolTableRecord
100
AcDbBlockTableRecord
  2
*Paper_Space0
340
26
  0
BLOCK_RECORD
  5
72
330
1
100
AcDbSymbolTableRecord
100
AcDbBlockTableRecord
  2
VIS-ULRBNLN0000
340
0
102
{BLKREFS
331
245
102
}
  0
BLOCK_RECORD
  5
75
330
1
100
AcDbSymbolTableRecord
100
AcDbBlockTableRecord
  2
VIS-ULRBNLN0001
340
0
102
{BLKREFS
331
246
102
}
  0
BLOCK_RECORD
  5
78
330
1
100
AcDbSymbolTableRecord
100
AcDbBlockTableRecord
  2
VIS-ULRBNLN0002
340
0
102
{BLKREFS
331
1C7
102
}
  0
BLOCK_RECORD
  5
7B
330
1
100
AcDbSymbolTableRecord
100
AcDbBlockTableRecord
  2
VIS-ULRBNLN0003
340
0
102
{BLKREFS
331
1C8
102
}
  0
BLOCK_RECORD
  5
7E
330
1
100
AcDbSymbolTableRecord
100
AcDbBlockTableRecord
  2
VIS-ULRBNLN0004
340
0
102
{BLKREFS
331
1C9
102
}
  0
BLOCK_RECORD
  5
1CB
330
1
100
AcDbSymbolTableRecord
100
AcDbBlockTableRecord
  2
_Dot
340
0
102
{BLKREFS
331
1D9
331
1D8
331
1E9
331
1E8
331
1F5
331
1F4
331
201
331
200
331
20E
331
20D
331
21B
331
21A
331
22C
331
22B
102
}
  0
BLOCK_RECORD
  5
1D1
330
1
100
AcDbSymbolTableRecord
100
AcDbBlockTableRecord
  2
*D7
340
0
  0
BLOCK_RECORD
  5
1DF
330
1
100
AcDbSymbolTableRecord
100
AcDbBlockTableRecord
  2
*D8
340
0
  0
BLOCK_RECORD
  5
1EF
330
1
100
AcDbSymbolTableRecord
100
AcDbBlockTableRecord
  2
*D9
340
0
  0
BLOCK_RECORD
  5
1FB
330
1
100
AcDbSymbolTableRecord
100
AcDbBlockTableRecord
  2
*D10
340
0
  0
BLOCK_RECORD
  5
207
330
1
100
AcDbSymbolTableRecord
100
AcDbBlockTableRecord
  2
*D11
340
0
  0
BLOCK_RECORD
  5
214
330
1
100
AcDbSymbolTableRecord
100
AcDbBlockTableRecord
  2
*D12
340
0
  0
BLOCK_RECORD
  5
221
330
1
100
AcDbSymbolTableRecord
100
AcDbBlockTableRecord
  2
*D13
340
0
  0
ENDTAB
  0
ENDSEC
  0
SECTION
  2
BLOCKS
  0
BLOCK
  5
20
330
1F
100
AcDbEntity
  8
0
100
AcDbBlockBegin
  2
*Model_Space
 70
     0
 10
0.0
 20
0.0
 30
0.0
  3
*Model_Space
  1

  0
ENDBLK
  5
21
330
1F
100
AcDbEntity
  8
0
100
AcDbBlockEnd
  0
BLOCK
  5
1C
330
1B
100
AcDbEntity
 67
     1
  8
0
100
AcDbBlockBegin
  2
*Paper_Space
 70
     0
 10
0.0
 20
0.0
 30
0.0
  3
*Paper_Space
  1

  0
ENDBLK
  5
1D
330
1B
100
AcDbEntity
 67
     1
  8
0
100
AcDbBlockEnd
  0
BLOCK
  5
24
330
23
100
AcDbEntity
  8
0
100
AcDbBlockBegin
  2
*Paper_Space0
 70
     0
 10
0.0
 20
0.0
 30
0.0
  3
*Paper_Space0
  1

  0
ENDBLK
  5
25
330
23
100
AcDbEntity
  8
0
100
AcDbBlockEnd
  0
BLOCK
  5
73
330
72
100
AcDbEntity
  8
0
100
AcDbBlockBegin
  2
VIS-ULRBNLN0000
 70
     0
 10
0.0
 20
0.0
 30
0.0
  3
VIS-ULRBNLN0000
  1

  0
LINE
  5
81
330
72
100
AcDbEntity
  8
0
  6
Continuous
 62
     0
100
AcDbLine
 10
-145.5263158099998
 20
37.57017807403395
 30
0.0
 11
-144.9122718411737
 21
37.57017807403395
 31
0.0
  0
LINE
  5
82
330
72
100
AcDbEntity
  8
0
  6
Continuous
 62
     0
100
AcDbLine
 10
-144.2140351159998
 20
36.60526579903396
 30
0.0
 11
-144.2140351159998
 21
36.41228334403397
 31
0.0
  0
LINE
  5
83
330
72
100
AcDbEntity
  8
0
  6
Continuous
 62
     0
100
AcDbLine
 10
-144.5614035350001
 20
34.09649388403395
 30
0.0
 11
-144.5614035350001
 21
33.51754651903397
 31
0.0
  0
LINE
  5
84
330
72
100
AcDbEntity
  8
0
  6
Continuous
 62
     0
100
AcDbLine
 10
-145.5263158099999
 20
37.57017807403392
 30
0.0
 11
-145.5263158099999
 21
34.40526581203395
 31
0.0
  0
LINE
  5
85
330
72
100
AcDbEntity
  8
0
  6
Continuous
 62
     0
100
AcDbLine
 10
-143.5964912599999
 20
38.14912543903395
 30
0.0
 11
-143.5964912599999
 21
36.41228334403397
 31
0.0
  0
LINE
  5
86
330
72
100
AcDbEntity
  8
0
  6
Continuous
 62
     0
100
AcDbLine
 10
-144.5614035350001
 20
34.09649388403398
 30
0.0
 11
-145.2175438820001
 21
34.09649388403398
 31
0.0
  0
LINE
  5
87
330
72
100
AcDbEntity
  8
0
  6
Continuous
 62
     0
100
AcDbLine
 10
-143.5964912599999
 20
36.41228334403399
 30
0.0
 11
-144.2140351159998
 21
36.41228334403399
 31
0.0
  0
LINE
  5
88
330
72
100
AcDbEntity
  8
0
  6
Continuous
 62
     0
100
AcDbLine
 10
-147.2982545088263
 20
37.57017807403395
 30
0.0
 11
-146.6842105399998
 21
37.57017807403395
 31
0.0
  0
LINE
  5
89
330
72
100
AcDbEntity
  8
0
  6
Continuous
 62
     0
100
AcDbLine
 10
-147.6491228149999
 20
34.09649388403398
 30
0.0
 11
-146.9929824679999
 21
34.09649388403398
 31
0.0
  0
LINE
  5
8A
330
72
100
AcDbEntity
  8
0
  6
Continuous
 62
     0
100
AcDbLine
 10
-146.6842105399998
 20
37.57017807403392
 30
0.0
 11
-146.6842105399998
 21
34.40526581203395
 31
0.0
  0
LINE
  5
8B
330
72
100
AcDbEntity
  8
0
  6
Continuous
 62
     0
100
AcDbLine
 10
-147.6491228149999
 20
33.517546519034
 30
0.0
 11
-144.5614035350001
 21
33.517546519034
 31
0.0
  0
LINE
  5
8C
330
72
100
AcDbEntity
  8
0
  6
Continuous
 62
     0
100
AcDbLine
 10
-148.6140350900001
 20
38.14912543903404
 30
0.0
 11
-143.5964912599999
 21
38.14912543903404
 31
0.0
  0
LINE
  5
8D
330
72
100
AcDbEntity
  8
0
  6
Continuous
 62
     0
100
AcDbLine
 10
-147.9964912339998
 20
36.60526579903396
 30
0.0
 11
-147.9964912339998
 21
36.41228334403397
 31
0.0
  0
LINE
  5
8E
330
72
100
AcDbEntity
  8
0
  6
Continuous
 62
     0
100
AcDbLine
 10
-148.6140350899997
 20
38.14912543903395
 30
0.0
 11
-148.6140350899997
 21
36.41228334403397
 31
0.0
  0
LINE
  5
8F
330
72
100
AcDbEntity
  8
0
  6
Continuous
 62
     0
100
AcDbLine
 10
-147.649122815
 20
34.09649388403395
 30
0.0
 11
-147.649122815
 21
33.51754651903397
 31
0.0
  0
LINE
  5
90
330
72
100
AcDbEntity
  8
0
  6
Continuous
 62
     0
100
AcDbLine
 10
-148.6140350900001
 20
36.41228334403399
 30
0.0
 11
-147.9964912339998
 21
36.41228334403399
 31
0.0
  0
LINE
  5
91
330
72
100
AcDbEntity
  8
0
  6
Continuous
 62
     0
100
AcDbLine
 10
-156.7192981999998
 20
37.57017807403395
 30
0.0
 11
-156.1052542311737
 21
37.57017807403395
 31
0.0
  0
LINE
  5
92
330
72
100
AcDbEntity
  8
0
  6
Continuous
 62
     0
100
AcDbLine
 10
-155.4070175059998
 20
36.60526579903396
 30
0.0
 11
-155.4070175059998
 21
36.41228334403397
 31
0.0
  0
LINE
  5
93
330
72
100
AcDbEntity
  8
0
  6
Continuous
 62
     0
100
AcDbLine
 10
-155.7543859250001
 20
34.09649388403395
 30
0.0
 11
-155.7543859250001
 21
33.51754651903397
 31
0.0
  0
LINE
  5
94
330
72
100
AcDbEntity
  8
0
  6
Continuous
 62
     0
100
AcDbLine
 10
-156.7192981999999
 20
37.57017807403392
 30
0.0
 11
-156.7192981999999
 21
34.40526581203395
 31
0.0
  0
LINE
  5
95
330
72
100
AcDbEntity
  8
0
  6
Continuous
 62
     0
100
AcDbLine
 10
-154.7894736499999
 20
38.14912543903395
 30
0.0
 11
-154.7894736499999
 21
36.41228334403397
 31
0.0
  0
LINE
  5
96
330
72
100
AcDbEntity
  8
0
  6
Continuous
 62
     0
100
AcDbLine
 10
-155.7543859250001
 20
34.09649388403398
 30
0.0
 11
-156.4105262720001
 21
34.09649388403398
 31
0.0
  0
LINE
  5
97
330
72
100
AcDbEntity
  8
0
  6
Continuous
 62
     0
100
AcDbLine
 10
-154.7894736499999
 20
36.41228334403399
 30
0.0
 11
-155.4070175059998
 21
36.41228334403399
 31
0.0
  0
LINE
  5
98
330
72
100
AcDbEntity
  8
0
  6
Continuous
 62
     0
100
AcDbLine
 10
-158.4912368988263
 20
37.57017807403395
 30
0.0
 11
-157.8771929299998
 21
37.57017807403395
 31
0.0
  0
LINE
  5
99
330
72
100
AcDbEntity
  8
0
  6
Continuous
 62
     0
100
AcDbLine
 10
-158.8421052049999
 20
34.09649388403398
 30
0.0
 11
-158.1859648579999
 21
34.09649388403398
 31
0.0
  0
LINE
  5
9A
330
72
100
AcDbEntity
  8
0
  6
Continuous
 62
     0
100
AcDbLine
 10
-157.8771929299998
 20
37.57017807403392
 30
0.0
 11
-157.8771929299998
 21
34.40526581203395
 31
0.0
  0
LINE
  5
9B
330
72
100
AcDbEntity
  8
0
  6
Continuous
 62
     0
100
AcDbLine
 10
-158.8421052049999
 20
33.517546519034
 30
0.0
 11
-155.7543859250001
 21
33.517546519034
 31
0.0
  0
LINE
  5
9C
330
72
100
AcDbEntity
  8
0
  6
Continuous
 62
     0
100
AcDbLine
 10
-159.8070174800001
 20
38.14912543903404
 30
0.0
 11
-154.7894736499999
 21
38.14912543903404
 31
0.0
  0
LINE
  5
9D
330
72
100
AcDbEntity
  8
0
  6
Continuous
 62
     0
100
AcDbLine
 10
-159.1894736239998
 20
36.60526579903396
 30
0.0
 11
-159.1894736239998
 21
36.41228334403397
 31
0.0
  0
LINE
  5
9E
330
72
100
AcDbEntity
  8
0
  6
Continuous
 62
     0
100
AcDbLine
 10
-159.8070174799997
 20
38.14912543903395
 30
0.0
 11
-159.8070174799997
 21
36.41228334403397
 31
0.0
  0
LINE
  5
9F
330
72
100
AcDbEntity
  8
0
  6
Continuous
 62
     0
100
AcDbLine
 10
-158.842105205
 20
34.09649388403395
 30
0.0
 11
-158.842105205
 21
33.51754651903397
 31
0.0
  0
LINE
  5
A0
330
72
100
AcDbEntity
  8
0
  6
Continuous
 62
     0
100
AcDbLine
 10
-159.8070174800001
 20
36.41228334403399
 30
0.0
 11
-159.1894736239998
 21
36.41228334403399
 31
0.0
  0
ARC
  5
A1
330
72
100
AcDbEntity
  8
0
  6
Continuous
 62
     0
100
AcDbCircle
 10
-140.4122807524997
 20
35.32000264873398
 30
0.0
 40
1.428070167
100
AcDbArc
 50
192.0827302854394
 51
233.9554528511133
  0
ARC
  5
A2
330
72
100
AcDbEntity
  8
0
  6
Continuous
 62
     0
100
AcDbCircle
 10
-140.6052632074999
 20
35.32000264873398
 30
0.0
 40
1.428070167
100
AcDbArc
 50
306.0445471488867
 51
347.9172697145606
  0
ARC
  5
A3
330
72
100
AcDbEntity
  8
0
  6
Continuous
 62
     0
100
AcDbCircle
 10
-140.1035088245
 20
35.69052896233404
 30
0.0
 40
2.2964912145
100
AcDbArc
 50
288.7954866020262
 51
350.1090987889145
  0
ARC
  5
A4
330
72
100
AcDbEntity
  8
0
  6
Continuous
 62
     0
100
AcDbCircle
 10
-142.3421053025001
 20
35.77544124253404
 30
0.0
 40
3.2228069985
100
AcDbArc
 50
346.4630945364885
 51
1.029320866956506
  0
ARC
  5
A5
330
72
100
AcDbEntity
  8
0
  6
Continuous
 62
     0
100
AcDbCircle
 10
-138.6754386575
 20
35.89123071553399
 30
0.0
 40
3.2228069985
100
AcDbArc
 50
164.150078722529
 51
181.0293208669565
  0
ARC
  5
A6
330
72
100
AcDbEntity
  8
0
  6
Continuous
 62
     0
100
AcDbCircle
 10
-138.6754386575
 20
35.77544124253404
 30
0.0
 40
3.2228069985
100
AcDbArc
 50
178.9706791330435
 51
193.5369054635114
  0
ARC
  5
A7
330
72
100
AcDbEntity
  8
0
  6
Continuous
 62
     0
100
AcDbCircle
 10
-140.5087719800001
 20
36.37368685303397
 30
0.0
 40
1.350877185
100
AcDbArc
 50
56.59118530601407
 51
123.4088146939859
  0
ARC
  5
A8
330
72
100
AcDbEntity
  8
0
  6
Continuous
 62
     0
100
AcDbCircle
 10
-140.9140351355001
 20
35.69052896233404
 30
0.0
 40
2.2964912145
100
AcDbArc
 50
189.8909012110854
 51
251.2045133979737
  0
ARC
  5
A9
330
72
100
AcDbEntity
  8
0
  6
Continuous
 62
     0
100
AcDbCircle
 10
-140.4122807524997
 20
36.34666930933406
 30
0.0
 40
1.428070167
100
AcDbArc
 50
126.0445471488867
 51
162.6959035444569
  0
ARC
  5
AA
330
72
100
AcDbEntity
  8
0
  6
Continuous
 62
     0
100
AcDbCircle
 10
-142.05263162
 20
35.83333597903402
 30
0.0
 40
4.245614010000001
100
AcDbArc
 50
352.7297389265646
 51
7.27026107343549
  0
ARC
  5
AB
330
72
100
AcDbEntity
  8
0
  6
Continuous
 62
     0
100
AcDbCircle
 10
-140.9140351355001
 20
35.97614299573399
 30
0.0
 40
2.2964912145
100
AcDbArc
 50
108.7954866020263
 51
170.1090987889146
  0
ARC
  5
AC
330
72
100
AcDbEntity
  8
0
  6
Continuous
 62
     0
100
AcDbCircle
 10
-140.1035088245
 20
35.97614299573399
 30
0.0
 40
2.2964912145
100
AcDbArc
 50
9.890901211085497
 51
71.20451339797377
  0
ARC
  5
AD
330
72
100
AcDbEntity
  8
0
  6
Continuous
 62
     0
100
AcDbCircle
 10
-140.6052632074999
 20
36.34666930933406
 30
0.0
 40
1.428070167
100
AcDbArc
 50
17.30409645554312
 51
53.95545285111331
  0
ARC
  5
AE
330
72
100
AcDbEntity
  8
0
  6
Continuous
 62
     0
100
AcDbCircle
 10
-138.9649123400001
 20
35.83333597903402
 30
0.0
 40
4.245614010000001
100
AcDbArc
 50
172.7297389265646
 51
187.2702610734354
  0
ARC
  5
AF
330
72
100
AcDbEntity
  8
0
  6
Continuous
 62
     0
100
AcDbCircle
 10
-140.5087719800001
 20
34.82982721303404
 30
0.0
 40
3.512280681
100
AcDbArc
 50
70.08847837174153
 51
109.9115216282585
  0
ARC
  5
B0
330
72
100
AcDbEntity
  8
0
  6
Continuous
 62
     0
100
AcDbCircle
 10
-140.5087719800001
 20
36.836844745034
 30
0.0
 40
3.512280681
100
AcDbArc
 50
250.0884783717415
 51
289.9115216282585
  0
ARC
  5
B1
330
72
100
AcDbEntity
  8
0
  6
Continuous
 62
     0
100
AcDbCircle
 10
-142.3421053025001
 20
35.89123071553399
 30
0.0
 40
3.2228069985
100
AcDbArc
 50
358.9706791330435
 51
15.84992127747103
  0
ARC
  5
B2
330
72
100
AcDbEntity
  8
0
  6
Continuous
 62
     0
100
AcDbCircle
 10
-140.5087719800001
 20
35.29298510503395
 30
0.0
 40
1.350877185
100
AcDbArc
 50
236.5911853060141
 51
303.408814693986
  0
ARC
  5
B3
330
72
100
AcDbEntity
  8
0
  6
Continuous
 62
     0
100
AcDbCircle
 10
-145.5842105465001
 20
36.60526579903399
 30
0.0
 40
1.3701754305
100
AcDbArc
 50
0.000000000000051
 51
15.47863944165359
  0
ARC
  5
B4
330
72
100
AcDbEntity
  8
0
  6
Continuous
 62
     0
100
AcDbCircle
 10
-145.0824561635001
 20
36.74421316663404
 30
0.0
 40
0.8495375219467715
100
AcDbArc
 50
15.47863610704422
 51
66.2505055071333
  0
ARC
  5
B5
330
72
100
AcDbEntity
  8
0
  6
Continuous
 62
     0
100
AcDbCircle
 10
-144.9975438833
 20
36.93719562163403
 30
0.0
 40
0.6387003258295056
100
AcDbArc
 50
66.2505055071333
 51
82.32760665635566
  0
ARC
  5
B6
330
72
100
AcDbEntity
  8
0
  6
Continuous
 62
     0
100
AcDbCircle
 10
-145.2175438820001
 20
34.40526581203403
 30
0.0
 40
0.308771928
100
AcDbArc
 50
180.0
 51
270.0000000000001
  0
ARC
  5
B7
330
72
100
AcDbEntity
  8
0
  6
Continuous
 62
     0
100
AcDbCircle
 10
-146.6263158035001
 20
36.60526579903399
 30
0.0
 40
1.3701754305
100
AcDbArc
 50
164.5213605583465
 51
180.0
  0
ARC
  5
B8
330
72
100
AcDbEntity
  8
0
  6
Continuous
 62
     0
100
AcDbCircle
 10
-147.1280701865
 20
36.74421316663404
 30
0.0
 40
0.8495375219467715
100
AcDbArc
 50
113.7494944928667
 51
164.5213638929558
  0
ARC
  5
B9
330
72
100
AcDbEntity
  8
0
  6
Continuous
 62
     0
100
AcDbCircle
 10
-147.2129824667001
 20
36.93719562163403
 30
0.0
 40
0.6387003258295056
100
AcDbArc
 50
97.6723933436444
 51
113.7494944928667
  0
ARC
  5
BA
330
72
100
AcDbEntity
  8
0
  6
Continuous
 62
     0
100
AcDbCircle
 10
-146.992982468
 20
34.40526581203403
 30
0.0
 40
0.308771928
100
AcDbArc
 50
270.0
 51
0.0
  0
ARC
  5
BB
330
72
100
AcDbEntity
  8
0
  6
Continuous
 62
     0
100
AcDbCircle
 10
-151.6052631425002
 20
35.32000264873398
 30
0.0
 40
1.428070167
100
AcDbArc
 50
192.0827302854394
 51
233.9554528511133
  0
ARC
  5
BC
330
72
100
AcDbEntity
  8
0
  6
Continuous
 62
     0
100
AcDbCircle
 10
-151.7982455974999
 20
35.32000264873398
 30
0.0
 40
1.428070167
100
AcDbArc
 50
306.0445471488867
 51
347.9172697145606
  0
ARC
  5
BD
330
72
100
AcDbEntity
  8
0
  6
Continuous
 62
     0
100
AcDbCircle
 10
-151.2964912145
 20
35.69052896233404
 30
0.0
 40
2.2964912145
100
AcDbArc
 50
288.7954866020262
 51
350.1090987889145
  0
ARC
  5
BE
330
72
100
AcDbEntity
  8
0
  6
Continuous
 62
     0
100
AcDbCircle
 10
-153.5350876925001
 20
35.77544124253404
 30
0.0
 40
3.2228069985
100
AcDbArc
 50
346.4630945364885
 51
1.029320866956506
  0
ARC
  5
BF
330
72
100
AcDbEntity
  8
0
  6
Continuous
 62
     0
100
AcDbCircle
 10
-149.8684210475
 20
35.89123071553399
 30
0.0
 40
3.2228069985
100
AcDbArc
 50
164.150078722529
 51
181.0293208669565
  0
ARC
  5
C0
330
72
100
AcDbEntity
  8
0
  6
Continuous
 62
     0
100
AcDbCircle
 10
-149.8684210475
 20
35.77544124253404
 30
0.0
 40
3.2228069985
100
AcDbArc
 50
178.9706791330435
 51
193.5369054635114
  0
ARC
  5
C1
330
72
100
AcDbEntity
  8
0
  6
Continuous
 62
     0
100
AcDbCircle
 10
-151.7017543700001
 20
36.37368685303397
 30
0.0
 40
1.350877185
100
AcDbArc
 50
56.59118530601407
 51
123.4088146939859
  0
ARC
  5
C2
330
72
100
AcDbEntity
  8
0
  6
Continuous
 62
     0
100
AcDbCircle
 10
-152.1070175255001
 20
35.69052896233404
 30
0.0
 40
2.2964912145
100
AcDbArc
 50
189.8909012110854
 51
251.2045133979737
  0
ARC
  5
C3
330
72
100
AcDbEntity
  8
0
  6
Continuous
 62
     0
100
AcDbCircle
 10
-151.6052631425002
 20
36.34666930933406
 30
0.0
 40
1.428070167
100
AcDbArc
 50
126.0445471488867
 51
162.6959035444569
  0
ARC
  5
C4
330
72
100
AcDbEntity
  8
0
  6
Continuous
 62
     0
100
AcDbCircle
 10
-153.24561401
 20
35.83333597903402
 30
0.0
 40
4.245614010000001
100
AcDbArc
 50
352.7297389265646
 51
7.27026107343549
  0
ARC
  5
C5
330
72
100
AcDbEntity
  8
0
  6
Continuous
 62
     0
100
AcDbCircle
 10
-152.1070175255001
 20
35.97614299573399
 30
0.0
 40
2.2964912145
100
AcDbArc
 50
108.7954866020263
 51
170.1090987889146
  0
ARC
  5
C6
330
72
100
AcDbEntity
  8
0
  6
Continuous
 62
     0
100
AcDbCircle
 10
-151.2964912145
 20
35.97614299573399
 30
0.0
 40
2.2964912145
100
AcDbArc
 50
9.890901211085497
 51
71.20451339797377
  0
ARC
  5
C7
330
72
100
AcDbEntity
  8
0
  6
Continuous
 62
     0
100
AcDbCircle
 10
-151.7982455974999
 20
36.34666930933406
 30
0.0
 40
1.428070167
100
AcDbArc
 50
17.30409645554312
 51
53.95545285111331
  0
ARC
  5
C8
330
72
100
AcDbEntity
  8
0
  6
Continuous
 62
     0
100
AcDbCircle
 10
-150.1578947300001
 20
35.83333597903402
 30
0.0
 40
4.245614010000001
100
AcDbArc
 50
172.7297389265646
 51
187.2702610734354
  0
ARC
  5
C9
330
72
100
AcDbEntity
  8
0
  6
Continuous
 62
     0
100
AcDbCircle
 10
-151.7017543700001
 20
34.82982721303404
 30
0.0
 40
3.512280681
100
AcDbArc
 50
70.08847837174153
 51
109.9115216282585
  0
ARC
  5
CA
330
72
100
AcDbEntity
  8
0
  6
Continuous
 62
     0
100
AcDbCircle
 10
-151.7017543700001
 20
36.836844745034
 30
0.0
 40
3.512280681
100
AcDbArc
 50
250.0884783717415
 51
289.9115216282585
  0
ARC
  5
CB
330
72
100
AcDbEntity
  8
0
  6
Continuous
 62
     0
100
AcDbCircle
 10
-153.5350876925001
 20
35.89123071553399
 30
0.0
 40
3.2228069985
100
AcDbArc
 50
358.9706791330435
 51
15.84992127747103
  0
ARC
  5
CC
330
72
100
AcDbEntity
  8
0
  6
Continuous
 62
     0
100
AcDbCircle
 10
-151.7017543700001
 20
35.29298510503395
 30
0.0
 40
1.350877185
100
AcDbArc
 50
236.5911853060141
 51
303.408814693986
  0
ARC
  5
CD
330
72
100
AcDbEntity
  8
0
  6
Continuous
 62
     0
100
AcDbCircle
 10
-156.7771929365001
 20
36.60526579903399
 30
0.0
 40
1.3701754305
100
AcDbArc
 50
0.000000000000051
 51
15.47863944165359
  0
ARC
  5
CE
330
72
100
AcDbEntity
  8
0
  6
Continuous
 62
     0
100
AcDbCircle
 10
-156.2754385535001
 20
36.74421316663404
 30
0.0
 40
0.8495375219467715
100
AcDbArc
 50
15.47863610704422
 51
66.2505055071333
  0
ARC
  5
CF
330
72
100
AcDbEntity
  8
0
  6
Continuous
 62
     0
100
AcDbCircle
 10
-156.1905262733
 20
36.93719562163403
 30
0.0
 40
0.6387003258295056
100
AcDbArc
 50
66.2505055071333
 51
82.32760665635566
  0
ARC
  5
D0
330
72
100
AcDbEntity
  8
0
  6
Continuous
 62
     0
100
AcDbCircle
 10
-156.4105262720001
 20
34.40526581203403
 30
0.0
 40
0.308771928
100
AcDbArc
 50
180.0
 51
270.0000000000001
  0
ARC
  5
D1
330
72
100
AcDbEntity
  8
0
  6
Continuous
 62
     0
100
AcDbCircle
 10
-157.8192981935001
 20
36.60526579903399
 30
0.0
 40
1.3701754305
100
AcDbArc
 50
164.5213605583465
 51
180.0
  0
ARC
  5
D2
330
72
100
AcDbEntity
  8
0
  6
Continuous
 62
     0
100
AcDbCircle
 10
-158.3210525765
 20
36.74421316663404
 30
0.0
 40
0.8495375219467715
100
AcDbArc
 50
113.7494944928667
 51
164.5213638929558
  0
ARC
  5
D3
330
72
100
AcDbEntity
  8
0
  6
Continuous
 62
     0
100
AcDbCircle
 10
-158.4059648567001
 20
36.93719562163403
 30
0.0
 40
0.6387003258295056
100
AcDbArc
 50
97.6723933436444
 51
113.7494944928667
  0
ARC
  5
D4
330
72
100
AcDbEntity
  8
0
  6
Continuous
 62
     0
100
AcDbCircle
 10
-158.185964858
 20
34.40526581203403
 30
0.0
 40
0.308771928
100
AcDbArc
 50
270.0
 51
0.0
  0
HATCH
  5
D5
330
72
100
AcDbEntity
  8
0
 62
     0
100
AcDbHatch
 10
0.0
 20
0.0
 30
0.0
210
0.0
220
0.0
230
1.0
  2
SOLID
 70
     1
 71
     0
 91
        1
 92
        3
 72
     1
 73
     1
 93
       24
 10
-159.8070174799997
 20
38.14912543903395
 42
0.0
 10
-159.8070174799997
 20
36.41228334403399
 42
0.0
 10
-159.1894736239998
 20
36.41228334403397
 42
0.0
 10
-159.1894736239998
 20
36.60526503064828
 42
-0.0676413187077701
 10
-159.1397773911111
 20
36.97093696144946
 42
-0.2252307504847608
 10
-158.6631941408562
 20
37.52180763107899
 42
-0.0702648821362087
 10
-158.4912368988265
 20
37.57017807403395
 42
0.0
 10
-157.8771929299998
 20
37.57017807403392
 42
0.0
 10
-157.87719293
 20
34.40526581203403
 42
-0.4142135890519601
 10
-158.1859648861251
 20
34.09649388403398
 42
0.0
 10
-158.842105205
 20
34.09649388403395
 42
0.0
 10
-158.8421052049999
 20
33.517546519034
 42
0.0
 10
-155.7543859250001
 20
33.51754651903397
 42
0.0
 10
-155.7543859250001
 20
34.09649388403398
 42
0.0
 10
-156.4105262438749
 20
34.09649388403403
 42
-0.4142139873442889
 10
-156.7192981999999
 20
34.405266231919
 42
0.0
 10
-156.7192981999998
 20
37.57017807403395
 42
0.0
 10
-156.1052542311735
 20
37.57017807403402
 42
-0.0702648821362087
 10
-155.933296989144
 20
37.52180763107896
 42
-0.2252307504847608
 10
-155.456713738889
 20
36.97093696144942
 42
-0.0676411778678971
 10
-155.4070175059998
 20
36.60526579903396
 42
0.0
 10
-155.4070175059998
 20
36.41228334403399
 42
0.0
 10
-154.7894736499999
 20
36.41228334403397
 42
0.0
 10
-154.7894736499999
 20
38.14912543903404
 42
0.0
 97
        0
 75
     0
 76
     1
 98
        0
  0
HATCH
  5
D6
330
72
100
AcDbEntity
  8
0
 62
     0
100
AcDbHatch
 10
0.0
 20
0.0
 30
0.0
210
0.0
220
0.0
230
1.0
  2
SOLID
 70
     1
 71
     0
 91
        2
 92
        3
 72
     1
 73
     1
 93
       10
 10
-153.0016963773777
 20
35.0210735226776
 42
0.1847646747456769
 10
-152.4455597370917
 20
34.16532259131845
 42
0.3000982261761373
 10
-150.9579490029083
 20
34.16532259131847
 42
0.1847646747456769
 10
-150.4018123626225
 20
35.02107352267767
 42
0.0636428707226487
 10
-150.3128007485632
 20
35.83333597903399
 42
0.0737830421103821
 10
-150.4348105492269
 20
36.77143897752607
 42
0.1612991339525331
 10
-150.9579490029084
 20
37.50134936674947
 42
0.3000982261761372
 10
-152.4455597370918
 20
37.50134936674957
 42
0.1612991339525331
 10
-152.9686981907731
 20
36.77143897752601
 42
0.073783042110382
 10
-153.0907079914369
 20
35.83333597903405
 42
0.0636428707226491
 97
        0
 92
        3
 72
     1
 73
     1
 93
        8
 10
-152.8724798829412
 20
38.14130794963854
 42
0.2709388272086841
 10
-154.3693751109069
 20
36.37061739798095
 42
0.063530261590154
 10
-154.3693751109069
 20
35.29605456008711
 42
0.2709388272086841
 10
-150.5310472350902
 20
33.52541599200353
 42
-0.1715646227653607
 10
-149.0341336290932
 20
35.29605456008711
 42
-0.270938827208684
 10
-149.0341336290932
 20
36.37061739798095
 42
-0.063530261590154
 10
-150.5310288570589
 20
38.14130794963854
 42
-0.2709388272086841
 10
-152.8724615049099
 20
38.14125596606451
 42
-0.1715646227653607
 97
        0
 75
     0
 76
     1
 98
        0
  0
HATCH
  5
D7
330
72
100
AcDbEntity
  8
0
 62
     0
100
AcDbHatch
 10
0.0
 20
0.0
 30
0.0
210
0.0
220
0.0
230
1.0
  2
SOLID
 70
     1
 71
     0
 91
        1
 92
        3
 72
     1
 73
     1
 93
       24
 10
-148.6140350899997
 20
38.14912543903395
 42
0.0
 10
-148.6140350899997
 20
36.41228334403399
 42
0.0
 10
-147.9964912339998
 20
36.41228334403397
 42
0.0
 10
-147.9964912339998
 20
36.60526503064828
 42
-0.0676413187077701
 10
-147.9467950011111
 20
36.97093696144946
 42
-0.2252307504847608
 10
-147.4702117508562
 20
37.52180763107899
 42
-0.0702648821362087
 10
-147.2982545088265
 20
37.57017807403395
 42
0.0
 10
-146.6842105399998
 20
37.57017807403392
 42
0.0
 10
-146.68421054
 20
34.40526581203403
 42
-0.4142135890519601
 10
-146.9929824961251
 20
34.09649388403398
 42
0.0
 10
-147.649122815
 20
34.09649388403395
 42
0.0
 10
-147.6491228149999
 20
33.517546519034
 42
0.0
 10
-144.5614035350001
 20
33.51754651903397
 42
0.0
 10
-144.5614035350001
 20
34.09649388403398
 42
0.0
 10
-145.2175438538749
 20
34.09649388403403
 42
-0.4142139873442889
 10
-145.5263158099999
 20
34.405266231919
 42
0.0
 10
-145.5263158099998
 20
37.57017807403395
 42
0.0
 10
-144.9122718411735
 20
37.57017807403402
 42
-0.0702648821362087
 10
-144.740314599144
 20
37.52180763107896
 42
-0.2252307504847608
 10
-144.263731348889
 20
36.97093696144942
 42
-0.0676411778678971
 10
-144.2140351159998
 20
36.60526579903396
 42
0.0
 10
-144.2140351159998
 20
36.41228334403399
 42
0.0
 10
-143.5964912599999
 20
36.41228334403397
 42
0.0
 10
-143.5964912599999
 20
38.14912543903404
 42
0.0
 97
        0
 75
     0
 76
     1
 98
        0
  0
HATCH
  5
D8
330
72
100
AcDbEntity
  8
0
 62
     0
100
AcDbHatch
 10
0.0
 20
0.0
 30
0.0
210
0.0
220
0.0
230
1.0
  2
SOLID
 70
     1
 71
     0
 91
        2
 92
        3
 72
     1
 73
     1
 93
       10
 10
-141.8087139873773
 20
35.0210735226776
 42
0.1847646747456769
 10
-141.2525773470917
 20
34.16532259131845
 42
0.3000982261761373
 10
-139.7649666129083
 20
34.16532259131847
 42
0.1847646747456769
 10
-139.2088299726225
 20
35.02107352267767
 42
0.0636428707226487
 10
-139.1198183585632
 20
35.83333597903399
 42
0.0737830421103821
 10
-139.2418281592269
 20
36.77143897752607
 42
0.1612991339525331
 10
-139.7649666129084
 20
37.50134936674947
 42
0.3000982261761372
 10
-141.2525773470914
 20
37.50134936674957
 42
0.1612991339525331
 10
-141.7757158007731
 20
36.77143897752601
 42
0.073783042110382
 10
-141.8977256014369
 20
35.83333597903405
 42
0.0636428707226491
 97
        0
 92
        3
 72
     1
 73
     1
 93
        7
 10
-137.8411512390932
 20
35.29605456008709
 42
0.063530261590154
 10
-137.8411512390932
 20
36.37061739798092
 42
0.2709388272086841
 10
-141.6794791149099
 20
38.14125596606451
 42
-0.1715646227653607
 10
-143.1763927209069
 20
36.37061739798092
 42
-0.2709388272086841
 10
-143.1763927209069
 20
35.29605456008709
 42
-0.063530261590154
 10
-141.6794974929412
 20
33.5253640084295
 42
-0.2709388272086841
 10
-139.3380648450902
 20
33.52541599200353
 42
-0.1715646227653607
 97
        0
 75
     0
 76
     1
 98
        0
  0
ENDBLK
  5
74
330
72
100
AcDbEntity
  8
0
100
AcDbBlockEnd
  0
BLOCK
  5
76
330
75
100
AcDbEntity
  8
0
100
AcDbBlockBegin
  2
VIS-ULRBNLN0001
 70
     0
 10
0.0
 20
0.0
 30
0.0
  3
VIS-ULRBNLN0001
  1

  0
LINE
  5
D9
330
75
100
AcDbEntity
  8
0
  6
Continuous
 62
     0
370
    50
100
AcDbLine
 10
-395.0
 20
287.0000001025692
 30
0.0
 11
-395.0
 21
9.999999148894858
 31
0.0
  0
LINE
  5
DA
330
75
100
AcDbEntity
  8
0
  6
Continuous
 62
     0
370
    50
100
AcDbLine
 10
-10.0
 20
9.999999148894858
 30
0.0
 11
-10.0
 21
287.0000001025692
 31
0.0
  0
LINE
  5
DB
330
75
100
AcDbEntity
  8
0
  6
Continuous
 62
     0
370
    50
100
AcDbLine
 10
-395.0
 20
9.999999148894858
 30
0.0
 11
-10.0
 21
9.999999148894858
 31
0.0
  0
LINE
  5
DC
330
75
100
AcDbEntity
  8
0
  6
Continuous
 62
     0
370
    50
100
AcDbLine
 10
-169.0
 20
41.00000010256917
 30
0.0
 11
-10.0
 21
41.00000010256917
 31
0.0
  0
LINE
  5
DD
330
75
100
AcDbEntity
  8
0
  6
Continuous
 62
     0
370
    50
100
AcDbLine
 10
-169.0
 20
9.999999148894858
 30
0.0
 11
-169.0
 21
41.00000010256917
 31
0.0
  0
LINE
  5
DE
330
75
100
AcDbEntity
  8
0
  6
Continuous
 62
     0
370
    50
100
AcDbLine
 10
-395.0
 20
287.0000001025692
 30
0.0
 11
-10.0
 21
287.0000001025692
 31
0.0
  0
LINE
  5
DF
330
75
100
AcDbEntity
  8
0
  6
Continuous
 62
     0
100
AcDbLine
 10
-10.0
 20
20.33332834963949
 30
0.0
 11
-169.0
 21
20.33332834963949
 31
0.0
  0
LINE
  5
E0
330
75
100
AcDbEntity
  8
0
  6
Continuous
 62
     0
100
AcDbLine
 10
-95.0
 20
9.999999148894858
 30
0.0
 11
-95.0
 21
41.00000010256917
 31
0.0
  0
LINE
  5
E1
330
75
100
AcDbEntity
  8
0
  6
Continuous
 62
     0
100
AcDbLine
 10
-112.0
 20
20.33332834963949
 30
0.0
 11
-112.0
 21
41.00000010256917
 31
0.0
  0
LINE
  5
E2
330
75
100
AcDbEntity
  8
0
  6
Continuous
 62
     0
100
AcDbLine
 10
-129.0
 20
20.33332834963949
 30
0.0
 11
-129.0
 21
41.00000010256917
 31
0.0
  0
LINE
  5
E3
330
75
100
AcDbEntity
  8
0
  6
Continuous
 62
     0
100
AcDbLine
 10
-10.0
 20
30.66667185549886
 30
0.0
 11
-169.0
 21
30.66667185549886
 31
0.0
  0
LINE
  5
E4
330
75
100
AcDbEntity
  8
0
  6
Continuous
 62
     0
100
AcDbLine
 10
-152.0
 20
20.33332834963949
 30
0.0
 11
-152.0
 21
30.66667185549886
 31
0.0
  0
MTEXT
  5
E5
330
75
100
AcDbEntity
  8
0
 62
     0
100
AcDbMText
 10
-120.5
 20
35.83333597903402
 30
0.0
 40
3.0
 41
0.0
 71
     5
 72
     1
  1
{\W0.833333;第三角法}
 73
     1
 44
1.0
  0
MTEXT
  5
E6
330
75
100
AcDbEntity
  8
0
 62
     0
100
AcDbMText
 10
-103.5
 20
34.16667185549886
 30
0.0
 40
2.700000047683716
 41
0.0
 71
     5
 72
     1
  1
{\W0.833333;mm}
 73
     1
 44
1.0
  0
MTEXT
  5
E7
330
75
100
AcDbEntity
  8
0
 62
     0
100
AcDbMText
 10
-166.9815000295639
 20
26.816671831657
 30
0.0
 40
2.700000047683716
 41
0.0
 71
     7
 72
     1
  1
{\W0.833333;製図}
 73
     1
 44
1.0
  0
MTEXT
  5
E8
330
75
100
AcDbEntity
  8
0
 62
     0
100
AcDbMText
 10
-149.9815000295639
 20
26.816671831657
 30
0.0
 40
2.700000047683716
 41
0.0
 71
     7
 72
     1
  1
{\W0.833333;検図}
 73
     1
 44
1.0
  0
MTEXT
  5
E9
330
75
100
AcDbEntity
  8
0
 62
     0
100
AcDbMText
 10
-126.9815000295639
 20
26.816671831657
 30
0.0
 40
2.700000047683716
 41
0.0
 71
     7
 72
     1
  1
{\W0.833333;日付}
 73
     1
 44
1.0
  0
MTEXT
  5
EA
330
75
100
AcDbEntity
  8
0
 62
     0
100
AcDbMText
 10
-109.9815000295639
 20
26.816671831657
 30
0.0
 40
2.700000047683716
 41
0.0
 71
     7
 72
     1
  1
{\W0.833333;尺度}
 73
     1
 44
1.0
  0
MTEXT
  5
EB
330
75
100
AcDbEntity
  8
0
 62
     0
100
AcDbMText
 10
-109.9815000295639
 20
37.15000007872732
 30
0.0
 40
2.700000047683716
 41
0.0
 71
     7
 72
     1
  1
{\W0.833333;単位}
 73
     1
 44
1.0
  0
MTEXT
  5
EC
330
75
100
AcDbEntity
  8
0
 62
     0
100
AcDbMText
 10
-92.9815000295639
 20
37.15000007872732
 30
0.0
 40
2.700000047683716
 41
0.0
 71
     7
 72
     1
  1
{\W0.833333;名称}
 73
     1
 44
1.0
  0
MTEXT
  5
ED
330
75
100
AcDbEntity
  8
0
 62
     0
100
AcDbMText
 10
-92.9815000295639
 20
26.816671831657
 30
0.0
 40
2.700000047683716
 41
0.0
 71
     7
 72
     1
  1
{\W0.833333;品番}
 73
     1
 44
1.0
  0
MTEXT
  5
EE
330
75
100
AcDbEntity
  8
0
 62
     0
100
AcDbMText
 10
-92.9815000295639
 20
16.48332832579763
 30
0.0
 40
2.700000047683716
 41
0.0
 71
     7
 72
     1
  1
{\W0.833333;図番}
 73
     1
 44
1.0
  0
MTEXT
  5
EF
330
75
100
AcDbEntity
  8
0
 62
     0
100
AcDbMText
 10
-166.9815000295639
 20
16.48332832579763
 30
0.0
 40
2.700000047683716
 41
0.0
 71
     7
 72
     1
  1
{\W0.833333;備考}
 73
     1
 44
1.0
  0
MTEXT
  5
F0
330
75
100
AcDbEntity
  8
0
 62
     0
100
AcDbMText
 10
-13.71333342790604
 20
7.499999046325684
 30
0.0
 40
2.0
 41
0.0
 71
     7
 72
     1
  1
{\W0.833333;A3}
 73
     1
 44
1.0
  0
ENDBLK
  5
77
330
75
100
AcDbEntity
  8
0
100
AcDbBlockEnd
  0
BLOCK
  5
79
330
78
100
AcDbEntity
  8
0
100
AcDbBlockBegin
  2
VIS-ULRBNLN0002
 70
     0
 10
0.0
 20
0.0
 30
0.0
  3
VIS-ULRBNLN0002
  1

  0
LINE
  5
F1
330
78
100
AcDbEntity
  8
0
  6
Continuous
 62
    20
100
AcDbLine
 10
-318.6766688247514
 20
72.93897502665125
 30
0.0
 11
-336.4766688247514
 21
72.93897502665125
 31
0.0
  0
LINE
  5
F2
330
78
100
AcDbEntity
  8
0
  6
Continuous
 62
    20
100
AcDbLine
 10
-336.4766688247514
 20
102.6889750266512
 30
0.0
 11
-318.6766688247514
 21
102.6889750266512
 31
0.0
  0
LINE
  5
F3
330
78
100
AcDbEntity
  8
0
  6
Continuous
 62
    20
100
AcDbLine
 10
-318.6766688247514
 20
102.6889750266513
 30
0.0
 11
-318.6766688247514
 21
72.93897502665126
 31
0.0
  0
LINE
  5
F4
330
78
100
AcDbEntity
  8
0
  6
Continuous
 62
    20
100
AcDbLine
 10
-336.4766688247514
 20
72.93897502665126
 30
0.0
 11
-336.4766688247514
 21
102.6889750266513
 31
0.0
  0
LINE
  5
F5
330
78
100
AcDbEntity
  8
0
  6
Continuous
 62
    20
100
AcDbLine
 10
-335.8266688247514
 20
72.86397502665125
 30
0.0
 11
-319.3266688247514
 21
72.86397502665125
 31
0.0
  0
LINE
  5
F6
330
78
100
AcDbEntity
  8
0
  6
Continuous
 62
    20
100
AcDbLine
 10
-319.3266688247514
 20
102.7639750266513
 30
0.0
 11
-335.8266688247514
 21
102.7639750266513
 31
0.0
  0
LINE
  5
F7
330
78
100
AcDbEntity
  8
0
  6
Continuous
 62
    20
100
AcDbLine
 10
-336.5766688247514
 20
72.83897502665127
 30
0.0
 11
-336.5766688247514
 21
102.7889750266513
 31
0.0
  0
LINE
  5
F8
330
78
100
AcDbEntity
  8
0
  6
Continuous
 62
    20
100
AcDbLine
 10
-335.8266688247513
 20
72.83897502665126
 30
0.0
 11
-335.8266688247513
 21
72.93912002665125
 31
0.0
  0
LINE
  5
F9
330
78
100
AcDbEntity
  8
0
  6
Continuous
 62
    20
100
AcDbLine
 10
-335.8266688247514
 20
102.6888300266513
 30
0.0
 11
-335.8266688247514
 21
102.7889750266513
 31
0.0
  0
LINE
  5
FA
330
78
100
AcDbEntity
  8
0
  6
Continuous
 62
    20
100
AcDbLine
 10
-336.5766688247514
 20
72.83897502665126
 30
0.0
 11
-335.8266688247514
 21
72.83897502665126
 31
0.0
  0
LINE
  5
FB
330
78
100
AcDbEntity
  8
0
  6
Continuous
 62
    20
100
AcDbLine
 10
-336.5766688247514
 20
102.7889750266513
 30
0.0
 11
-335.8266688247514
 21
102.7889750266513
 31
0.0
  0
LINE
  5
FC
330
78
100
AcDbEntity
  8
0
  6
Continuous
 62
    20
100
AcDbLine
 10
-318.5766688247514
 20
102.7889750266513
 30
0.0
 11
-318.5766688247514
 21
72.83897502665127
 31
0.0
  0
LINE
  5
FD
330
78
100
AcDbEntity
  8
0
  6
Continuous
 62
    20
100
AcDbLine
 10
-319.3266688247514
 20
102.7889750266513
 30
0.0
 11
-319.3266688247514
 21
102.6888300266513
 31
0.0
  0
LINE
  5
FE
330
78
100
AcDbEntity
  8
0
  6
Continuous
 62
    20
100
AcDbLine
 10
-319.3266688247514
 20
72.93912002665125
 30
0.0
 11
-319.3266688247514
 21
72.83897502665126
 31
0.0
  0
LINE
  5
FF
330
78
100
AcDbEntity
  8
0
  6
Continuous
 62
    20
100
AcDbLine
 10
-319.3266688247514
 20
102.7889750266513
 30
0.0
 11
-318.5766688247514
 21
102.7889750266513
 31
0.0
  0
LINE
  5
100
330
78
100
AcDbEntity
  8
0
  6
Continuous
 62
    20
100
AcDbLine
 10
-319.3266688247514
 20
72.83897502665126
 30
0.0
 11
-318.5766688247514
 21
72.83897502665126
 31
0.0
  0
LINE
  5
101
330
78
100
AcDbEntity
  8
0
  6
CENTER
 62
     0
100
AcDbLine
 10
-320.1996688247513
 20
100.5889750266513
 30
0.0
 11
-320.6536688247513
 21
100.5889750266513
 31
0.0
  0
LINE
  5
102
330
78
100
AcDbEntity
  8
0
  6
CENTER
 62
     0
100
AcDbLine
 10
-320.4266688247515
 20
100.8159750266513
 30
0.0
 11
-320.4266688247515
 21
100.3619750266513
 31
0.0
  0
LINE
  5
103
330
78
100
AcDbEntity
  8
0
  6
CENTER
 62
     0
100
AcDbLine
 10
-334.9536688247516
 20
100.5889750266513
 30
0.0
 11
-334.4996688247516
 21
100.5889750266513
 31
0.0
  0
LINE
  5
104
330
78
100
AcDbEntity
  8
0
  6
CENTER
 62
     0
100
AcDbLine
 10
-334.7266688247514
 20
100.8159750266513
 30
0.0
 11
-334.7266688247514
 21
100.3619750266513
 31
0.0
  0
LINE
  5
105
330
78
100
AcDbEntity
  8
0
  6
CENTER
 62
     0
100
AcDbLine
 10
-320.1996688247513
 20
75.03897502665127
 30
0.0
 11
-320.6536688247513
 21
75.03897502665127
 31
0.0
  0
LINE
  5
106
330
78
100
AcDbEntity
  8
0
  6
CENTER
 62
     0
100
AcDbLine
 10
-320.4266688247515
 20
74.81197502665127
 30
0.0
 11
-320.4266688247515
 21
75.26597502665128
 31
0.0
  0
LINE
  5
107
330
78
100
AcDbEntity
  8
0
  6
CENTER
 62
     0
100
AcDbLine
 10
-334.9536688247516
 20
75.03897502665127
 30
0.0
 11
-334.4996688247516
 21
75.03897502665127
 31
0.0
  0
LINE
  5
108
330
78
100
AcDbEntity
  8
0
  6
CENTER
 62
     0
100
AcDbLine
 10
-334.7266688247514
 20
74.81197502665127
 30
0.0
 11
-334.7266688247514
 21
75.26597502665128
 31
0.0
  0
LINE
  5
109
330
78
100
AcDbEntity
  8
0
  6
CENTER
 62
    20
100
AcDbLine
 10
-327.5766688247514
 20
71.86397502665125
 30
0.0
 11
-327.5766688247514
 21
103.7639750266513
 31
0.0
  0
CIRCLE
  5
10A
330
78
100
AcDbEntity
  8
0
  6
DASHED
 62
     0
100
AcDbCircle
 10
-320.4266688247515
 20
100.5889750266513
 30
0.0
 40
0.1
  0
CIRCLE
  5
10B
330
78
100
AcDbEntity
  8
0
  6
DASHED
 62
     0
100
AcDbCircle
 10
-334.7266688247514
 20
100.5889750266513
 30
0.0
 40
0.1
  0
CIRCLE
  5
10C
330
78
100
AcDbEntity
  8
0
  6
DASHED
 62
     0
100
AcDbCircle
 10
-320.4266688247515
 20
75.03897502665127
 30
0.0
 40
0.1
  0
CIRCLE
  5
10D
330
78
100
AcDbEntity
  8
0
  6
DASHED
 62
     0
100
AcDbCircle
 10
-334.7266688247514
 20
75.03897502665127
 30
0.0
 40
0.1
  0
ENDBLK
  5
7A
330
78
100
AcDbEntity
  8
0
100
AcDbBlockEnd
  0
BLOCK
  5
7C
330
7B
100
AcDbEntity
  8
0
100
AcDbBlockBegin
  2
VIS-ULRBNLN0003
 70
     0
 10
0.0
 20
0.0
 30
0.0
  3
VIS-ULRBNLN0003
  1

  0
LINE
  5
10E
330
7B
100
AcDbEntity
  8
0
  6
Continuous
 62
    20
100
AcDbLine
 10
-175.6124005108299
 20
98.06397502665118
 30
0.0
 11
-175.58223451083
 21
98.06397502665118
 31
0.0
  0
LINE
  5
10F
330
7B
100
AcDbEntity
  8
0
  6
Continuous
 62
    20
100
AcDbLine
 10
-175.54723451083
 20
97.33397502665116
 30
0.0
 11
-175.61187851083
 21
97.33397502665116
 31
0.0
  0
LINE
  5
110
330
7B
100
AcDbEntity
  8
0
  6
Continuous
 62
    20
100
AcDbLine
 10
-175.54723451083
 20
77.58397502665116
 30
0.0
 11
-175.6123955108299
 21
77.58397502665116
 31
0.0
  0
LINE
  5
111
330
7B
100
AcDbEntity
  8
0
  6
Continuous
 62
    20
100
AcDbLine
 10
-175.63740051083
 20
76.7889750266512
 30
0.0
 11
-175.63740051083
 21
76.6389750266512
 31
0.0
  0
LINE
  5
112
330
7B
100
AcDbEntity
  8
0
  6
Continuous
 62
    20
100
AcDbLine
 10
-175.63740051083
 20
96.5389750266512
 30
0.0
 11
-175.63740051083
 21
96.3889750266512
 31
0.0
  0
LINE
  5
113
330
7B
100
AcDbEntity
  8
0
  6
Continuous
 62
    20
100
AcDbLine
 10
-175.5774005108301
 20
88.17397502665119
 30
0.0
 11
-175.5774005108301
 21
87.4539750266512
 31
0.0
  0
LINE
  5
114
330
7B
100
AcDbEntity
  8
0
  6
Continuous
 62
    20
100
AcDbLine
 10
-175.63740051083
 20
98.98897502665119
 30
0.0
 11
-175.63740051083
 21
98.8389750266512
 31
0.0
  0
LINE
  5
115
330
7B
100
AcDbEntity
  8
0
  6
Continuous
 62
    20
100
AcDbLine
 10
-175.63740051083
 20
79.23897502665119
 30
0.0
 11
-175.63740051083
 21
79.0889750266512
 31
0.0
  0
LINE
  5
116
330
7B
100
AcDbEntity
  8
0
  6
Continuous
 62
    20
100
AcDbLine
 10
-175.6124005108299
 20
78.31397502665118
 30
0.0
 11
-175.58223451083
 21
78.31397502665118
 31
0.0
  0
LINE
  5
117
330
7B
100
AcDbEntity
  8
0
  6
Continuous
 62
    20
100
AcDbLine
 10
-175.6124005108299
 20
79.0889750266512
 30
0.0
 11
-175.63740051083
 21
79.0889750266512
 31
0.0
  0
LINE
  5
118
330
7B
100
AcDbEntity
  8
0
  6
Continuous
 62
    20
100
AcDbLine
 10
-175.6124005108299
 20
76.78897502665119
 30
0.0
 11
-175.63740051083
 21
76.78897502665119
 31
0.0
  0
LINE
  5
119
330
7B
100
AcDbEntity
  8
0
  6
Continuous
 62
    20
100
AcDbLine
 10
-175.66240051083
 20
88.29897502665119
 30
0.0
 11
-175.66240051083
 21
87.3289750266512
 31
0.0
  0
LINE
  5
11A
330
7B
100
AcDbEntity
  8
0
  6
Continuous
 62
    20
100
AcDbLine
 10
-175.6124005108299
 20
98.83897502665118
 30
0.0
 11
-175.63740051083
 21
98.83897502665118
 31
0.0
  0
LINE
  5
11B
330
7B
100
AcDbEntity
  8
0
  6
Continuous
 62
    20
100
AcDbLine
 10
-175.6124005108299
 20
96.53897502665119
 30
0.0
 11
-175.63740051083
 21
96.53897502665119
 31
0.0
  0
LINE
  5
11C
330
7B
100
AcDbEntity
  8
0
  6
Continuous
 62
    20
100
AcDbLine
 10
-175.61240051083
 20
79.0889750266512
 30
0.0
 11
-175.61240051083
 21
76.7889750266512
 31
0.0
  0
LINE
  5
11D
330
7B
100
AcDbEntity
  8
0
  6
Continuous
 62
    20
100
AcDbLine
 10
-175.5472345108301
 20
97.33397502665119
 30
0.0
 11
-175.5472345108301
 21
97.36397502665119
 31
0.0
  0
LINE
  5
11E
330
7B
100
AcDbEntity
  8
0
  6
Continuous
 62
    20
100
AcDbLine
 10
-176.49240051083
 20
72.93897502665119
 30
0.0
 11
-176.49240051083
 21
102.6889750266512
 31
0.0
  0
LINE
  5
11F
330
7B
100
AcDbEntity
  8
0
  6
Continuous
 62
    20
100
AcDbLine
 10
-175.74240051083
 20
72.93897502665119
 30
0.0
 11
-175.74240051083
 21
102.6889750266512
 31
0.0
  0
LINE
  5
120
330
7B
100
AcDbEntity
  8
0
  6
Continuous
 62
    20
100
AcDbLine
 10
-175.74240051083
 20
72.93897502665118
 30
0.0
 11
-176.49240051083
 21
72.93897502665118
 31
0.0
  0
LINE
  5
121
330
7B
100
AcDbEntity
  8
0
  6
Continuous
 62
    20
100
AcDbLine
 10
-175.74240051083
 20
102.6889750266512
 30
0.0
 11
-176.49240051083
 21
102.6889750266512
 31
0.0
  0
LINE
  5
122
330
7B
100
AcDbEntity
  8
0
  6
Continuous
 62
    20
100
AcDbLine
 10
-175.5472345108301
 20
77.58397502665119
 30
0.0
 11
-175.5472345108301
 21
77.61397502665119
 31
0.0
  0
LINE
  5
123
330
7B
100
AcDbEntity
  8
0
  6
Continuous
 62
    20
100
AcDbLine
 10
-175.63740051083
 20
76.63897502665117
 30
0.0
 11
-175.74240051083
 21
76.63897502665117
 31
0.0
  0
LINE
  5
124
330
7B
100
AcDbEntity
  8
0
  6
Continuous
 62
    20
100
AcDbLine
 10
-175.63740051083
 20
76.63897502665117
 30
0.0
 11
-175.74240051083
 21
76.63897502665117
 31
0.0
  0
LINE
  5
125
330
7B
100
AcDbEntity
  8
0
  6
Continuous
 62
    20
100
AcDbLine
 10
-175.74240051083
 20
76.78897502665114
 30
0.0
 11
-175.63740051083
 21
76.78897502665114
 31
0.0
  0
LINE
  5
126
330
7B
100
AcDbEntity
  8
0
  6
Continuous
 62
    20
100
AcDbLine
 10
-175.63740051083
 20
96.38897502665117
 30
0.0
 11
-175.74240051083
 21
96.38897502665117
 31
0.0
  0
LINE
  5
127
330
7B
100
AcDbEntity
  8
0
  6
Continuous
 62
    20
100
AcDbLine
 10
-175.74240051083
 20
96.53897502665119
 30
0.0
 11
-175.63740051083
 21
96.53897502665119
 31
0.0
  0
LINE
  5
128
330
7B
100
AcDbEntity
  8
0
  6
Continuous
 62
    20
100
AcDbLine
 10
-175.63740051083
 20
98.83897502665116
 30
0.0
 11
-175.74240051083
 21
98.83897502665116
 31
0.0
  0
LINE
  5
129
330
7B
100
AcDbEntity
  8
0
  6
Continuous
 62
    20
100
AcDbLine
 10
-175.63740051083
 20
96.5389750266512
 30
0.0
 11
-175.63740051083
 21
98.8389750266512
 31
0.0
  0
LINE
  5
12A
330
7B
100
AcDbEntity
  8
0
  6
Continuous
 62
    20
100
AcDbLine
 10
-175.74240051083
 20
96.53897502665119
 30
0.0
 11
-175.63740051083
 21
96.53897502665119
 31
0.0
  0
LINE
  5
12B
330
7B
100
AcDbEntity
  8
0
  6
Continuous
 62
    20
100
AcDbLine
 10
-175.74240051083
 20
79.23897502665113
 30
0.0
 11
-175.63740051083
 21
79.23897502665113
 31
0.0
  0
LINE
  5
12C
330
7B
100
AcDbEntity
  8
0
  6
Continuous
 62
    20
100
AcDbLine
 10
-169.14240051083
 20
102.7889750266512
 30
0.0
 11
-169.14240051083
 21
72.83897502665121
 31
0.0
  0
LINE
  5
12D
330
7B
100
AcDbEntity
  8
0
  6
Continuous
 62
    20
100
AcDbLine
 10
-175.51740051083
 20
72.83897502665121
 30
0.0
 11
-175.51740051083
 21
102.7889750266512
 31
0.0
  0
LINE
  5
12E
330
7B
100
AcDbEntity
  8
0
  6
Continuous
 62
    20
100
AcDbLine
 10
-175.51740051083
 20
102.7889750266512
 30
0.0
 11
-169.14240051083
 21
102.7889750266512
 31
0.0
  0
LINE
  5
12F
330
7B
100
AcDbEntity
  8
0
  6
Continuous
 62
    20
100
AcDbLine
 10
-175.63740051083
 20
79.08897502665116
 30
0.0
 11
-175.74240051083
 21
79.08897502665116
 31
0.0
  0
LINE
  5
130
330
7B
100
AcDbEntity
  8
0
  6
Continuous
 62
    20
100
AcDbLine
 10
-175.63740051083
 20
76.7889750266512
 30
0.0
 11
-175.63740051083
 21
79.0889750266512
 31
0.0
  0
LINE
  5
131
330
7B
100
AcDbEntity
  8
0
  6
Continuous
 62
    20
100
AcDbLine
 10
-175.74240051083
 20
76.78897502665114
 30
0.0
 11
-175.63740051083
 21
76.78897502665114
 31
0.0
  0
LINE
  5
132
330
7B
100
AcDbEntity
  8
0
  6
Continuous
 62
    20
100
AcDbLine
 10
-175.5773755108301
 20
87.56377302665118
 30
0.0
 11
-175.5173855108299
 21
87.56377302665118
 31
0.0
  0
LINE
  5
133
330
7B
100
AcDbEntity
  8
0
  6
Continuous
 62
    20
100
AcDbLine
 10
-175.5173855108299
 20
88.06417702665118
 30
0.0
 11
-175.5773755108301
 21
88.06417702665118
 31
0.0
  0
LINE
  5
134
330
7B
100
AcDbEntity
  8
0
  6
Continuous
 62
    20
100
AcDbLine
 10
-175.51738851083
 20
87.67147502665118
 30
0.0
 11
-175.57740051083
 21
87.67147502665118
 31
0.0
  0
LINE
  5
135
330
7B
100
AcDbEntity
  8
0
  6
Continuous
 62
    20
100
AcDbLine
 10
-175.57740051083
 20
87.95647502665116
 30
0.0
 11
-175.51738851083
 21
87.95647502665116
 31
0.0
  0
LINE
  5
136
330
7B
100
AcDbEntity
  8
0
  6
Continuous
 62
    20
100
AcDbLine
 10
-175.57740051083
 20
87.95397502665116
 30
0.0
 11
-175.51738851083
 21
87.95397502665116
 31
0.0
  0
LINE
  5
137
330
7B
100
AcDbEntity
  8
0
  6
Continuous
 62
    20
100
AcDbLine
 10
-175.51738851083
 20
87.67397502665118
 30
0.0
 11
-175.57740051083
 21
87.67397502665118
 31
0.0
  0
LINE
  5
138
330
7B
100
AcDbEntity
  8
0
  6
Continuous
 62
    20
100
AcDbLine
 10
-175.57740051083
 20
88.17397502665118
 30
0.0
 11
-175.6624005108301
 21
88.17397502665118
 31
0.0
  0
LINE
  5
139
330
7B
100
AcDbEntity
  8
0
  6
Continuous
 62
    20
100
AcDbLine
 10
-175.6624005108301
 20
87.45397502665116
 30
0.0
 11
-175.57740051083
 21
87.45397502665116
 31
0.0
  0
LINE
  5
13A
330
7B
100
AcDbEntity
  8
0
  6
Continuous
 62
    20
100
AcDbLine
 10
-175.63740051083
 20
98.83897502665116
 30
0.0
 11
-175.74240051083
 21
98.83897502665116
 31
0.0
  0
LINE
  5
13B
330
7B
100
AcDbEntity
  8
0
  6
Continuous
 62
    20
100
AcDbLine
 10
-175.74240051083
 20
98.98897502665113
 30
0.0
 11
-175.63740051083
 21
98.98897502665113
 31
0.0
  0
LINE
  5
13C
330
7B
100
AcDbEntity
  8
0
  6
Continuous
 62
    20
100
AcDbLine
 10
-175.63740051083
 20
79.08897502665116
 30
0.0
 11
-175.74240051083
 21
79.08897502665116
 31
0.0
  0
LINE
  5
13D
330
7B
100
AcDbEntity
  8
0
  6
Continuous
 62
    20
100
AcDbLine
 10
-175.74240051083
 20
79.23897502665113
 30
0.0
 11
-175.63740051083
 21
79.23897502665113
 31
0.0
  0
LINE
  5
13E
330
7B
100
AcDbEntity
  8
0
  6
Continuous
 62
    20
100
AcDbLine
 10
-175.61240051083
 20
98.8389750266512
 30
0.0
 11
-175.61240051083
 21
96.5389750266512
 31
0.0
  0
LINE
  5
13F
330
7B
100
AcDbEntity
  8
0
  6
Continuous
 62
    20
100
AcDbLine
 10
-175.5173905108299
 20
97.36397502665118
 30
0.0
 11
-175.61239851083
 21
97.36397502665118
 31
0.0
  0
LINE
  5
140
330
7B
100
AcDbEntity
  8
0
  6
Continuous
 62
    20
100
AcDbLine
 10
-175.61239851083
 20
98.01397502665117
 30
0.0
 11
-175.5173905108299
 21
98.01397502665117
 31
0.0
  0
LINE
  5
141
330
7B
100
AcDbEntity
  8
0
  6
Continuous
 62
    20
100
AcDbLine
 10
-175.74240051083
 20
98.98897502665113
 30
0.0
 11
-175.63740051083
 21
98.98897502665113
 31
0.0
  0
LINE
  5
142
330
7B
100
AcDbEntity
  8
0
  6
Continuous
 62
    20
100
AcDbLine
 10
-175.63740051083
 20
96.38897502665117
 30
0.0
 11
-175.74240051083
 21
96.38897502665117
 31
0.0
  0
LINE
  5
143
330
7B
100
AcDbEntity
  8
0
  6
Continuous
 62
    20
100
AcDbLine
 10
-175.63740051083
 20
76.7889750266512
 30
0.0
 11
-175.63740051083
 21
79.0889750266512
 31
0.0
  0
LINE
  5
144
330
7B
100
AcDbEntity
  8
0
  6
Continuous
 62
    20
100
AcDbLine
 10
-175.61240051083
 20
79.0889750266512
 30
0.0
 11
-175.61240051083
 21
76.7889750266512
 31
0.0
  0
LINE
  5
145
330
7B
100
AcDbEntity
  8
0
  6
Continuous
 62
    20
100
AcDbLine
 10
-175.61239851083
 20
78.26397502665117
 30
0.0
 11
-175.5173905108299
 21
78.26397502665117
 31
0.0
  0
LINE
  5
146
330
7B
100
AcDbEntity
  8
0
  6
Continuous
 62
    20
100
AcDbLine
 10
-175.5173905108299
 20
77.61397502665118
 30
0.0
 11
-175.61239851083
 21
77.61397502665118
 31
0.0
  0
LINE
  5
147
330
7B
100
AcDbEntity
  8
0
  6
Continuous
 62
    20
100
AcDbLine
 10
-175.74240051083
 20
87.31397502665118
 30
0.0
 11
-175.67740051083
 21
87.31397502665118
 31
0.0
  0
LINE
  5
148
330
7B
100
AcDbEntity
  8
0
  6
Continuous
 62
    20
100
AcDbLine
 10
-175.67740051083
 20
88.31397502665118
 30
0.0
 11
-175.74240051083
 21
88.31397502665118
 31
0.0
  0
LINE
  5
149
330
7B
100
AcDbEntity
  8
0
  6
Continuous
 62
    20
100
AcDbLine
 10
-175.63740051083
 20
96.5389750266512
 30
0.0
 11
-175.63740051083
 21
98.8389750266512
 31
0.0
  0
LINE
  5
14A
330
7B
100
AcDbEntity
  8
0
  6
Continuous
 62
    20
100
AcDbLine
 10
-175.61240051083
 20
98.8389750266512
 30
0.0
 11
-175.61240051083
 21
96.5389750266512
 31
0.0
  0
LINE
  5
14B
330
7B
100
AcDbEntity
  8
0
  6
Continuous
 62
    20
100
AcDbLine
 10
-169.14240051083
 20
72.8389750266512
 30
0.0
 11
-175.51740051083
 21
72.8389750266512
 31
0.0
  0
LINE
  5
14C
330
7B
100
AcDbEntity
  8
0
  6
CENTER
 62
   112
100
AcDbLine
 10
-168.1424005108301
 20
75.03897502665127
 30
0.0
 11
-169.1424005108301
 21
75.03897502665127
 31
0.0
  0
LINE
  5
14D
330
7B
100
AcDbEntity
  8
0
  6
CENTER
 62
   112
100
AcDbLine
 10
-168.1424005108301
 20
100.5889750266513
 30
0.0
 11
-169.1424005108301
 21
100.5889750266513
 31
0.0
  0
ARC
  5
14E
330
7B
100
AcDbEntity
  8
0
  6
Continuous
 62
    20
100
AcDbCircle
 10
-175.63740051083
 20
76.66397502665119
 30
0.0
 40
0.025
100
AcDbArc
 50
270.0
 51
0.0
  0
ARC
  5
14F
330
7B
100
AcDbEntity
  8
0
  6
Continuous
 62
    20
100
AcDbCircle
 10
-175.63740051083
 20
79.21397502665116
 30
0.0
 40
0.025
100
AcDbArc
 50
0.0
 51
90.0
  0
ARC
  5
150
330
7B
100
AcDbEntity
  8
0
  6
Continuous
 62
    20
100
AcDbCircle
 10
-175.63740051083
 20
98.96397502665116
 30
0.0
 40
0.025
100
AcDbArc
 50
0.0
 51
90.0
  0
ARC
  5
151
330
7B
100
AcDbEntity
  8
0
  6
Continuous
 62
    20
100
AcDbCircle
 10
-175.63740051083
 20
96.41397502665119
 30
0.0
 40
0.025
100
AcDbArc
 50
270.0
 51
0.0
  0
ARC
  5
152
330
7B
100
AcDbEntity
  8
0
  6
Continuous
 62
    20
100
AcDbCircle
 10
-175.67740051083
 20
88.29897502665118
 30
0.0
 40
0.015
100
AcDbArc
 50
0.0
 51
90.0
  0
ARC
  5
153
330
7B
100
AcDbEntity
  8
0
  6
Continuous
 62
    20
100
AcDbCircle
 10
-175.67740051083
 20
87.32897502665116
 30
0.0
 40
0.015
100
AcDbArc
 50
270.0
 51
0.0
  0
SPLINE
  5
154
330
7B
100
AcDbEntity
  8
0
  6
Continuous
 62
    20
100
AcDbSpline
210
0.0
220
0.0
230
1.0
 70
  1080
 71
     3
 72
    42
 73
    38
 74
    36
 42
0.0000000001
 43
0.0000000001
 44
0.0000000001
 12
1.016286002757698E-11
 22
-1.0
 32
0.0
 13
4.225161291435826E-28
 23
-1.0
 33
0.0
 40
0.0
 40
0.0
 40
0.0
 40
0.0
 40
0.0056041408739276
 40
0.0111865426420223
 40
0.0167471842129459
 40
0.0222860238773706
 40
0.0277930438355725
 40
0.0332305325011362
 40
0.0385948725818253
 40
0.0438860640775971
 40
0.0491026884350276
 40
0.0542133704745993
 40
0.059205242934766
 40
0.0640783058154994
 40
0.0688325591167995
 40
0.0734523073051037
 40
0.077912468928119
 40
0.082212717190373
 40
0.0863530520916811
 40
0.090329129395073
 40
0.0941147302768286
 40
0.0977054592660238
 40
0.1011013163626444
 40
0.1043020932043532
 40
0.1072910883083296
 40
0.1100577418708326
 40
0.1126020538918624
 40
0.1149240243714758
 40
0.1170183612157984
 40
0.1188720313127902
 40
0.1204844327420034
 40
0.1218555655033953
 40
0.1229849397132057
 40
0.1238673726706452
 40
0.1245012632823688
 40
0.1248786000624023
 40
0.1249952910078491
 40
0.1249952910078491
 40
0.1249952910078491
 40
0.1249952910078491
 10
-175.6124002377218
 20
76.78897501024449
 30
0.0
 10
-175.6124002377217
 20
76.7871069632865
 30
0.0
 10
-175.6124002377216
 20
76.78337811573917
 30
0.0
 10
-175.6124002377218
 20
76.77779572100152
 30
0.0
 10
-175.6124002377218
 20
76.77223509333373
 30
0.0
 10
-175.6124002377218
 20
76.76669959293585
 30
0.0
 10
-175.6124002377218
 20
76.76120514350646
 30
0.0
 10
-175.6124002377218
 20
76.75576886060499
 30
0.0
 10
-175.6124002377218
 20
76.7504045205243
 30
0.0
 10
-175.6124002377217
 20
76.74511380187967
 30
0.0
 10
-175.6124002377218
 20
76.73990763591542
 30
0.0
 10
-175.6124002377217
 20
76.73480124296303
 30
0.0
 10
-175.6124002377218
 20
76.72980937050286
 30
0.0
 10
-175.6124002377218
 20
76.72493630762213
 30
0.0
 10
-175.6124002377216
 20
76.72018728616534
 30
0.0
 10
-175.6124002377217
 20
76.71557589846114
 30
0.0
 10
-175.6124002377218
 20
76.71111584576994
 30
0.0
 10
-175.6124002377218
 20
76.70681559750777
 30
0.0
 10
-175.6124002377217
 20
76.70267671068544
 30
0.0
 10
-175.6124002377218
 20
76.69870937298997
 30
0.0
 10
-175.6124002377215
 20
76.69492523726515
 30
0.0
 10
-175.6124002377218
 20
76.69133450827596
 30
0.0
 10
-175.6124002377217
 20
76.6879387206335
 30
0.0
 10
-175.6124002377217
 20
76.68474351095269
 30
0.0
 10
-175.6124002377218
 20
76.68175803578332
 30
0.0
 10
-175.6124002377218
 20
76.67899138222083
 30
0.0
 10
-175.6124002377217
 20
76.67644707019976
 30
0.0
 10
-175.6124002377217
 20
76.67412686375144
 30
0.0
 10
-175.6124002377217
 20
76.67203687127781
 30
0.0
 10
-175.6124002377216
 20
76.67018340182094
 30
0.0
 10
-175.6124002377218
 20
76.66857100039178
 30
0.0
 10
-175.6124002377218
 20
76.66720003092495
 30
0.0
 10
-175.6124002377217
 20
76.66607238428207
 30
0.0
 10
-175.6124002377216
 20
76.66519048502238
 30
0.0
 10
-175.6124002377218
 20
76.66455926490605
 30
0.0
 10
-175.6124002377219
 20
76.66418329212695
 30
0.0
 10
-175.6124002377218
 20
76.66401861621846
 30
0.0
 10
-175.6124002377218
 20
76.66397971923664
 30
0.0
 11
-175.6124002377218
 21
76.78897501024449
 31
0.0
 11
-175.6124002377217
 21
76.78337086937056
 31
0.0
 11
-175.6124002377218
 21
76.77778846760246
 31
0.0
 11
-175.6124002377218
 21
76.77222782603154
 31
0.0
 11
-175.6124002377218
 21
76.76668898636711
 31
0.0
 11
-175.6124002377218
 21
76.76118196640891
 31
0.0
 11
-175.6124002377218
 21
76.75574447774335
 31
0.0
 11
-175.6124002377218
 21
76.75038013766266
 31
0.0
 11
-175.6124002377218
 21
76.74508894616689
 31
0.0
 11
-175.6124002377218
 21
76.73987232180946
 31
0.0
 11
-175.6124002377217
 21
76.73476163976989
 31
0.0
 11
-175.6124002377218
 21
76.72976976730972
 31
0.0
 11
-175.6124002377218
 21
76.72489670442899
 31
0.0
 11
-175.6124002377217
 21
76.72014245112769
 31
0.0
 11
-175.6124002377217
 21
76.71552270293938
 31
0.0
 11
-175.6124002377218
 21
76.71106254131637
 31
0.0
 11
-175.6124002377218
 21
76.70676229305411
 31
0.0
 11
-175.6124002377218
 21
76.7026219581528
 31
0.0
 11
-175.6124002377218
 21
76.69864588084941
 31
0.0
 11
-175.6124002377217
 21
76.69486027996766
 31
0.0
 11
-175.6124002377218
 21
76.69126955097846
 31
0.0
 11
-175.6124002377217
 21
76.68787369388184
 31
0.0
 11
-175.6124002377217
 21
76.68467291704013
 31
0.0
 11
-175.6124002377218
 21
76.68168392193616
 31
0.0
 11
-175.6124002377218
 21
76.67891726837365
 31
0.0
 11
-175.6124002377217
 21
76.67637295635262
 31
0.0
 11
-175.6124002377217
 21
76.67405098587301
 31
0.0
 11
-175.6124002377217
 21
76.67195664902869
 31
0.0
 11
-175.6124002377217
 21
76.6701029789317
 31
0.0
 11
-175.6124002377218
 21
76.66849057750248
 31
0.0
 11
-175.6124002377218
 21
76.66711944474109
 31
0.0
 11
-175.6124002377217
 21
76.66599007053128
 31
0.0
 11
-175.6124002377217
 21
76.66510763757384
 31
0.0
 11
-175.6124002377218
 21
76.66447374696212
 31
0.0
 11
-175.6124002377218
 21
76.66409641018208
 31
0.0
 11
-175.6124002377218
 21
76.66397971923664
 31
0.0
  0
SPLINE
  5
155
330
7B
100
AcDbEntity
  8
0
  6
Continuous
 62
    20
100
AcDbSpline
210
0.0
220
0.0
230
1.0
 70
  1080
 71
     3
 72
    42
 73
    38
 74
    36
 42
0.0000000001
 43
0.0000000001
 44
0.0000000001
 12
0.0
 22
-1.0
 32
0.0
 13
0.0
 23
-1.0
 33
0.0
 40
0.0
 40
0.0
 40
0.0
 40
0.0
 40
0.0001713576163525
 40
0.0005852954802208
 40
0.0012452539031074
 40
0.0021550875933514
 40
0.0033115571580993
 40
0.0047073295833258
 40
0.0063421249695352
 40
0.0082159433167135
 40
0.0103274554456334
 40
0.0126629015401818
 40
0.0152186451033458
 40
0.0179946861350828
 40
0.020991024635407
 40
0.024194585139881
 40
0.0275912551741868
 40
0.0311810296483941
 40
0.0349639085624176
 40
0.0389339787183189
 40
0.0430655268998521
 40
0.0473555655295854
 40
0.0518040946075899
 40
0.0564103918076171
 40
0.061147881128548
 40
0.0660031563363788
 40
0.0709762174311237
 40
0.0760670644127828
 40
0.0812614991209131
 40
0.086529455561049
 40
0.0918699575453275
 40
0.0972830050737912
 40
0.1027650542975493
 40
0.1082827166736138
 40
0.1138277570299238
 40
0.1194001834846858
 40
0.125
 40
0.125
 40
0.125
 40
0.125
 10
-175.6124002377218
 20
79.21397500944448
 30
0.0
 10
-175.6124002377218
 20
79.21391789023903
 30
0.0
 10
-175.6124002377218
 20
79.21372279174562
 30
0.0
 10
-175.6124002377218
 20
79.21330770711126
 30
0.0
 10
-175.6124002377217
 20
79.21264646378557
 30
0.0
 10
-175.6124002377218
 20
79.21173770989296
 30
0.0
 10
-175.6124002377216
 20
79.21058368466623
 30
0.0
 10
-175.6124002377218
 20
79.20918800554082
 30
0.0
 10
-175.6124002377217
 20
79.2075532101546
 30
0.0
 10
-175.6124002377218
 20
79.2056798348672
 30
0.0
 10
-175.6124002377218
 20
79.20357290934363
 30
0.0
 10
-175.6124002377218
 20
79.20123867541477
 30
0.0
 10
-175.6124002377218
 20
79.19868293185161
 30
0.0
 10
-175.6124002377218
 20
79.19590689081986
 30
0.0
 10
-175.6124002377218
 20
79.19291491080769
 30
0.0
 10
-175.6124002377218
 20
79.18971605446131
 30
0.0
 10
-175.6124002377218
 20
79.18631938612367
 30
0.0
 10
-175.6124002377218
 20
79.18272961164949
 30
0.0
 10
-175.6124002377217
 20
79.1789487038014
 30
0.0
 10
-175.6124002377219
 20
79.17498720471765
 30
0.0
 10
-175.6124002377216
 20
79.1708566523952
 30
0.0
 10
-175.6124002377218
 20
79.1665666137655
 30
0.0
 10
-175.6124002377218
 20
79.16211832546287
 30
0.0
 10
-175.6124002377216
 20
79.1575208869299
 30
0.0
 10
-175.6124002377218
 20
79.15278786635363
 30
0.0
 10
-175.6124002377217
 20
79.1479325911458
 30
0.0
 10
-175.6124002377218
 20
79.14295953005104
 30
0.0
 10
-175.6124002377217
 20
79.13787341578954
 30
0.0
 10
-175.6124002377218
 20
79.13268900307956
 30
0.0
 10
-175.6124002377218
 20
79.1274213720354
 30
0.0
 10
-175.6124002377218
 20
79.12208087005108
 30
0.0
 10
-175.6124002377218
 20
79.11666900380563
 30
0.0
 10
-175.6124002377218
 20
79.11119808409615
 30
0.0
 10
-175.6124002377216
 20
79.10568316677745
 30
0.0
 10
-175.6124002377218
 20
79.10013812371506
 30
0.0
 10
-175.6124002377218
 20
79.09456569593964
 30
0.0
 10
-175.6124002377218
 20
79.09084161494958
 30
0.0
 10
-175.6124002377218
 20
79.08897500944448
 30
0.0
 11
-175.6124002377218
 21
79.21397500944448
 31
0.0
 11
-175.6124002377218
 21
79.21380365182813
 31
0.0
 11
-175.6124002377218
 21
79.21338971396426
 31
0.0
 11
-175.6124002377218
 21
79.21272975554137
 31
0.0
 11
-175.6124002377218
 21
79.21181992185113
 31
0.0
 11
-175.6124002377217
 21
79.21066345228638
 31
0.0
 11
-175.6124002377218
 21
79.20926767986116
 31
0.0
 11
-175.6124002377218
 21
79.20763288447495
 31
0.0
 11
-175.6124002377218
 21
79.20575906612777
 31
0.0
 11
-175.6124002377218
 21
79.20364755399885
 31
0.0
 11
-175.6124002377218
 21
79.2013121079043
 31
0.0
 11
-175.6124002377218
 21
79.19875636434114
 31
0.0
 11
-175.6124002377218
 21
79.1959803233094
 31
0.0
 11
-175.6124002377218
 21
79.19298398480908
 31
0.0
 11
-175.6124002377218
 21
79.1897804243046
 31
0.0
 11
-175.6124002377218
 21
79.1863837542703
 31
0.0
 11
-175.6124002377218
 21
79.18279397979609
 31
0.0
 11
-175.6124002377218
 21
79.17901110088206
 31
0.0
 11
-175.6124002377218
 21
79.17504103072616
 31
0.0
 11
-175.6124002377217
 21
79.17090948254463
 31
0.0
 11
-175.6124002377218
 21
79.1666194439149
 31
0.0
 11
-175.6124002377218
 21
79.16217091483689
 31
0.0
 11
-175.6124002377217
 21
79.15756461763687
 31
0.0
 11
-175.6124002377218
 21
79.15282712831593
 31
0.0
 11
-175.6124002377218
 21
79.1479718531081
 31
0.0
 11
-175.6124002377218
 21
79.14299879201336
 31
0.0
 11
-175.6124002377218
 21
79.1379079450317
 31
0.0
 11
-175.6124002377218
 21
79.13271351032357
 31
0.0
 11
-175.6124002377218
 21
79.12744555388343
 31
0.0
 11
-175.6124002377218
 21
79.12210505189915
 31
0.0
 11
-175.6124002377218
 21
79.11669200437069
 31
0.0
 11
-175.6124002377218
 21
79.11120995514693
 31
0.0
 11
-175.6124002377217
 21
79.10569229277087
 31
0.0
 11
-175.6124002377218
 21
79.10014725241456
 31
0.0
 11
-175.6124002377218
 21
79.0945748259598
 31
0.0
 11
-175.6124002377218
 21
79.08897500944448
 31
0.0
  0
SPLINE
  5
156
330
7B
100
AcDbEntity
  8
0
  6
Continuous
 62
    20
100
AcDbSpline
210
0.0
220
0.0
230
1.0
 70
  1080
 71
     3
 72
    18
 73
    14
 74
    12
 42
0.0000000001
 43
0.0000000001
 44
0.0000000001
 12
0.0
 22
-1.0
 32
0.0
 13
0.0
 23
-1.0
 33
0.0
 40
0.0
 40
0.0
 40
0.0
 40
0.0
 40
0.003119010865035
 40
0.0062389727744403
 40
0.0093587457884041
 40
0.0124771881588259
 40
0.0155931577187545
 40
0.0187055132752789
 40
0.0218131160015673
 40
0.0249148308261624
 40
0.0280095278137793
 40
0.0310960835359992
 40
0.0341733824270136
 40
0.0341733824270136
 40
0.0341733824270136
 40
0.0341733824270136
 10
-175.6124002377058
 20
97.60183288454448
 30
0.0
 10
-175.6124002377058
 20
97.60079321425613
 30
0.0
 10
-175.6124002377057
 20
97.59871355666466
 30
0.0
 10
-175.6124002377058
 20
97.5955939747352
 30
0.0
 10
-175.6124002377057
 20
97.59247458230388
 30
0.0
 10
-175.6124002377059
 20
97.58935652065584
 30
0.0
 10
-175.6124002377057
 20
97.5862409314935
 30
0.0
 10
-175.6124002377058
 20
97.58312895554593
 30
0.0
 10
-175.6124002377058
 20
97.58002173117684
 30
0.0
 10
-175.6124002377057
 20
97.5769203929973
 30
0.0
 10
-175.6124002377058
 20
97.57382607048584
 30
0.0
 10
-175.6124002377058
 20
97.57073988661891
 30
0.0
 10
-175.6124002377058
 20
97.56868526841447
 30
0.0
 10
-175.6124002377058
 20
97.56765950211746
 30
0.0
 11
-175.6124002377058
 21
97.60183288454448
 31
0.0
 11
-175.6124002377058
 21
97.59871387367944
 31
0.0
 11
-175.6124002377058
 21
97.59559391177004
 31
0.0
 11
-175.6124002377058
 21
97.59247413875607
 31
0.0
 11
-175.6124002377058
 21
97.58935569638565
 31
0.0
 11
-175.6124002377058
 21
97.58623972682572
 31
0.0
 11
-175.6124002377058
 21
97.5831273712692
 31
0.0
 11
-175.6124002377058
 21
97.58001976854291
 31
0.0
 11
-175.6124002377058
 21
97.57691805371832
 31
0.0
 11
-175.6124002377058
 21
97.5738233567307
 31
0.0
 11
-175.6124002377058
 21
97.57073680100848
 31
0.0
 11
-175.6124002377058
 21
97.56765950211746
 31
0.0
  0
SPLINE
  5
157
330
7B
100
AcDbEntity
  8
0
  6
Continuous
 62
    20
100
AcDbSpline
210
0.0
220
0.0
230
1.0
 70
  1064
 71
     3
 72
    30
 73
    26
 74
    24
 42
0.0000000001
 43
0.0000000001
 44
0.0000000001
 12
1.132118971716280E-11
 22
-1.0
 32
0.0
 13
6.174820019112357E-10
 23
-1.0
 33
0.0
 40
0.0
 40
0.0
 40
0.0
 40
0.0
 40
0.0050300604883233
 40
0.0100419842265751
 40
0.0150357588383372
 40
0.02001134316464
 40
0.0249665219879631
 40
0.0298703048209745
 40
0.0347127091422408
 40
0.0394937349518614
 40
0.0442133822497226
 40
0.0488638012116667
 40
0.0534170084637822
 40
0.0578705229694947
 40
0.0622243447288753
 40
0.0664784737419382
 40
0.0706170465430205
 40
0.0746215414057616
 40
0.0784919310580676
 40
0.0822282154998248
 40
0.0858292841419939
 40
0.0892752920814814
 40
0.0925589140376246
 40
0.0956801500104802
 40
0.0986389999995509
 40
0.0986389999995509
 40
0.0986389999995509
 40
0.0986389999995509
 10
-175.6424002377217
 20
76.7889750086045
 30
0.0
 10
-175.6424002377217
 20
76.78729832177505
 30
0.0
 10
-175.6424002377217
 20
76.78395099369952
 30
0.0
 10
-175.6424002377217
 20
76.77893907408675
 30
0.0
 10
-175.6424002377217
 20
76.77394531319464
 30
0.0
 10
-175.6424002377217
 20
76.76897046727419
 30
0.0
 10
-175.6424002377217
 20
76.76402561861329
 30
0.0
 10
-175.6424002377217
 20
76.75912516328745
 30
0.0
 10
-175.6424002377217
 20
76.75428275896613
 30
0.0
 10
-175.6424002377216
 20
76.74950173315656
 30
0.0
 10
-175.6424002377217
 20
76.74478470246675
 30
0.0
 10
-175.6424002377216
 20
76.7401436112961
 30
0.0
 10
-175.6424002377219
 20
76.73559123105618
 30
0.0
 10
-175.6424002377217
 20
76.73113771655045
 30
0.0
 10
-175.6424002377217
 20
76.72678389479105
 30
0.0
 10
-175.6424002377217
 20
76.7225350535999
 30
0.0
 10
-175.6424002377217
 20
76.71840265470759
 30
0.0
 10
-175.6424002377216
 20
76.71439816893553
 30
0.0
 10
-175.6424002377217
 20
76.71052777928327
 30
0.0
 10
-175.6424002377217
 20
76.70679186503786
 30
0.0
 10
-175.6424002377217
 20
76.7031974113634
 30
0.0
 10
-175.6424002377217
 20
76.69975384518412
 30
0.0
 10
-175.6424002377215
 20
76.69647022322795
 30
0.0
 10
-175.642400237722
 20
76.69334898725528
 30
0.0
 10
-175.6424002377211
 20
76.69132229193464
 30
0.0
 10
-175.6424002377205
 20
76.69033600860494
 30
0.0
 11
-175.6424002377217
 21
76.7889750086045
 31
0.0
 11
-175.6424002377217
 21
76.78394494811617
 31
0.0
 11
-175.6424002377217
 21
76.77893302437792
 31
0.0
 11
-175.6424002377217
 21
76.77393924976616
 31
0.0
 11
-175.6424002377217
 21
76.76896366543986
 31
0.0
 11
-175.6424002377217
 21
76.76400848661653
 31
0.0
 11
-175.6424002377217
 21
76.75910470378352
 31
0.0
 11
-175.6424002377217
 21
76.75426229946225
 31
0.0
 11
-175.6424002377217
 21
76.74948127365263
 31
0.0
 11
-175.6424002377217
 21
76.74476162635477
 31
0.0
 11
-175.6424002377217
 21
76.74011120739283
 31
0.0
 11
-175.6424002377218
 21
76.73555800014071
 31
0.0
 11
-175.6424002377217
 21
76.731104485635
 31
0.0
 11
-175.6424002377217
 21
76.72675066387562
 31
0.0
 11
-175.6424002377217
 21
76.72249653486256
 31
0.0
 11
-175.6424002377217
 21
76.71835796206148
 31
0.0
 11
-175.6424002377217
 21
76.71435346719873
 31
0.0
 11
-175.6424002377217
 21
76.71048307754643
 31
0.0
 11
-175.6424002377217
 21
76.70674679310467
 31
0.0
 11
-175.6424002377217
 21
76.7031457244625
 31
0.0
 11
-175.6424002377217
 21
76.69969971652301
 31
0.0
 11
-175.6424002377217
 21
76.69641609456687
 31
0.0
 11
-175.6424002377217
 21
76.69329485859402
 31
0.0
 11
-175.6424002377205
 21
76.69033600860494
 31
0.0
  0
SPLINE
  5
158
330
7B
100
AcDbEntity
  8
0
  6
Continuous
 62
    20
100
AcDbSpline
210
0.0
220
0.0
230
1.0
 70
  1064
 71
     3
 72
    42
 73
    38
 74
    36
 42
0.0000000001
 43
0.0000000001
 44
0.0000000001
 12
2.433053352415439E-10
 22
-1.0
 32
0.0
 13
0.0
 23
-1.0
 33
0.0
 40
0.0
 40
0.0
 40
0.0
 40
0.0
 40
0.0001653525708889
 40
0.0005633051786873
 40
0.0011973164806278
 40
0.0020712214449077
 40
0.0031818742836123
 40
0.0045222159281479
 40
0.0060919823722543
 40
0.0078911736159739
 40
0.00991849914341
 40
0.0121607425609795
 40
0.0146144377970927
 40
0.0172795848516358
 40
0.02015618372468
 40
0.0232316378259725
 40
0.0264924470870369
 40
0.0299386074938184
 40
0.0335701190463169
 40
0.0373812778850038
 40
0.0413474117287365
 40
0.0454656729456815
 40
0.049736061535782
 40
0.0541578761667125
 40
0.0587055818040341
 40
0.0633663450597055
 40
0.0681401659336416
 40
0.0730270444258849
 40
0.0780133276678754
 40
0.0830701755448331
 40
0.0881966575934854
 40
0.093392773813946
 40
0.0986551254198389
 40
0.1039517457847978
 40
0.1092747606882085
 40
0.1146241775530257
 40
0.1199999999999619
 40
0.1199999999999619
 40
0.1199999999999619
 40
0.1199999999999619
 10
-175.6424002377217
 20
79.20897501108448
 30
0.0
 10
-175.6424002377217
 20
79.20891989356085
 30
0.0
 10
-175.6424002377217
 20
79.20873212516794
 30
0.0
 10
-175.6424002377217
 20
79.20833301967443
 30
0.0
 10
-175.6424002377217
 20
79.20769773004974
 30
0.0
 10
-175.6424002377217
 20
79.2068248736814
 30
0.0
 10
-175.6424002377217
 20
79.2057165738656
 30
0.0
 10
-175.6424002377217
 20
79.20437632022312
 30
0.0
 10
-175.6424002377217
 20
79.20280655377901
 30
0.0
 10
-175.6424002377217
 20
79.20100779270727
 30
0.0
 10
-175.6424002377217
 20
79.19898487264435
 30
0.0
 10
-175.6424002377217
 20
79.19674378458399
 30
0.0
 10
-175.6424002377217
 20
79.1942900893479
 30
0.0
 10
-175.6424002377217
 20
79.19162494229337
 30
0.0
 10
-175.6424002377217
 20
79.18875254228371
 30
0.0
 10
-175.6424002377217
 20
79.18568158820524
 30
0.0
 10
-175.6424002377217
 20
79.1824207802822
 30
0.0
 10
-175.6424002377217
 20
79.1789746198754
 30
0.0
 10
-175.6424002377217
 20
79.17534500960943
 30
0.0
 10
-175.6424002377217
 20
79.17154207486446
 30
0.0
 10
-175.6424002377216
 20
79.16757689023133
 30
0.0
 10
-175.6424002377217
 20
79.16345862901443
 30
0.0
 10
-175.6424002377217
 20
79.15918847420176
 30
0.0
 10
-175.6424002377217
 20
79.15477517124896
 30
0.0
 10
-175.6424002377217
 20
79.15023174340766
 30
0.0
 10
-175.6424002377217
 20
79.14557098015202
 30
0.0
 10
-175.6424002377217
 20
79.14079715927808
 30
0.0
 10
-175.6424002377217
 20
79.135914831742
 30
0.0
 10
-175.6424002377217
 20
79.13093816187161
 30
0.0
 10
-175.6424002377217
 20
79.12588162414907
 30
0.0
 10
-175.6424002377217
 20
79.12075514210039
 30
0.0
 10
-175.6424002377216
 20
79.1155601588087
 30
0.0
 10
-175.6424002377217
 20
79.11030846274494
 30
0.0
 10
-175.6424002377217
 20
79.10501446712021
 30
0.0
 10
-175.6424002377217
 20
79.09969144974245
 30
0.0
 10
-175.6424002377217
 20
79.09434203167075
 30
0.0
 10
-175.6424002377217
 20
79.09076695190016
 30
0.0
 10
-175.6424002377217
 20
79.08897501108451
 30
0.0
 11
-175.6424002377217
 21
79.20897501108448
 31
0.0
 11
-175.6424002377217
 21
79.20880965851359
 31
0.0
 11
-175.6424002377217
 21
79.20841170590579
 31
0.0
 11
-175.6424002377217
 21
79.20777769460385
 31
0.0
 11
-175.6424002377217
 21
79.20690378963957
 31
0.0
 11
-175.6424002377217
 21
79.20579313680086
 31
0.0
 11
-175.6424002377217
 21
79.20445279515633
 31
0.0
 11
-175.6424002377217
 21
79.20288302871222
 31
0.0
 11
-175.6424002377217
 21
79.2010838374685
 31
0.0
 11
-175.6424002377217
 21
79.19905651194107
 31
0.0
 11
-175.6424002377217
 21
79.1968142685235
 31
0.0
 11
-175.6424002377217
 21
79.19436057328738
 31
0.0
 11
-175.6424002377217
 21
79.19169542623284
 31
0.0
 11
-175.6424002377217
 21
79.1888188273598
 31
0.0
 11
-175.6424002377217
 21
79.1857433732585
 31
0.0
 11
-175.6424002377217
 21
79.18248256399744
 31
0.0
 11
-175.6424002377217
 21
79.17903640359066
 31
0.0
 11
-175.6424002377217
 21
79.17540489203816
 31
0.0
 11
-175.6424002377217
 21
79.17159373319947
 31
0.0
 11
-175.6424002377217
 21
79.16762759935574
 31
0.0
 11
-175.6424002377217
 21
79.1635093381388
 31
0.0
 11
-175.6424002377217
 21
79.1592389495487
 31
0.0
 11
-175.6424002377217
 21
79.15481713491776
 31
0.0
 11
-175.6424002377217
 21
79.15026942928044
 31
0.0
 11
-175.6424002377217
 21
79.14560866602477
 31
0.0
 11
-175.6424002377217
 21
79.14083484515083
 31
0.0
 11
-175.6424002377217
 21
79.13594796665859
 31
0.0
 11
-175.6424002377217
 21
79.1309616834166
 31
0.0
 11
-175.6424002377217
 21
79.12590483553964
 31
0.0
 11
-175.6424002377217
 21
79.12077835349099
 31
0.0
 11
-175.6424002377217
 21
79.11558223727053
 31
0.0
 11
-175.6424002377217
 21
79.11031988566464
 31
0.0
 11
-175.6424002377217
 21
79.10502326529968
 31
0.0
 11
-175.6424002377217
 21
79.09970025039627
 31
0.0
 11
-175.6424002377217
 21
79.09435083353145
 31
0.0
 11
-175.6424002377217
 21
79.08897501108451
 31
0.0
  0
SPLINE
  5
159
330
7B
100
AcDbEntity
  8
0
  6
Continuous
 62
    20
100
AcDbSpline
210
0.0
220
0.0
230
1.0
 70
  1080
 71
     3
 72
    18
 73
    14
 74
    12
 42
0.0000000001
 43
0.0000000001
 44
0.0000000001
 12
0.0
 22
-1.0
 32
0.0
 13
1.475194096630844E-29
 23
-1.0
 33
0.0
 40
0.0
 40
0.0
 40
0.0
 40
0.0
 40
0.0339733639255542
 40
0.0677596959214384
 40
0.101232347112969
 40
0.1342648021987429
 40
0.1667322341745745
 40
0.1985130565994524
 40
0.2294904334145969
 40
0.2595537071937315
 40
0.2885997092934787
 40
0.3165339195582675
 40
0.3432714487763775
 40
0.3432714487763775
 40
0.3432714487763775
 40
0.3432714487763775
 10
-175.6124002377058
 20
97.56765950211746
 30
0.0
 10
-175.6124002377058
 20
97.55633504747561
 30
0.0
 10
-175.6124002377057
 20
97.53374848216845
 30
0.0
 10
-175.6124002377058
 20
97.50000436646417
 30
0.0
 10
-175.6124002377058
 20
97.46657388703976
 30
0.0
 10
-175.6124002377057
 20
97.43358304095537
 30
0.0
 10
-175.6124002377057
 20
97.40115613779321
 30
0.0
 10
-175.6124002377058
 20
97.36941426072127
 30
0.0
 10
-175.6124002377057
 20
97.33847376971487
 30
0.0
 10
-175.6124002377058
 20
97.30844488548354
 30
0.0
 10
-175.6124002377058
 20
97.2794303901023
 30
0.0
 10
-175.6124002377058
 20
97.25152447624143
 30
0.0
 10
-175.6124002377058
 20
97.23330056308046
 30
0.0
 10
-175.6124002377058
 20
97.22438805334109
 30
0.0
 11
-175.6124002377058
 21
97.56765950211746
 31
0.0
 11
-175.6124002377058
 21
97.53368613819191
 31
0.0
 11
-175.6124002377058
 21
97.49989980619603
 31
0.0
 11
-175.6124002377058
 21
97.4664271550045
 31
0.0
 11
-175.6124002377058
 21
97.43339469991872
 31
0.0
 11
-175.6124002377058
 21
97.40092726794289
 31
0.0
 11
-175.6124002377058
 21
97.36914644551801
 31
0.0
 11
-175.6124002377058
 21
97.33816906870287
 31
0.0
 11
-175.6124002377058
 21
97.30810579492373
 31
0.0
 11
-175.6124002377058
 21
97.27905979282399
 31
0.0
 11
-175.6124002377058
 21
97.2511255825592
 31
0.0
 11
-175.6124002377058
 21
97.22438805334109
 31
0.0
  0
SPLINE
  5
15A
330
7B
100
AcDbEntity
  8
0
  6
Continuous
 62
    20
100
AcDbSpline
210
0.0
220
0.0
230
1.0
 70
  1064
 71
     3
 72
    30
 73
    26
 74
    24
 42
0.0000000001
 43
0.0000000001
 44
0.0000000001
 12
-2.264237943445378E-11
 22
-1.0
 32
0.0
 13
5.987704261125495E-10
 23
-1.0
 33
0.0
 40
0.0
 40
0.0
 40
0.0
 40
0.0
 40
0.0050300604883091
 40
0.0100419842265183
 40
0.015035758838323
 40
0.0200113431645832
 40
0.0249665219879347
 40
0.0298703048209177
 40
0.0347127091421839
 40
0.0394937349517903
 40
0.0442133822497084
 40
0.0488638012115956
 40
0.0534170084637111
 40
0.0578705229694378
 40
0.0622243447288469
 40
0.0664784737418813
 40
0.0706170465430063
 40
0.0746215414057474
 40
0.0784919310580534
 40
0.0822282154998533
 40
0.0858292841419797
 40
0.0892752920814672
 40
0.0925589140376246
 40
0.0956801500104234
 40
0.0986389999993662
 40
0.0986389999993662
 40
0.0986389999993662
 40
0.0986389999993662
 10
-175.6424002377217
 20
96.53897500860448
 30
0.0
 10
-175.6424002377217
 20
96.53729832177504
 30
0.0
 10
-175.6424002377217
 20
96.53395099369955
 30
0.0
 10
-175.6424002377216
 20
96.52893907408675
 30
0.0
 10
-175.6424002377217
 20
96.52394531319469
 30
0.0
 10
-175.6424002377217
 20
96.51897046727422
 30
0.0
 10
-175.6424002377217
 20
96.51402561861335
 30
0.0
 10
-175.6424002377217
 20
96.50912516328746
 30
0.0
 10
-175.6424002377217
 20
96.50428275896618
 30
0.0
 10
-175.6424002377217
 20
96.49950173315656
 30
0.0
 10
-175.6424002377217
 20
96.49478470246679
 30
0.0
 10
-175.6424002377217
 20
96.49014361129615
 30
0.0
 10
-175.6424002377217
 20
96.48559123105623
 30
0.0
 10
-175.6424002377217
 20
96.48113771655049
 30
0.0
 10
-175.6424002377217
 20
96.47678389479108
 30
0.0
 10
-175.6424002377217
 20
96.4725350535999
 30
0.0
 10
-175.6424002377217
 20
96.4684026547076
 30
0.0
 10
-175.6424002377217
 20
96.46439816893555
 30
0.0
 10
-175.6424002377217
 20
96.46052777928327
 30
0.0
 10
-175.6424002377217
 20
96.45679186503787
 30
0.0
 10
-175.6424002377217
 20
96.45319741136339
 30
0.0
 10
-175.6424002377217
 20
96.44975384518412
 30
0.0
 10
-175.6424002377217
 20
96.44647022322798
 30
0.0
 10
-175.642400237722
 20
96.44334898725535
 30
0.0
 10
-175.6424002377211
 20
96.44132229193477
 30
0.0
 10
-175.6424002377205
 20
96.44033600860512
 30
0.0
 11
-175.6424002377217
 21
96.53897500860448
 31
0.0
 11
-175.6424002377217
 21
96.53394494811617
 31
0.0
 11
-175.6424002377217
 21
96.52893302437796
 31
0.0
 11
-175.6424002377217
 21
96.52393924976616
 31
0.0
 11
-175.6424002377217
 21
96.5189636654399
 31
0.0
 11
-175.6424002377217
 21
96.51400848661655
 31
0.0
 11
-175.6424002377217
 21
96.50910470378356
 31
0.0
 11
-175.6424002377217
 21
96.5042622994623
 31
0.0
 11
-175.6424002377217
 21
96.49948127365269
 31
0.0
 11
-175.6424002377217
 21
96.49476162635477
 31
0.0
 11
-175.6424002377217
 21
96.49011120739289
 31
0.0
 11
-175.6424002377217
 21
96.48555800014077
 31
0.0
 11
-175.6424002377217
 21
96.48110448563504
 31
0.0
 11
-175.6424002377217
 21
96.47675066387563
 31
0.0
 11
-175.6424002377217
 21
96.4724965348626
 31
0.0
 11
-175.6424002377217
 21
96.46835796206148
 31
0.0
 11
-175.6424002377217
 21
96.46435346719873
 31
0.0
 11
-175.6424002377217
 21
96.46048307754643
 31
0.0
 11
-175.6424002377217
 21
96.45674679310463
 31
0.0
 11
-175.6424002377217
 21
96.4531457244625
 31
0.0
 11
-175.6424002377217
 21
96.44969971652301
 31
0.0
 11
-175.6424002377217
 21
96.44641609456686
 31
0.0
 11
-175.6424002377217
 21
96.44329485859406
 31
0.0
 11
-175.6424002377205
 21
96.44033600860512
 31
0.0
  0
SPLINE
  5
15B
330
7B
100
AcDbEntity
  8
0
  6
Continuous
 62
    20
100
AcDbSpline
210
0.0
220
0.0
230
1.0
 70
  1064
 71
     3
 72
    42
 73
    38
 74
    36
 42
0.0000000001
 43
0.0000000001
 44
0.0000000001
 12
-2.433053352119451E-10
 22
-1.0
 32
0.0
 13
0.0
 23
-1.0
 33
0.0
 40
0.0
 40
0.0
 40
0.0
 40
0.0
 40
0.0001653525709031
 40
0.0005633051787015
 40
0.0011973164806847
 40
0.0020712214449929
 40
0.0031818742837117
 40
0.0045222159282758
 40
0.0060919823723964
 40
0.007891173616116
 40
0.0099184991436232
 40
0.0121607425611785
 40
0.0146144377972632
 40
0.017279584851849
 40
0.0201561837248789
 40
0.023231637826143
 40
0.0264924470872216
 40
0.0299386074940031
 40
0.0335701190464874
 40
0.0373812778851743
 40
0.041347411728907
 40
0.0454656729458236
 40
0.0497360615359526
 40
0.0541578761668831
 40
0.0587055818042046
 40
0.0633663450598192
 40
0.0681401659337553
 40
0.0730270444259986
 40
0.0780133276680033
 40
0.0830701755449041
 40
0.0881966575935564
 40
0.0933927738139744
 40
0.0986551254198531
 40
0.1039517457848262
 40
0.1092747606882085
 40
0.1146241775530541
 40
0.1200000000000045
 40
0.1200000000000045
 40
0.1200000000000045
 40
0.1200000000000045
 10
-175.6424002377217
 20
98.95897501108448
 30
0.0
 10
-175.6424002377217
 20
98.95891989356085
 30
0.0
 10
-175.6424002377217
 20
98.95873212516797
 30
0.0
 10
-175.6424002377217
 20
98.95833301967436
 30
0.0
 10
-175.6424002377217
 20
98.95769773004969
 30
0.0
 10
-175.6424002377216
 20
98.95682487368131
 30
0.0
 10
-175.6424002377217
 20
98.9557165738655
 30
0.0
 10
-175.6424002377217
 20
98.954376320223
 30
0.0
 10
-175.6424002377217
 20
98.95280655377888
 30
0.0
 10
-175.6424002377217
 20
98.9510077927071
 30
0.0
 10
-175.6424002377219
 20
98.94898487264416
 30
0.0
 10
-175.6424002377216
 20
98.94674378458377
 30
0.0
 10
-175.6424002377217
 20
98.94429008934775
 30
0.0
 10
-175.6424002377216
 20
98.94162494229312
 30
0.0
 10
-175.6424002377217
 20
98.93875254228351
 30
0.0
 10
-175.6424002377217
 20
98.93568158820506
 30
0.0
 10
-175.6424002377217
 20
98.93242078028203
 30
0.0
 10
-175.6424002377217
 20
98.92897461987525
 30
0.0
 10
-175.6424002377217
 20
98.92534500960925
 30
0.0
 10
-175.6424002377217
 20
98.9215420748643
 30
0.0
 10
-175.6424002377217
 20
98.91757689023117
 30
0.0
 10
-175.6424002377217
 20
98.91345862901423
 30
0.0
 10
-175.6424002377217
 20
98.90918847420161
 30
0.0
 10
-175.6424002377217
 20
98.90477517124879
 30
0.0
 10
-175.6424002377217
 20
98.9002317434075
 30
0.0
 10
-175.6424002377217
 20
98.89557098015187
 30
0.0
 10
-175.6424002377217
 20
98.890797159278
 30
0.0
 10
-175.6424002377216
 20
98.88591483174187
 30
0.0
 10
-175.6424002377217
 20
98.88093816187154
 30
0.0
 10
-175.6424002377217
 20
98.87588162414896
 30
0.0
 10
-175.6424002377217
 20
98.87075514210035
 30
0.0
 10
-175.6424002377217
 20
98.86556015880868
 30
0.0
 10
-175.6424002377217
 20
98.86030846274494
 30
0.0
 10
-175.6424002377216
 20
98.85501446712017
 30
0.0
 10
-175.6424002377217
 20
98.84969144974242
 30
0.0
 10
-175.6424002377217
 20
98.84434203167078
 30
0.0
 10
-175.6424002377217
 20
98.84076695190012
 30
0.0
 10
-175.6424002377217
 20
98.83897501108447
 30
0.0
 11
-175.6424002377217
 21
98.95897501108448
 31
0.0
 11
-175.6424002377217
 21
98.95880965851357
 31
0.0
 11
-175.6424002377217
 21
98.95841170590577
 31
0.0
 11
-175.6424002377217
 21
98.95777769460379
 31
0.0
 11
-175.6424002377217
 21
98.95690378963948
 31
0.0
 11
-175.6424002377217
 21
98.95579313680076
 31
0.0
 11
-175.6424002377217
 21
98.9544527951562
 31
0.0
 11
-175.6424002377217
 21
98.95288302871208
 31
0.0
 11
-175.6424002377217
 21
98.95108383746836
 31
0.0
 11
-175.6424002377218
 21
98.94905651194085
 31
0.0
 11
-175.6424002377217
 21
98.9468142685233
 31
0.0
 11
-175.6424002377217
 21
98.94436057328721
 31
0.0
 11
-175.6424002377217
 21
98.94169542623263
 31
0.0
 11
-175.6424002377217
 21
98.9388188273596
 31
0.0
 11
-175.6424002377217
 21
98.93574337325833
 31
0.0
 11
-175.6424002377217
 21
98.93248256399725
 31
0.0
 11
-175.6424002377217
 21
98.92903640359047
 31
0.0
 11
-175.6424002377217
 21
98.92540489203799
 31
0.0
 11
-175.6424002377217
 21
98.9215937331993
 31
0.0
 11
-175.6424002377217
 21
98.91762759935557
 31
0.0
 11
-175.6424002377217
 21
98.91350933813865
 31
0.0
 11
-175.6424002377217
 21
98.90923894954852
 31
0.0
 11
-175.6424002377217
 21
98.9048171349176
 31
0.0
 11
-175.6424002377217
 21
98.90026942928027
 31
0.0
 11
-175.6424002377217
 21
98.89560866602466
 31
0.0
 11
-175.6424002377217
 21
98.89083484515072
 31
0.0
 11
-175.6424002377217
 21
98.88594796665848
 31
0.0
 11
-175.6424002377217
 21
98.88096168341647
 31
0.0
 11
-175.6424002377217
 21
98.87590483553957
 31
0.0
 11
-175.6424002377217
 21
98.87077835349092
 31
0.0
 11
-175.6424002377217
 21
98.8655822372705
 31
0.0
 11
-175.6424002377217
 21
98.86031988566462
 31
0.0
 11
-175.6424002377217
 21
98.85502326529965
 31
0.0
 11
-175.6424002377217
 21
98.84970025039627
 31
0.0
 11
-175.6424002377217
 21
98.84435083353142
 31
0.0
 11
-175.6424002377217
 21
98.83897501108447
 31
0.0
  0
SPLINE
  5
15C
330
7B
100
AcDbEntity
  8
0
  6
Continuous
 62
    20
100
AcDbSpline
210
0.0
220
0.0
230
1.0
 70
  1080
 71
     3
 72
    18
 73
    14
 74
    12
 42
0.0000000001
 43
0.0000000001
 44
0.0000000001
 12
0.0
 22
-1.0
 32
0.0
 13
1.025393935598286E-27
 23
-1.0
 33
0.0
 40
0.0
 40
0.0
 40
0.0
 40
0.0
 40
0.0031190108650208
 40
0.0062389727743977
 40
0.0093587457883615
 40
0.0124771881588117
 40
0.0155931577187403
 40
0.0187055132752221
 40
0.0218131160015247
 40
0.0249148308261056
 40
0.0280095278137651
 40
0.0310960835359566
 40
0.0341733824270136
 40
0.0341733824270136
 40
0.0341733824270136
 40
0.0341733824270136
 10
-175.6124002377058
 20
77.85183288454448
 30
0.0
 10
-175.6124002377058
 20
77.85079321425614
 30
0.0
 10
-175.6124002377058
 20
77.84871355666468
 30
0.0
 10
-175.6124002377057
 20
77.84559397473521
 30
0.0
 10
-175.6124002377058
 20
77.84247458230396
 30
0.0
 10
-175.6124002377058
 20
77.83935652065584
 30
0.0
 10
-175.6124002377057
 20
77.83624093149358
 30
0.0
 10
-175.6124002377058
 20
77.83312895554597
 30
0.0
 10
-175.6124002377058
 20
77.83002173117687
 30
0.0
 10
-175.6124002377057
 20
77.82692039299732
 30
0.0
 10
-175.6124002377058
 20
77.8238260704859
 30
0.0
 10
-175.6124002377057
 20
77.82073988661888
 30
0.0
 10
-175.6124002377058
 20
77.81868526841448
 30
0.0
 10
-175.6124002377058
 20
77.81765950211746
 30
0.0
 11
-175.6124002377058
 21
77.85183288454448
 31
0.0
 11
-175.6124002377058
 21
77.84871387367946
 31
0.0
 11
-175.6124002377058
 21
77.84559391177008
 31
0.0
 11
-175.6124002377058
 21
77.84247413875612
 31
0.0
 11
-175.6124002377058
 21
77.83935569638567
 31
0.0
 11
-175.6124002377058
 21
77.83623972682574
 31
0.0
 11
-175.6124002377058
 21
77.83312737126926
 31
0.0
 11
-175.6124002377058
 21
77.83001976854295
 31
0.0
 11
-175.6124002377058
 21
77.82691805371837
 31
0.0
 11
-175.6124002377058
 21
77.82382335673071
 31
0.0
 11
-175.6124002377058
 21
77.82073680100852
 31
0.0
 11
-175.6124002377058
 21
77.81765950211746
 31
0.0
  0
SPLINE
  5
15D
330
7B
100
AcDbEntity
  8
0
  6
Continuous
 62
    20
100
AcDbSpline
210
0.0
220
0.0
230
1.0
 70
  1080
 71
     3
 72
    18
 73
    14
 74
    12
 42
0.0000000001
 43
0.0000000001
 44
0.0000000001
 12
0.0
 22
1.0
 32
0.0
 13
3.411169848931528E-12
 23
1.0
 33
0.0
 40
0.0
 40
0.0
 40
0.0
 40
0.0
 40
0.0010876203102157
 40
0.0045303056006105
 40
0.0105246014492053
 40
0.0191263944861788
 40
0.0302206818582249
 40
0.0435152406147949
 40
0.0585634338230392
 40
0.0748131410155111
 40
0.0916709141607157
 40
0.108566566170623
 40
0.1250050004783105
 40
0.1250050004783105
 40
0.1250050004783105
 40
0.1250050004783105
 10
-175.6124002377083
 20
76.66397000936621
 30
0.0
 10
-175.6124002377083
 20
76.66433254946962
 30
0.0
 10
-175.6124002377084
 20
76.6658426513365
 30
0.0
 10
-175.6124002377083
 20
76.66935085181957
 30
0.0
 10
-175.6124002377083
 20
76.67536377654487
 30
0.0
 10
-175.6124002377083
 20
76.68392723529739
 30
0.0
 10
-175.6124002377083
 20
76.69492411501929
 30
0.0
 10
-175.6124002377081
 20
76.70806979479822
 30
0.0
 10
-175.6124002377084
 20
76.72293394785066
 30
0.0
 10
-175.6124002377083
 20
76.73898583903265
 30
0.0
 10
-175.6124002377084
 20
76.75565354981518
 30
0.0
 10
-175.6124002377083
 20
76.7723841696361
 30
0.0
 10
-175.6124002377083
 20
76.78349553174196
 30
0.0
 10
-175.6124002377083
 20
76.78897500984452
 30
0.0
 11
-175.6124002377083
 21
76.66397000936621
 31
0.0
 11
-175.6124002377083
 21
76.66505762967643
 31
0.0
 11
-175.6124002377083
 21
76.66850031496682
 31
0.0
 11
-175.6124002377083
 21
76.67449461081542
 31
0.0
 11
-175.6124002377083
 21
76.68309640385239
 31
0.0
 11
-175.6124002377083
 21
76.69419069122443
 31
0.0
 11
-175.6124002377082
 21
76.707485249981
 31
0.0
 11
-175.6124002377083
 21
76.72253344318925
 31
0.0
 11
-175.6124002377083
 21
76.73878315038172
 31
0.0
 11
-175.6124002377083
 21
76.75564092352693
 31
0.0
 11
-175.6124002377083
 21
76.77253657553683
 31
0.0
 11
-175.6124002377083
 21
76.78897500984452
 31
0.0
  0
SPLINE
  5
15E
330
7B
100
AcDbEntity
  8
0
  6
Continuous
 62
    20
100
AcDbSpline
210
0.0
220
0.0
230
1.0
 70
  1064
 71
     3
 72
    18
 73
    14
 74
    12
 42
0.0000000001
 43
0.0000000001
 44
0.0000000001
 12
0.9999998307397894
 22
0.0005818250534385208
 32
0.0
 13
0.0005818274325290148
 23
0.999999830738405
 33
0.0
 40
0.0
 40
0.0
 40
0.0
 40
0.0
 40
0.0032948668281518
 40
0.0067434142426873
 40
0.0103217489959619
 40
0.0139989186519257
 40
0.0177380465826713
 40
0.0214982925495787
 40
0.0252374204822835
 40
0.0289145901416348
 40
0.0324929248991274
 40
0.0359414723172012
 40
0.0392363391475846
 40
0.0392363391475846
 40
0.0392363391475846
 40
0.0392363391475846
 10
-175.6374002376938
 20
76.63897500987463
 30
0.0
 10
-175.6363019489369
 20
76.63897564888666
 30
0.0
 10
-175.6340513925606
 20
76.63912323874311
 30
0.0
 10
-175.630669753506
 20
76.63981242317418
 30
0.0
 10
-175.6272961920322
 20
76.641011552323
 30
0.0
 10
-175.6240453571522
 20
76.64273223103132
 30
0.0
 10
-175.6210353992321
 20
76.64495119623824
 30
0.0
 10
-175.6183764240836
 20
76.64761017138997
 30
0.0
 10
-175.6161574588784
 20
76.65062012931328
 30
0.0
 10
-175.61443678017
 20
76.65387096419693
 30
0.0
 10
-175.6132376510191
 20
76.65724452567365
 30
0.0
 10
-175.6125484665839
 20
76.66062616473073
 30
0.0
 10
-175.6124008767229
 20
76.66287672110863
 30
0.0
 10
-175.6124002377083
 20
76.66397500986619
 30
0.0
 11
-175.6374002376938
 21
76.63897500987463
 31
0.0
 11
-175.6341125325609
 21
76.63919213282276
 31
0.0
 11
-175.6307333554819
 21
76.63988034902337
 31
0.0
 11
-175.6273617409856
 21
76.64107897127212
 31
0.0
 11
-175.6241117449772
 21
76.64279917551113
 31
0.0
 11
-175.6211020772849
 21
76.64501795401844
 31
0.0
 11
-175.6184431818642
 21
76.647676849442
 31
0.0
 11
-175.6162244033583
 21
76.65068651713777
 31
0.0
 11
-175.614504199119
 21
76.65393651314986
 31
0.0
 11
-175.6133055768678
 21
76.65730812764974
 31
0.0
 11
-175.612617360663
 21
76.66068730473152
 31
0.0
 11
-175.6124002377083
 21
76.66397500986619
 31
0.0
  0
SPLINE
  5
15F
330
7B
100
AcDbEntity
  8
0
  6
Continuous
 62
    20
100
AcDbSpline
210
0.0
220
0.0
230
1.0
 70
  1080
 71
     3
 72
    18
 73
    14
 74
    12
 42
0.0000000001
 43
0.0000000001
 44
0.0000000001
 12
-5.693362946676188E-12
 22
-1.0
 32
0.0
 13
5.615930899957818E-11
 23
-1.0
 33
0.0
 40
0.0
 40
0.0
 40
0.0
 40
0.0
 40
0.0196978731675586
 40
0.0399441496812187
 40
0.0601472489807833
 40
0.0796257833767413
 40
0.0976702652426411
 40
0.1136200638136984
 40
0.1269399528474651
 40
0.1372786515207736
 40
0.1444963395526315
 40
0.1486574678448704
 40
0.1499949999999899
 40
0.1499949999999899
 40
0.1499949999999899
 40
0.1499949999999899
 10
-175.6374002376938
 20
76.78897500984452
 30
0.0
 10
-175.6374002376939
 20
76.782409052122
 30
0.0
 10
-175.6374002376938
 20
76.76909433556158
 30
0.0
 10
-175.6374002376939
 20
76.74904525256801
 30
0.0
 10
-175.6374002376937
 20
76.72906928249827
 30
0.0
 10
-175.6374002376939
 20
76.70982724397781
 30
0.0
 10
-175.6374002376938
 20
76.69200297236681
 30
0.0
 10
-175.6374002376939
 20
76.67623158254327
 30
0.0
 10
-175.6374002376937
 20
76.66302878711721
 30
0.0
 10
-175.6374002376937
 20
76.65273669520423
 30
0.0
 10
-175.6374002376938
 20
76.64549752353842
 30
0.0
 10
-175.6374002376937
 20
76.641258740712
 30
0.0
 10
-175.6374002376938
 20
76.63942585389624
 30
0.0
 10
-175.6374002376938
 20
76.63898000984453
 30
0.0
 11
-175.6374002376938
 21
76.78897500984452
 31
0.0
 11
-175.6374002376938
 21
76.76927713667696
 31
0.0
 11
-175.6374002376938
 21
76.7490308601633
 31
0.0
 11
-175.6374002376938
 21
76.72882776086374
 31
0.0
 11
-175.6374002376938
 21
76.70934922646778
 31
0.0
 11
-175.6374002376938
 21
76.69130474460188
 31
0.0
 11
-175.6374002376938
 21
76.67535494603082
 31
0.0
 11
-175.6374002376938
 21
76.66203505699706
 31
0.0
 11
-175.6374002376938
 21
76.65169635832375
 31
0.0
 11
-175.6374002376938
 21
76.64447867029189
 31
0.0
 11
-175.6374002376938
 21
76.64031754199965
 31
0.0
 11
-175.6374002376938
 21
76.63898000984453
 31
0.0
  0
SPLINE
  5
160
330
7B
100
AcDbEntity
  8
0
  6
Continuous
 62
    20
100
AcDbSpline
210
0.0
220
0.0
230
1.0
 70
  1080
 71
     3
 72
    18
 73
    14
 74
    12
 42
0.0000000001
 43
0.0000000001
 44
0.0000000001
 12
-1.0
 22
-8.545249194136131E-11
 32
0.0
 13
-1.0
 23
4.798987723845836E-28
 33
0.0
 40
0.0
 40
0.0
 40
0.0
 40
0.0
 40
0.0002191285155391
 40
0.0009089490013139
 40
0.0021087558525323
 40
0.0038297319302671
 40
0.0060489052687558
 40
0.008707882326064
 40
0.0117174047456672
 40
0.0149671278840344
 40
0.0183384430249305
 40
0.0217173867036706
 40
0.0250050004698039
 40
0.0250050004698039
 40
0.0250050004698039
 40
0.0250050004698039
 10
-175.612395237224
 20
76.78897500984452
 30
0.0
 10
-175.6124682800626
 20
76.78897500984452
 30
0.0
 10
-175.612771263063
 20
76.78897500984452
 30
0.0
 10
-175.6134741816805
 20
76.78897500984453
 30
0.0
 10
-175.6146777161521
 20
76.78897500984446
 30
0.0
 10
-175.6163910349078
 20
76.78897500984445
 30
0.0
 10
-175.6185907437325
 20
76.78897500984458
 30
0.0
 10
-175.6212199680042
 20
76.78897500984452
 30
0.0
 10
-175.624192708876
 20
76.78897500984446
 30
0.0
 10
-175.6274028957755
 20
76.78897500984453
 30
0.0
 10
-175.6307362230949
 20
76.7889750098445
 30
0.0
 10
-175.6340821806235
 20
76.78897500984453
 30
0.0
 10
-175.6363043664385
 20
76.78897500984448
 30
0.0
 10
-175.6374002376938
 20
76.78897500984448
 30
0.0
 11
-175.612395237224
 21
76.78897500984452
 31
0.0
 11
-175.6126143657396
 21
76.78897500984452
 31
0.0
 11
-175.6133041862253
 21
76.78897500984453
 31
0.0
 11
-175.6145039930766
 21
76.78897500984448
 31
0.0
 11
-175.6162249691543
 21
76.78897500984448
 31
0.0
 11
-175.6184441424928
 21
76.78897500984453
 31
0.0
 11
-175.6211031195501
 21
76.78897500984452
 31
0.0
 11
-175.6241126419697
 21
76.78897500984448
 31
0.0
 11
-175.6273623651081
 21
76.78897500984452
 31
0.0
 11
-175.630733680249
 21
76.78897500984452
 31
0.0
 11
-175.6341126239277
 21
76.78897500984452
 31
0.0
 11
-175.6374002376938
 21
76.78897500984448
 31
0.0
  0
SPLINE
  5
161
330
7B
100
AcDbEntity
  8
0
  6
Continuous
 62
    20
100
AcDbSpline
210
0.0
220
0.0
230
1.0
 70
  1080
 71
     3
 72
    18
 73
    14
 74
    12
 42
0.0000000001
 43
0.0000000001
 44
0.0000000001
 12
2.080441063011643E-12
 22
-1.0
 32
0.0
 13
1.677807173968974E-12
 23
-1.0
 33
0.0
 40
0.0
 40
0.0
 40
0.0
 40
0.0
 40
0.0267375292179395
 40
0.054671739482103
 40
0.0837177415805854
 40
0.1137810153577021
 40
0.1447583921699476
 40
0.1765392145909459
 40
0.2090066465617042
 40
0.2420391016410832
 40
0.2755117528249258
 40
0.309298084811644
 40
0.3432714487264548
 40
0.3432714487264548
 40
0.3432714487264548
 40
0.3432714487264548
 10
-175.6124002377058
 20
78.40356196634798
 30
0.0
 10
-175.6124002377057
 20
78.39464945660866
 30
0.0
 10
-175.6124002377059
 20
78.37642554344797
 30
0.0
 10
-175.6124002377057
 20
78.34851962958777
 30
0.0
 10
-175.6124002377058
 20
78.31950513420786
 30
0.0
 10
-175.6124002377058
 20
78.28947624997858
 30
0.0
 10
-175.6124002377058
 20
78.25853575897513
 30
0.0
 10
-175.6124002377057
 20
78.2267938819071
 30
0.0
 10
-175.6124002377058
 20
78.19436697875008
 30
0.0
 10
-175.6124002377058
 20
78.16137613267206
 30
0.0
 10
-175.6124002377058
 20
78.12794565325544
 30
0.0
 10
-175.6124002377057
 20
78.0942015375603
 30
0.0
 10
-175.6124002377058
 20
78.0716149722598
 30
0.0
 10
-175.6124002377058
 20
78.06029051762152
 30
0.0
 11
-175.6124002377058
 21
78.40356196634798
 31
0.0
 11
-175.6124002377058
 21
78.37682443713004
 31
0.0
 11
-175.6124002377058
 21
78.34889022686588
 31
0.0
 11
-175.6124002377058
 21
78.3198442247674
 31
0.0
 11
-175.6124002377058
 21
78.28978095099028
 31
0.0
 11
-175.6124002377058
 21
78.25880357417803
 31
0.0
 11
-175.6124002377058
 21
78.22702275175703
 31
0.0
 11
-175.6124002377058
 21
78.19455531978628
 31
0.0
 11
-175.6124002377058
 21
78.1615228647069
 31
0.0
 11
-175.6124002377058
 21
78.12805021352305
 31
0.0
 11
-175.6124002377058
 21
78.09426388153634
 31
0.0
 11
-175.6124002377058
 21
78.06029051762152
 31
0.0
  0
SPLINE
  5
162
330
7B
100
AcDbEntity
  8
0
  6
Continuous
 62
    20
100
AcDbSpline
210
0.0
220
0.0
230
1.0
 70
  1080
 71
     3
 72
    42
 73
    38
 74
    36
 42
0.0000000001
 43
0.0000000001
 44
0.0000000001
 12
-1.0
 22
0.0
 32
0.0
 13
-1.0
 23
6.928910153499519E-28
 33
0.0
 40
0.0
 40
0.0
 40
0.0
 40
0.0
 40
0.0000992926416075
 40
0.0004162483913035
 40
0.0009497700271766
 40
0.0016974719428617
 40
0.0026592713464026
 40
0.0038351682381119
 40
0.0052221562406771
 40
0.0068111085283817
 40
0.0086013977967809
 40
0.0105930240458179
 40
0.012782456577213
 40
0.015154556521594
 40
0.0177075958658861
 40
0.0204415746097766
 40
0.0233532050538088
 40
0.026421976540405
 40
0.0296443364622974
 40
0.0330202848192016
 40
0.0365472634126434
 40
0.0402007183234616
 40
0.0439745083620267
 40
0.0478686335285659
 40
0.0518814547232012
 40
0.0559861681176699
 40
0.0601733389569574
 40
0.0644429672412059
 40
0.0687942633346097
 40
0.0732002256687281
 40
0.0776475884433125
 40
0.082136351658562
 40
0.0866663261737699
 40
0.0912143640621252
 40
0.0957644648877078
 40
0.1003165576216816
 40
0.1048705835088128
 40
0.1048705835088128
 40
0.1048705835088128
 40
0.1048705835088128
 10
-175.5472333208975
 20
77.61397500984452
 30
0.0
 10
-175.5472664184447
 20
77.61397500984452
 30
0.0
 10
-175.5474051679085
 20
77.61397500984452
 30
0.0
 10
-175.5477217579175
 20
77.61397500984452
 30
0.0
 10
-175.5482544843513
 20
77.61397500984452
 30
0.0
 10
-175.5490021586697
 20
77.61397500984455
 30
0.0
 10
-175.5499639580733
 20
77.61397500984451
 30
0.0
 10
-175.5511388528392
 20
77.61397500984452
 30
0.0
 10
-175.5525227985666
 20
77.61397500984451
 30
0.0
 10
-175.5541115417528
 20
77.6139750098445
 30
0.0
 10
-175.5559018310212
 20
77.61397500984452
 30
0.0
 10
-175.5578922803708
 20
77.61397500984454
 30
0.0
 10
-175.5600766666124
 20
77.61397500984451
 30
0.0
 10
-175.5624481905524
 20
77.61397500984452
 30
0.0
 10
-175.5650012298966
 20
77.61397500984452
 30
0.0
 10
-175.5677341127406
 20
77.61397500984452
 30
0.0
 10
-175.5706389062989
 20
77.61397500984452
 30
0.0
 10
-175.573706493583
 20
77.61397500984454
 30
0.0
 10
-175.5769288535048
 20
77.61397500984451
 30
0.0
 10
-175.5803039491289
 20
77.61397500984452
 30
0.0
 10
-175.5838227430826
 20
77.61397500984452
 30
0.0
 10
-175.5874741509303
 20
77.61397500984452
 30
0.0
 10
-175.5912479409688
 20
77.61397500984451
 30
0.0
 10
-175.5951415197688
 20
77.61397500984455
 30
0.0
 10
-175.599145406354
 20
77.61397500984451
 30
0.0
 10
-175.6032469748301
 20
77.61397500984452
 30
0.0
 10
-175.6074341456694
 20
77.6139750098445
 30
0.0
 10
-175.6117035107418
 20
77.61397500984452
 30
0.0
 10
-175.6160458063123
 20
77.61397500984452
 30
0.0
 10
-175.620447346713
 20
77.61397500984452
 30
0.0
 10
-175.6248947094876
 20
77.61397500984451
 30
0.0
 10
-175.6293834096561
 20
77.61397500984454
 30
0.0
 10
-175.6339056681957
 20
77.61397500984452
 30
0.0
 10
-175.6384483726054
 20
77.61397500984452
 30
0.0
 10
-175.6429984497547
 20
77.61397500984451
 30
0.0
 10
-175.6475505229035
 20
77.61397500984451
 30
0.0
 10
-175.6505858957773
 20
77.61397500984452
 30
0.0
 10
-175.6521039044063
 20
77.61397500984452
 30
0.0
 11
-175.5472333208975
 21
77.61397500984452
 31
0.0
 11
-175.5473326135391
 21
77.61397500984452
 31
0.0
 11
-175.5476495692888
 21
77.61397500984452
 31
0.0
 11
-175.5481830909247
 21
77.61397500984452
 31
0.0
 11
-175.5489307928404
 21
77.61397500984452
 31
0.0
 11
-175.5498925922439
 21
77.61397500984452
 31
0.0
 11
-175.5510684891356
 21
77.61397500984452
 31
0.0
 11
-175.5524554771382
 21
77.61397500984451
 31
0.0
 11
-175.5540444294259
 21
77.61397500984451
 31
0.0
 11
-175.5558347186943
 21
77.61397500984452
 31
0.0
 11
-175.5578263449433
 21
77.61397500984452
 31
0.0
 11
-175.5600157774747
 21
77.61397500984452
 31
0.0
 11
-175.5623878774191
 21
77.61397500984452
 31
0.0
 11
-175.5649409167634
 21
77.61397500984452
 31
0.0
 11
-175.5676748955073
 21
77.61397500984452
 31
0.0
 11
-175.5705865259513
 21
77.61397500984452
 31
0.0
 11
-175.5736552974379
 21
77.61397500984452
 31
0.0
 11
-175.5768776573598
 21
77.61397500984452
 31
0.0
 11
-175.5802536057167
 21
77.61397500984452
 31
0.0
 11
-175.5837805843101
 21
77.61397500984452
 31
0.0
 11
-175.587434039221
 21
77.61397500984451
 31
0.0
 11
-175.5912078292595
 21
77.61397500984452
 31
0.0
 11
-175.5951019544261
 21
77.61397500984452
 31
0.0
 11
-175.5991147756207
 21
77.61397500984452
 31
0.0
 11
-175.6032194890152
 21
77.61397500984452
 31
0.0
 11
-175.6074066598545
 21
77.61397500984452
 31
0.0
 11
-175.6116762881387
 21
77.61397500984452
 31
0.0
 11
-175.6160275842321
 21
77.61397500984452
 31
0.0
 11
-175.6204335465662
 21
77.61397500984452
 31
0.0
 11
-175.6248809093408
 21
77.61397500984452
 31
0.0
 11
-175.6293696725561
 21
77.61397500984452
 31
0.0
 11
-175.6338996470713
 21
77.61397500984452
 31
0.0
 11
-175.6384476849596
 21
77.61397500984452
 31
0.0
 11
-175.6429977857852
 21
77.61397500984451
 31
0.0
 11
-175.6475498785192
 21
77.61397500984451
 31
0.0
 11
-175.6521039044063
 21
77.61397500984452
 31
0.0
  0
SPLINE
  5
163
330
7B
100
AcDbEntity
  8
0
  6
Continuous
 62
    20
100
AcDbSpline
210
0.0
220
0.0
230
1.0
 70
  1080
 71
     3
 72
    18
 73
    14
 74
    12
 42
0.0000000001
 43
0.0000000001
 44
0.0000000001
 12
0.0
 22
-1.0
 32
0.0
 13
7.375970483158139E-30
 23
-1.0
 33
0.0
 40
0.0
 40
0.0
 40
0.0
 40
0.0
 40
0.0339733639255968
 40
0.067759695921481
 40
0.1012323471130543
 40
0.1342648021987856
 40
0.1667322341746598
 40
0.198513056599495
 40
0.2294904334146821
 40
0.2595537071937883
 40
0.2885997092935639
 40
0.3165339195583527
 40
0.3432714487764201
 40
0.3432714487764201
 40
0.3432714487764201
 40
0.3432714487764201
 10
-175.6124002377058
 20
77.81765950211751
 30
0.0
 10
-175.6124002377058
 20
77.80633504747564
 30
0.0
 10
-175.6124002377058
 20
77.78374848216849
 30
0.0
 10
-175.6124002377057
 20
77.75000436646411
 30
0.0
 10
-175.6124002377058
 20
77.71657388703974
 30
0.0
 10
-175.6124002377057
 20
77.68358304095533
 30
0.0
 10
-175.6124002377058
 20
77.6511561377932
 30
0.0
 10
-175.6124002377058
 20
77.61941426072123
 30
0.0
 10
-175.6124002377057
 20
77.58847376971485
 30
0.0
 10
-175.6124002377058
 20
77.5584448854835
 30
0.0
 10
-175.6124002377057
 20
77.52943039010228
 30
0.0
 10
-175.6124002377058
 20
77.5015244762414
 30
0.0
 10
-175.6124002377058
 20
77.48330056308045
 30
0.0
 10
-175.6124002377058
 20
77.47438805334109
 30
0.0
 11
-175.6124002377058
 21
77.81765950211751
 31
0.0
 11
-175.6124002377058
 21
77.78368613819191
 31
0.0
 11
-175.6124002377058
 21
77.74989980619603
 31
0.0
 11
-175.6124002377058
 21
77.71642715500445
 31
0.0
 11
-175.6124002377058
 21
77.68339469991872
 31
0.0
 11
-175.6124002377058
 21
77.65092726794285
 31
0.0
 11
-175.6124002377058
 21
77.61914644551801
 31
0.0
 11
-175.6124002377058
 21
77.58816906870283
 31
0.0
 11
-175.6124002377058
 21
77.55810579492372
 31
0.0
 11
-175.6124002377058
 21
77.52905979282394
 31
0.0
 11
-175.6124002377058
 21
77.50112558255915
 31
0.0
 11
-175.6124002377058
 21
77.47438805334109
 31
0.0
  0
SPLINE
  5
164
330
7B
100
AcDbEntity
  8
0
  6
Continuous
 62
    20
100
AcDbSpline
210
0.0
220
0.0
230
1.0
 70
  1080
 71
     3
 72
    18
 73
    14
 74
    12
 42
0.0000000001
 43
0.0000000001
 44
0.0000000001
 12
2.080441063011643E-12
 22
-1.0
 32
0.0
 13
0.0
 23
-1.0
 33
0.0
 40
0.0
 40
0.0
 40
0.0
 40
0.0
 40
0.0267375292178968
 40
0.0546717394820604
 40
0.0837177415805428
 40
0.1137810153576453
 40
0.1447583921699476
 40
0.1765392145909033
 40
0.2090066465616616
 40
0.2420391016410832
 40
0.2755117528249258
 40
0.309298084811644
 40
0.3432714487265116
 40
0.3432714487265116
 40
0.3432714487265116
 40
0.3432714487265116
 10
-175.6124002377058
 20
98.15356196634798
 30
0.0
 10
-175.6124002377057
 20
98.14464945660868
 30
0.0
 10
-175.6124002377058
 20
98.126425543448
 30
0.0
 10
-175.6124002377058
 20
98.09851962958781
 30
0.0
 10
-175.6124002377057
 20
98.06950513420787
 30
0.0
 10
-175.6124002377057
 20
98.0394762499786
 30
0.0
 10
-175.6124002377058
 20
98.00853575897514
 30
0.0
 10
-175.6124002377057
 20
97.97679388190713
 30
0.0
 10
-175.6124002377058
 20
97.94436697875011
 30
0.0
 10
-175.6124002377057
 20
97.91137613267207
 30
0.0
 10
-175.6124002377057
 20
97.87794565325541
 30
0.0
 10
-175.6124002377057
 20
97.84420153756028
 30
0.0
 10
-175.6124002377058
 20
97.82161497225975
 30
0.0
 10
-175.6124002377058
 20
97.81029051762147
 30
0.0
 11
-175.6124002377058
 21
98.15356196634798
 31
0.0
 11
-175.6124002377058
 21
98.12682443713008
 31
0.0
 11
-175.6124002377058
 21
98.09889022686592
 31
0.0
 11
-175.6124002377058
 21
98.06984422476744
 31
0.0
 11
-175.6124002377058
 21
98.03978095099033
 31
0.0
 11
-175.6124002377058
 21
98.00880357417803
 31
0.0
 11
-175.6124002377058
 21
97.97702275175708
 31
0.0
 11
-175.6124002377058
 21
97.94455531978632
 31
0.0
 11
-175.6124002377058
 21
97.9115228647069
 31
0.0
 11
-175.6124002377058
 21
97.87805021352305
 31
0.0
 11
-175.6124002377058
 21
97.84426388153634
 31
0.0
 11
-175.6124002377058
 21
97.81029051762147
 31
0.0
  0
SPLINE
  5
165
330
7B
100
AcDbEntity
  8
0
  6
Continuous
 62
    20
100
AcDbSpline
210
0.0
220
0.0
230
1.0
 70
  1080
 71
     3
 72
    18
 73
    14
 74
    12
 42
0.0000000001
 43
0.0000000001
 44
0.0000000001
 12
-1.844415563006739E-11
 22
-1.0
 32
0.0
 13
1.822204462401627E-11
 23
-1.0
 33
0.0
 40
0.0
 40
0.0
 40
0.0
 40
0.0
 40
0.003077298901772
 40
0.0061638546328169
 40
0.0092585516276387
 40
0.0123602664579607
 40
0.0154678691887398
 40
0.0185802247485896
 40
0.0216961943111897
 40
0.0248146366836863
 40
0.0279344096993128
 40
0.0310543716103098
 40
0.0341733824769932
 40
0.0341733824769932
 40
0.0341733824769932
 40
0.0341733824769932
 10
-175.6124002377058
 20
97.81029051762147
 30
0.0
 10
-175.6124002377058
 20
97.80926475132088
 30
0.0
 10
-175.6124002377057
 20
97.80721013310993
 30
0.0
 10
-175.6124002377058
 20
97.80412394923407
 30
0.0
 10
-175.6124002377056
 20
97.80102962671532
 30
0.0
 10
-175.6124002377058
 20
97.79792828853002
 30
0.0
 10
-175.6124002377058
 20
97.79482106415635
 30
0.0
 10
-175.6124002377058
 20
97.79170908820528
 30
0.0
 10
-175.6124002377058
 20
97.78859349904032
 30
0.0
 10
-175.6124002377058
 20
97.78547543739008
 30
0.0
 10
-175.6124002377058
 20
97.78235604495703
 30
0.0
 10
-175.6124002377057
 20
97.77923646302594
 30
0.0
 10
-175.6124002377058
 20
97.77715680543336
 30
0.0
 10
-175.6124002377058
 20
97.77611713514447
 30
0.0
 11
-175.6124002377058
 21
97.81029051762147
 31
0.0
 11
-175.6124002377058
 21
97.8072132187197
 31
0.0
 11
-175.6124002377058
 21
97.80412666298865
 31
0.0
 11
-175.6124002377057
 21
97.80103196599383
 31
0.0
 11
-175.6124002377058
 21
97.7979302511635
 31
0.0
 11
-175.6124002377058
 21
97.79482264843273
 31
0.0
 11
-175.6124002377058
 21
97.79171029287288
 31
0.0
 11
-175.6124002377058
 21
97.78859432331028
 31
0.0
 11
-175.6124002377058
 21
97.78547588093778
 31
0.0
 11
-175.6124002377058
 21
97.78235610792215
 31
0.0
 11
-175.6124002377058
 21
97.77923614601116
 31
0.0
 11
-175.6124002377058
 21
97.77611713514447
 31
0.0
  0
SPLINE
  5
166
330
7B
100
AcDbEntity
  8
0
  6
Continuous
 62
    20
100
AcDbSpline
210
0.0
220
0.0
230
1.0
 70
  1064
 71
     3
 72
    42
 73
    38
 74
    36
 42
0.0000000001
 43
0.0000000001
 44
0.0000000001
 12
1.016286002824832E-11
 22
-1.0
 32
0.0
 13
-3.188858280193331E-10
 23
-1.0
 33
0.0
 40
0.0
 40
0.0
 40
0.0
 40
0.0
 40
0.0056041408735865
 40
0.0111865426413402
 40
0.0167471842119795
 40
0.02228602387612
 40
0.0277930438339808
 40
0.0332305324992745
 40
0.0385948725796652
 40
0.0438860640751528
 40
0.0491026884323134
 40
0.0542133704717003
 40
0.0592052429315828
 40
0.0640783058121457
 40
0.0688325591132752
 40
0.0734523073014088
 40
0.0779124689243105
 40
0.082212717186394
 40
0.0863530520876594
 40
0.0903291293910229
 40
0.0941147302727359
 40
0.0977054592619311
 40
0.1011013163585659
 40
0.1043020932003742
 40
0.1072910883044216
 40
0.1100577418670809
 40
0.1126020538882955
 40
0.1149240243680794
 40
0.1170183612126721
 40
0.1188720313099481
 40
0.1204844327394881
 40
0.1218555655012352
 40
0.1229849397114009
 40
0.1238673726692241
 40
0.1245012632814593
 40
0.1248786000619475
 40
0.124995291007906
 40
0.124995291007906
 40
0.124995291007906
 40
0.124995291007906
 10
-175.6124002377218
 20
96.53897501024449
 30
0.0
 10
-175.6124002377217
 20
96.53710696328662
 30
0.0
 10
-175.6124002377216
 20
96.53337811573948
 30
0.0
 10
-175.6124002377219
 20
96.52779572100222
 30
0.0
 10
-175.6124002377217
 20
96.52223509333467
 30
0.0
 10
-175.6124002377218
 20
96.5166995929371
 30
0.0
 10
-175.6124002377216
 20
96.51120514350804
 30
0.0
 10
-175.6124002377218
 20
96.50576886060685
 30
0.0
 10
-175.6124002377216
 20
96.50040452052644
 30
0.0
 10
-175.6124002377217
 20
96.49511380188211
 30
0.0
 10
-175.6124002377217
 20
96.4899076359181
 30
0.0
 10
-175.6124002377216
 20
96.48480124296591
 30
0.0
 10
-175.6124002377217
 20
96.47980937050602
 30
0.0
 10
-175.6124002377218
 20
96.47493630762546
 30
0.0
 10
-175.6124002377218
 20
96.4701872861689
 30
0.0
 10
-175.6124002377218
 20
96.4655758984648
 30
0.0
 10
-175.6124002377218
 20
96.46111584577379
 30
0.0
 10
-175.6124002377217
 20
96.45681559751168
 30
0.0
 10
-175.6124002377218
 20
96.45267671068947
 30
0.0
 10
-175.6124002377218
 20
96.44870937299402
 30
0.0
 10
-175.6124002377216
 20
96.44492523726925
 30
0.0
 10
-175.6124002377217
 20
96.4413345082801
 30
0.0
 10
-175.6124002377218
 20
96.43793872063752
 30
0.0
 10
-175.6124002377217
 20
96.4347435109567
 30
0.0
 10
-175.6124002377216
 20
96.43175803578718
 30
0.0
 10
-175.6124002377218
 20
96.42899138222455
 30
0.0
 10
-175.6124002377217
 20
96.4264470702033
 30
0.0
 10
-175.6124002377219
 20
96.42412686375485
 30
0.0
 10
-175.6124002377217
 20
96.42203687128088
 30
0.0
 10
-175.6124002377218
 20
96.4201834018238
 30
0.0
 10
-175.6124002377217
 20
96.41857100039424
 30
0.0
 10
-175.6124002377219
 20
96.41720003092712
 30
0.0
 10
-175.6124002377217
 20
96.4160723842839
 30
0.0
 10
-175.6124002377217
 20
96.41519048502377
 30
0.0
 10
-175.6124002377219
 20
96.41455926490697
 30
0.0
 10
-175.6124002377215
 20
96.41418329212735
 30
0.0
 10
-175.6124002377218
 20
96.41401861621857
 30
0.0
 10
-175.6124002377218
 20
96.41397971923658
 30
0.0
 11
-175.6124002377218
 21
96.53897501024449
 31
0.0
 11
-175.6124002377217
 21
96.5333708693709
 31
0.0
 11
-175.6124002377218
 21
96.52778846760314
 31
0.0
 11
-175.6124002377218
 21
96.5222278260325
 31
0.0
 11
-175.6124002377218
 21
96.51668898636837
 31
0.0
 11
-175.6124002377217
 21
96.5111819664105
 31
0.0
 11
-175.6124002377218
 21
96.50574447774521
 31
0.0
 11
-175.6124002377217
 21
96.50038013766482
 31
0.0
 11
-175.6124002377217
 21
96.49508894616933
 31
0.0
 11
-175.6124002377217
 21
96.48987232181217
 31
0.0
 11
-175.6124002377217
 21
96.48476163977278
 31
0.0
 11
-175.6124002377217
 21
96.4797697673129
 31
0.0
 11
-175.6124002377218
 21
96.47489670443234
 31
0.0
 11
-175.6124002377218
 21
96.47014245113121
 31
0.0
 11
-175.6124002377218
 21
96.46552270294308
 31
0.0
 11
-175.6124002377218
 21
96.46106254132017
 31
0.0
 11
-175.6124002377218
 21
96.45676229305809
 31
0.0
 11
-175.6124002377218
 21
96.45262195815683
 31
0.0
 11
-175.6124002377218
 21
96.44864588085346
 31
0.0
 11
-175.6124002377217
 21
96.44486027997175
 31
0.0
 11
-175.6124002377217
 21
96.44126955098255
 31
0.0
 11
-175.6124002377218
 21
96.43787369388592
 31
0.0
 11
-175.6124002377217
 21
96.43467291704411
 31
0.0
 11
-175.6124002377217
 21
96.43168392194006
 31
0.0
 11
-175.6124002377218
 21
96.4289172683774
 31
0.0
 11
-175.6124002377218
 21
96.42637295635619
 31
0.0
 11
-175.6124002377218
 21
96.4240509858764
 31
0.0
 11
-175.6124002377218
 21
96.42195664903181
 31
0.0
 11
-175.6124002377218
 21
96.42010297893454
 31
0.0
 11
-175.6124002377218
 21
96.418490577505
 31
0.0
 11
-175.6124002377218
 21
96.41711944474325
 31
0.0
 11
-175.6124002377217
 21
96.41599007053308
 31
0.0
 11
-175.6124002377218
 21
96.41510763757526
 31
0.0
 11
-175.6124002377218
 21
96.41447374696303
 31
0.0
 11
-175.6124002377217
 21
96.41409641018254
 31
0.0
 11
-175.6124002377218
 21
96.41397971923658
 31
0.0
  0
SPLINE
  5
167
330
7B
100
AcDbEntity
  8
0
  6
Continuous
 62
    20
100
AcDbSpline
210
0.0
220
0.0
230
1.0
 70
  1080
 71
     3
 72
    42
 73
    38
 74
    36
 42
0.0000000001
 43
0.0000000001
 44
0.0000000001
 12
0.0
 22
-1.0
 32
0.0
 13
1.017589049375068E-11
 23
-1.0
 33
0.0
 40
0.0
 40
0.0
 40
0.0
 40
0.0
 40
0.0001713576163809
 40
0.0005852954803487
 40
0.0012452539032921
 40
0.0021550875935787
 40
0.0033115571583409
 40
0.00470732958361
 40
0.0063421249698763
 40
0.0082159433170688
 40
0.0103274554460455
 40
0.0126629015406081
 40
0.0152186451037721
 40
0.0179946861355518
 40
0.0209910246358902
 40
0.0241945851404068
 40
0.027591255174741
 40
0.0311810296489057
 40
0.0349639085628723
 40
0.0389339787188021
 40
0.0430655269003211
 40
0.0473555655300402
 40
0.0518040946080305
 40
0.0564103918080434
 40
0.0611478811289601
 40
0.0660031563367625
 40
0.070976217431479
 40
0.0760670644131096
 40
0.0812614991212541
 40
0.0865294555613332
 40
0.091869957545569
 40
0.0972830050739617
 40
0.1027650542976772
 40
0.1082827166737559
 40
0.113827757030009
 40
0.1194001834847143
 40
0.125
 40
0.125
 40
0.125
 40
0.125
 10
-175.6124002377218
 20
98.96397500944448
 30
0.0
 10
-175.6124002377218
 20
98.96391789023902
 30
0.0
 10
-175.6124002377218
 20
98.96372279174557
 30
0.0
 10
-175.6124002377216
 20
98.96330770711114
 30
0.0
 10
-175.6124002377218
 20
98.9626464637854
 30
0.0
 10
-175.6124002377218
 20
98.96173770989276
 30
0.0
 10
-175.6124002377217
 20
98.96058368466598
 30
0.0
 10
-175.6124002377217
 20
98.95918800554053
 30
0.0
 10
-175.6124002377218
 20
98.95755321015432
 30
0.0
 10
-175.6124002377216
 20
98.9556798348668
 30
0.0
 10
-175.6124002377218
 20
98.95357290934325
 30
0.0
 10
-175.6124002377218
 20
98.95123867541432
 30
0.0
 10
-175.6124002377216
 20
98.94868293185117
 30
0.0
 10
-175.6124002377219
 20
98.9459068908194
 30
0.0
 10
-175.6124002377217
 20
98.94291491080718
 30
0.0
 10
-175.6124002377218
 20
98.93971605446083
 30
0.0
 10
-175.6124002377218
 20
98.9363193861231
 30
0.0
 10
-175.6124002377218
 20
98.932729611649
 30
0.0
 10
-175.6124002377216
 20
98.92894870380096
 30
0.0
 10
-175.6124002377218
 20
98.92498720471716
 30
0.0
 10
-175.6124002377218
 20
98.92085665239478
 30
0.0
 10
-175.6124002377217
 20
98.91656661376501
 30
0.0
 10
-175.6124002377218
 20
98.91211832546243
 30
0.0
 10
-175.6124002377218
 20
98.90752088692949
 30
0.0
 10
-175.6124002377218
 20
98.90278786635324
 30
0.0
 10
-175.6124002377218
 20
98.8979325911454
 30
0.0
 10
-175.6124002377218
 20
98.89295953005069
 30
0.0
 10
-175.6124002377218
 20
98.8878734157892
 30
0.0
 10
-175.6124002377218
 20
98.88268900307926
 30
0.0
 10
-175.6124002377217
 20
98.87742137203509
 30
0.0
 10
-175.6124002377218
 20
98.87208087005088
 30
0.0
 10
-175.6124002377217
 20
98.86666900380538
 30
0.0
 10
-175.6124002377218
 20
98.86119808409602
 30
0.0
 10
-175.6124002377218
 20
98.85568316677734
 30
0.0
 10
-175.6124002377217
 20
98.85013812371496
 30
0.0
 10
-175.6124002377218
 20
98.84456569593961
 30
0.0
 10
-175.6124002377218
 20
98.84084161494958
 30
0.0
 10
-175.6124002377218
 20
98.83897500944448
 30
0.0
 11
-175.6124002377218
 21
98.96397500944448
 31
0.0
 11
-175.6124002377218
 21
98.9638036518281
 31
0.0
 11
-175.6124002377217
 21
98.96338971396413
 31
0.0
 11
-175.6124002377218
 21
98.96272975554119
 31
0.0
 11
-175.6124002377218
 21
98.9618199218509
 31
0.0
 11
-175.6124002377217
 21
98.96066345228614
 31
0.0
 11
-175.6124002377217
 21
98.95926767986087
 31
0.0
 11
-175.6124002377218
 21
98.9576328844746
 31
0.0
 11
-175.6124002377217
 21
98.95575906612741
 31
0.0
 11
-175.6124002377218
 21
98.95364755399844
 31
0.0
 11
-175.6124002377218
 21
98.95131210790387
 31
0.0
 11
-175.6124002377217
 21
98.94875636434071
 31
0.0
 11
-175.6124002377218
 21
98.94598032330893
 31
0.0
 11
-175.6124002377218
 21
98.94298398480859
 31
0.0
 11
-175.6124002377218
 21
98.93978042430408
 31
0.0
 11
-175.6124002377218
 21
98.93638375426974
 31
0.0
 11
-175.6124002377218
 21
98.93279397979558
 31
0.0
 11
-175.6124002377217
 21
98.92901110088161
 31
0.0
 11
-175.6124002377218
 21
98.92504103072568
 31
0.0
 11
-175.6124002377218
 21
98.92090948254416
 31
0.0
 11
-175.6124002377218
 21
98.91661944391444
 31
0.0
 11
-175.6124002377218
 21
98.91217091483645
 31
0.0
 11
-175.6124002377218
 21
98.90756461763644
 31
0.0
 11
-175.6124002377218
 21
98.90282712831552
 31
0.0
 11
-175.6124002377218
 21
98.89797185310772
 31
0.0
 11
-175.6124002377218
 21
98.892998792013
 31
0.0
 11
-175.6124002377218
 21
98.88790794503137
 31
0.0
 11
-175.6124002377218
 21
98.88271351032323
 31
0.0
 11
-175.6124002377218
 21
98.87744555388315
 31
0.0
 11
-175.6124002377218
 21
98.87210505189891
 31
0.0
 11
-175.6124002377218
 21
98.86669200437052
 31
0.0
 11
-175.6124002377218
 21
98.8612099551468
 31
0.0
 11
-175.6124002377218
 21
98.85569229277073
 31
0.0
 11
-175.6124002377218
 21
98.85014725241447
 31
0.0
 11
-175.6124002377218
 21
98.84457482595977
 31
0.0
 11
-175.6124002377218
 21
98.83897500944448
 31
0.0
  0
SPLINE
  5
168
330
7B
100
AcDbEntity
  8
0
  6
Continuous
 62
    20
100
AcDbSpline
210
0.0
220
0.0
230
1.0
 70
  1080
 71
     3
 72
    18
 73
    14
 74
    12
 42
0.0000000001
 43
0.0000000001
 44
0.0000000001
 12
3.416528677762273E-12
 22
1.0
 32
0.0
 13
-3.362496018529827E-11
 23
1.0
 33
0.0
 40
0.0
 40
0.0
 40
0.0
 40
0.0
 40
0.0164124117360558
 40
0.0332818152481451
 40
0.050115447448448
 40
0.0663457315439047
 40
0.0813816570221917
 40
0.0946728624147113
 40
0.1057733868176456
 40
0.1143904389099504
 40
0.1204073394537915
 40
0.1238775660645643
 40
0.12499499999997
 40
0.12499499999997
 40
0.12499499999997
 40
0.12499499999997
 10
-175.6124002377083
 20
79.08897500984453
 30
0.0
 10
-175.6124002377083
 20
79.09444581375655
 30
0.0
 10
-175.6124002377081
 20
79.10553975217258
 30
0.0
 10
-175.6124002377084
 20
79.1222449013221
 30
0.0
 10
-175.6124002377083
 20
79.13888934125802
 30
0.0
 10
-175.6124002377083
 20
79.15492262184938
 30
0.0
 10
-175.6124002377083
 20
79.16977509350481
 30
0.0
 10
-175.6124002377083
 20
79.1829176452627
 30
0.0
 10
-175.6124002377084
 20
79.19392057255865
 30
0.0
 10
-175.612400237708
 20
79.20249873157164
 30
0.0
 10
-175.6124002377088
 20
79.20853345798733
 30
0.0
 10
-175.6124002377082
 20
79.21206831168398
 30
0.0
 10
-175.6124002377085
 20
79.21359753186603
 30
0.0
 10
-175.6124002377085
 20
79.2139700098445
 30
0.0
 11
-175.6124002377083
 21
79.08897500984453
 31
0.0
 11
-175.6124002377082
 21
79.10538742158059
 31
0.0
 11
-175.6124002377083
 21
79.12225682509268
 31
0.0
 11
-175.6124002377083
 21
79.13909045729298
 31
0.0
 11
-175.6124002377083
 21
79.15532074138844
 31
0.0
 11
-175.6124002377083
 21
79.17035666686672
 31
0.0
 11
-175.6124002377083
 21
79.18364787225924
 31
0.0
 11
-175.6124002377083
 21
79.19474839666218
 31
0.0
 11
-175.6124002377083
 21
79.20336544875448
 31
0.0
 11
-175.6124002377085
 21
79.20938234929832
 31
0.0
 11
-175.6124002377084
 21
79.2128525759091
 31
0.0
 11
-175.6124002377085
 21
79.2139700098445
 31
0.0
  0
SPLINE
  5
169
330
7B
100
AcDbEntity
  8
0
  6
Continuous
 62
    20
100
AcDbSpline
210
0.0
220
0.0
230
1.0
 70
  1080
 71
     3
 72
    18
 73
    14
 74
    12
 42
0.0000000001
 43
0.0000000001
 44
0.0000000001
 12
1.0
 22
8.561754313474031E-12
 32
0.0
 13
1.0
 23
-8.154909071318806E-11
 33
0.0
 40
0.0
 40
0.0
 40
0.0
 40
0.0
 40
0.0032745171889417
 40
0.006640485082329
 40
0.0100000280456527
 40
0.0132403813659039
 40
0.0162440334894143
 40
0.0189013933637341
 40
0.0211234230658874
 40
0.0228513474264957
 40
0.0240612875682871
 40
0.0247631857730823
 40
0.0249950000000183
 40
0.0249950000000183
 40
0.0249950000000183
 40
0.0249950000000183
 10
-175.6374002376938
 20
79.08897500984449
 30
0.0
 10
-175.6363087319642
 20
79.0889750098445
 30
0.0
 10
-175.6340952369368
 20
79.08897500984457
 30
0.0
 10
-175.6307618942549
 20
79.08897500984446
 30
0.0
 10
-175.6274399395292
 20
79.08897500984457
 30
0.0
 10
-175.6242387567268
 20
79.08897500984445
 30
0.0
 10
-175.6212716349542
 20
79.08897500984456
 30
0.0
 10
-175.6186439543875
 20
79.08897500984448
 30
0.0
 10
-175.6164415164085
 20
79.08897500984449
 30
0.0
 10
-175.6147215516736
 20
79.08897500984449
 30
0.0
 10
-175.6135082974379
 20
79.08897500984446
 30
0.0
 10
-175.6127937465801
 20
79.08897500984449
 30
0.0
 10
-175.6124825091028
 20
79.08897500984449
 30
0.0
 10
-175.6124052376938
 20
79.08897500984449
 30
0.0
 11
-175.6374002376938
 21
79.08897500984449
 31
0.0
 11
-175.6341257205049
 21
79.08897500984453
 31
0.0
 11
-175.6307597526115
 21
79.08897500984449
 31
0.0
 11
-175.6274002096482
 21
79.08897500984453
 31
0.0
 11
-175.6241598563279
 21
79.08897500984449
 31
0.0
 11
-175.6211562042044
 21
79.08897500984453
 31
0.0
 11
-175.6184988443301
 21
79.08897500984449
 31
0.0
 11
-175.616276814628
 21
79.08897500984449
 31
0.0
 11
-175.6145488902673
 21
79.08897500984449
 31
0.0
 11
-175.6133389501256
 21
79.08897500984449
 31
0.0
 11
-175.6126370519208
 21
79.08897500984449
 31
0.0
 11
-175.6124052376938
 21
79.08897500984449
 31
0.0
  0
SPLINE
  5
16A
330
7B
100
AcDbEntity
  8
0
  6
Continuous
 62
    20
100
AcDbSpline
210
0.0
220
0.0
230
1.0
 70
  1080
 71
     3
 72
    18
 73
    14
 74
    12
 42
0.0000000001
 43
0.0000000001
 44
0.0000000001
 12
-2.866364128258040E-11
 22
-1.0
 32
0.0
 13
3.199251053901360E-28
 23
-1.0
 33
0.0
 40
0.0
 40
0.0
 40
0.0
 40
0.0
 40
0.0013047432592543
 40
0.0054356447520973
 40
0.0126285628521856
 40
0.0229505601319602
 40
0.036263626016094
 40
0.0522170802017996
 40
0.070274941112018
 40
0.089774644323029
 40
0.1100040319744267
 40
0.1302788610720569
 40
0.1500050005198545
 40
0.1500050005198545
 40
0.1500050005198545
 40
0.1500050005198545
 10
-175.6374002376938
 20
79.23898001036434
 30
0.0
 10
-175.6374002376938
 20
79.23854509594459
 30
0.0
 10
-175.6374002376938
 20
79.23673321436058
 30
0.0
 10
-175.6374002376938
 20
79.23252369340982
 30
0.0
 10
-175.6374002376939
 20
79.22530842111892
 30
0.0
 10
-175.6374002376938
 20
79.21503242736428
 30
0.0
 10
-175.6374002376937
 20
79.20183625491437
 30
0.0
 10
-175.6374002376938
 20
79.1860614612544
 30
0.0
 10
-175.6374002376938
 20
79.16822445515204
 30
0.0
 10
-175.6374002376938
 20
79.14896213789453
 30
0.0
 10
-175.6374002376939
 20
79.12896083124117
 30
0.0
 10
-175.6374002376938
 20
79.10888404584223
 30
0.0
 10
-175.6374002376938
 20
79.09555038966042
 30
0.0
 10
-175.6374002376938
 20
79.08897500984449
 30
0.0
 11
-175.6374002376938
 21
79.23898001036434
 31
0.0
 11
-175.6374002376938
 21
79.23767526710509
 31
0.0
 11
-175.6374002376938
 21
79.23354436561225
 31
0.0
 11
-175.6374002376938
 21
79.22635144751216
 31
0.0
 11
-175.6374002376938
 21
79.21602945023238
 31
0.0
 11
-175.6374002376938
 21
79.20271638434825
 31
0.0
 11
-175.6374002376938
 21
79.18676293016254
 31
0.0
 11
-175.6374002376938
 21
79.16870506925233
 31
0.0
 11
-175.6374002376938
 21
79.14920536604131
 31
0.0
 11
-175.6374002376938
 21
79.12897597838992
 31
0.0
 11
-175.6374002376938
 21
79.10870114929229
 31
0.0
 11
-175.6374002376938
 21
79.08897500984449
 31
0.0
  0
SPLINE
  5
16B
330
7B
100
AcDbEntity
  8
0
  6
Continuous
 62
    20
100
AcDbSpline
210
0.0
220
0.0
230
1.0
 70
  1064
 71
     3
 72
    18
 73
    14
 74
    12
 42
0.0000000001
 43
0.0000000001
 44
0.0000000001
 12
-0.0005818273654904045
 22
0.9999998307384441
 32
0.0
 13
-0.9999998307397843
 23
0.0005818250618268852
 33
0.0
 40
0.0
 40
0.0
 40
0.0
 40
0.0
 40
0.0032948668303637
 40
0.0067434142485081
 40
0.0103217490058805
 40
0.0139989186652569
 40
0.0177380465979731
 40
0.0214982925649308
 40
0.0252374204956535
 40
0.0289145901514865
 40
0.0324929249048225
 40
0.0359414723193607
 40
0.0392363391475976
 40
0.0392363391475976
 40
0.0392363391475976
 40
0.0392363391475976
 10
-175.6124002377083
 20
79.21397500987285
 30
0.0
 10
-175.6124008767229
 20
79.21507329863041
 30
0.0
 10
-175.6125484665837
 20
79.21732385500835
 30
0.0
 10
-175.6132376510194
 20
79.2207054940653
 30
0.0
 10
-175.6144367801699
 20
79.22407905554213
 30
0.0
 10
-175.6161574588784
 20
79.2273298904257
 30
0.0
 10
-175.6183764240836
 20
79.2303398483491
 30
0.0
 10
-175.6210353992323
 20
79.23299882350071
 30
0.0
 10
-175.6240453571522
 20
79.23521778870762
 30
0.0
 10
-175.6272961920322
 20
79.23693846741614
 30
0.0
 10
-175.6306697535059
 20
79.23813759656474
 30
0.0
 10
-175.6340513925606
 20
79.23882678099591
 30
0.0
 10
-175.636301948937
 20
79.23897437085233
 30
0.0
 10
-175.6374002376938
 20
79.23897500986436
 30
0.0
 11
-175.6124002377083
 21
79.21397500987285
 31
0.0
 11
-175.6126173606629
 21
79.21726271500751
 31
0.0
 11
-175.613305576868
 21
79.2206418920893
 31
0.0
 11
-175.614504199119
 21
79.22401350658913
 31
0.0
 11
-175.6162244033583
 21
79.22726350260125
 31
0.0
 11
-175.6184431818642
 21
79.23027317029702
 31
0.0
 11
-175.621102077285
 21
79.23293206572055
 31
0.0
 11
-175.6241117449773
 21
79.23515084422786
 31
0.0
 11
-175.6273617409855
 21
79.23687104846691
 31
0.0
 11
-175.6307333554819
 21
79.2380696707156
 31
0.0
 11
-175.6341125325609
 21
79.23875788691623
 31
0.0
 11
-175.6374002376938
 21
79.23897500986436
 31
0.0
  0
SPLINE
  5
16C
330
7B
100
AcDbEntity
  8
0
  6
Continuous
 62
    20
100
AcDbSpline
210
0.0
220
0.0
230
1.0
 70
  1080
 71
     3
 72
    18
 73
    14
 74
    12
 42
0.0000000001
 43
0.0000000001
 44
0.0000000001
 12
-3.438769462329872E-11
 22
1.0
 32
0.0
 13
3.411169848937349E-12
 23
1.0
 33
0.0
 40
0.0
 40
0.0
 40
0.0
 40
0.0
 40
0.0010876203102299
 40
0.0045303056006247
 40
0.0105246014492195
 40
0.019126394486193
 40
0.0302206818582249
 40
0.0435152406147949
 40
0.0585634338230108
 40
0.0748131410155253
 40
0.0916709141607299
 40
0.108566566170623
 40
0.1250050004782821
 40
0.1250050004782821
 40
0.1250050004782821
 40
0.1250050004782821
 10
-175.6124002377083
 20
96.4139700093662
 30
0.0
 10
-175.6124002377083
 20
96.4143325494696
 30
0.0
 10
-175.6124002377083
 20
96.41584265133649
 30
0.0
 10
-175.6124002377084
 20
96.41935085181959
 30
0.0
 10
-175.6124002377083
 20
96.42536377654484
 30
0.0
 10
-175.6124002377083
 20
96.43392723529743
 30
0.0
 10
-175.6124002377083
 20
96.44492411501928
 30
0.0
 10
-175.6124002377082
 20
96.45806979479822
 30
0.0
 10
-175.6124002377083
 20
96.47293394785062
 30
0.0
 10
-175.6124002377083
 20
96.48898583903264
 30
0.0
 10
-175.6124002377082
 20
96.50565354981512
 30
0.0
 10
-175.6124002377083
 20
96.52238416963607
 30
0.0
 10
-175.6124002377083
 20
96.53349553174192
 30
0.0
 10
-175.6124002377083
 20
96.53897500984448
 30
0.0
 11
-175.6124002377083
 21
96.4139700093662
 31
0.0
 11
-175.6124002377083
 21
96.41505762967643
 31
0.0
 11
-175.6124002377083
 21
96.41850031496682
 31
0.0
 11
-175.6124002377083
 21
96.42449461081542
 31
0.0
 11
-175.6124002377083
 21
96.43309640385239
 31
0.0
 11
-175.6124002377083
 21
96.44419069122442
 31
0.0
 11
-175.6124002377082
 21
96.45748524998099
 31
0.0
 11
-175.6124002377083
 21
96.4725334431892
 31
0.0
 11
-175.6124002377083
 21
96.48878315038172
 31
0.0
 11
-175.6124002377083
 21
96.50564092352693
 31
0.0
 11
-175.6124002377083
 21
96.52253657553682
 31
0.0
 11
-175.6124002377083
 21
96.53897500984448
 31
0.0
  0
SPLINE
  5
16D
330
7B
100
AcDbEntity
  8
0
  6
Continuous
 62
    20
100
AcDbSpline
210
0.0
220
0.0
230
1.0
 70
  1064
 71
     3
 72
    18
 73
    14
 74
    12
 42
0.0000000001
 43
0.0000000001
 44
0.0000000001
 12
0.9999998307397894
 22
0.0005818250534385208
 32
0.0
 13
0.0005818274325290015
 23
0.999999830738405
 33
0.0
 40
0.0
 40
0.0
 40
0.0
 40
0.0
 40
0.0032948668281509
 40
0.0067434142426892
 40
0.010321748995959
 40
0.0139989186519228
 40
0.0177380465826684
 40
0.0214982925495759
 40
0.0252374204822463
 40
0.0289145901416353
 40
0.0324929248990877
 40
0.0359414723171615
 40
0.0392363391475308
 40
0.0392363391475308
 40
0.0392363391475308
 40
0.0392363391475308
 10
-175.6374002376938
 20
96.38897500987468
 30
0.0
 10
-175.6363019489369
 20
96.38897564888671
 30
0.0
 10
-175.6340513925605
 20
96.38912323874312
 30
0.0
 10
-175.630669753506
 20
96.38981242317425
 30
0.0
 10
-175.6272961920323
 20
96.39101155232305
 30
0.0
 10
-175.6240453571521
 20
96.39273223103136
 30
0.0
 10
-175.6210353992322
 20
96.3949511962383
 30
0.0
 10
-175.6183764240836
 20
96.39761017139003
 30
0.0
 10
-175.6161574588784
 20
96.40062012931331
 30
0.0
 10
-175.61443678017
 20
96.40387096419695
 30
0.0
 10
-175.6132376510191
 20
96.40724452567366
 30
0.0
 10
-175.6125484665839
 20
96.41062616473072
 30
0.0
 10
-175.6124008767229
 20
96.41287672110862
 30
0.0
 10
-175.6124002377083
 20
96.41397500986618
 30
0.0
 11
-175.6374002376938
 21
96.38897500987468
 31
0.0
 11
-175.6341125325609
 21
96.3891921328228
 31
0.0
 11
-175.6307333554819
 21
96.38988034902343
 31
0.0
 11
-175.6273617409856
 21
96.39107897127217
 31
0.0
 11
-175.6241117449772
 21
96.39279917551117
 31
0.0
 11
-175.6211020772849
 21
96.39501795401848
 31
0.0
 11
-175.6184431818642
 21
96.39767684944205
 31
0.0
 11
-175.6162244033583
 21
96.40068651713777
 31
0.0
 11
-175.614504199119
 21
96.4039365131499
 31
0.0
 11
-175.6133055768678
 21
96.40730812764974
 31
0.0
 11
-175.612617360663
 21
96.41068730473152
 31
0.0
 11
-175.6124002377083
 21
96.41397500986618
 31
0.0
  0
SPLINE
  5
16E
330
7B
100
AcDbEntity
  8
0
  6
Continuous
 62
    20
100
AcDbSpline
210
0.0
220
0.0
230
1.0
 70
  1080
 71
     3
 72
    18
 73
    14
 74
    12
 42
0.0000000001
 43
0.0000000001
 44
0.0000000001
 12
-2.846681473236800E-12
 22
-1.0
 32
0.0
 13
0.0
 23
-1.0
 33
0.0
 40
0.0
 40
0.0
 40
0.0
 40
0.0
 40
0.0196978731682833
 40
0.0399441496826967
 40
0.0601472489829433
 40
0.0796257833794556
 40
0.0976702652457107
 40
0.1136200638168816
 40
0.1269399528504778
 40
0.1372786515233173
 40
0.1444963395544363
 40
0.1486574678457799
 40
0.1499949999999757
 40
0.1499949999999757
 40
0.1499949999999757
 40
0.1499949999999757
 10
-175.6374002376938
 20
96.53897500984446
 30
0.0
 10
-175.6374002376939
 20
96.53240905212171
 30
0.0
 10
-175.6374002376938
 20
96.51909433556078
 30
0.0
 10
-175.6374002376939
 20
96.4990452525665
 30
0.0
 10
-175.6374002376938
 20
96.4790692824961
 30
0.0
 10
-175.6374002376937
 20
96.4598272439751
 30
0.0
 10
-175.6374002376938
 20
96.44200297236378
 30
0.0
 10
-175.6374002376937
 20
96.42623158254013
 30
0.0
 10
-175.6374002376938
 20
96.4130287871142
 30
0.0
 10
-175.6374002376938
 20
96.40273669520175
 30
0.0
 10
-175.6374002376937
 20
96.39549752353658
 30
0.0
 10
-175.6374002376937
 20
96.3912587407111
 30
0.0
 10
-175.6374002376938
 20
96.38942585389589
 30
0.0
 10
-175.6374002376938
 20
96.38898000984449
 30
0.0
 11
-175.6374002376938
 21
96.53897500984446
 31
0.0
 11
-175.6374002376938
 21
96.51927713667618
 31
0.0
 11
-175.6374002376938
 21
96.49903086016177
 31
0.0
 11
-175.6374002376938
 21
96.47882776086152
 31
0.0
 11
-175.6374002376938
 21
96.45934922646501
 31
0.0
 11
-175.6374002376938
 21
96.44130474459875
 31
0.0
 11
-175.6374002376938
 21
96.42535494602758
 31
0.0
 11
-175.6374002376938
 21
96.41203505699399
 31
0.0
 11
-175.6374002376938
 21
96.40169635832115
 31
0.0
 11
-175.6374002376938
 21
96.39447867029003
 31
0.0
 11
-175.6374002376938
 21
96.39031754199868
 31
0.0
 11
-175.6374002376938
 21
96.38898000984449
 31
0.0
  0
SPLINE
  5
16F
330
7B
100
AcDbEntity
  8
0
  6
Continuous
 62
    20
100
AcDbSpline
210
0.0
220
0.0
230
1.0
 70
  1064
 71
     3
 72
    18
 73
    14
 74
    12
 42
0.0000000001
 43
0.0000000001
 44
0.0000000001
 12
-1.0
 22
-1.709049838827226E-10
 32
0.0
 13
-1.0
 23
8.528253123957047E-12
 33
0.0
 40
0.0
 40
0.0
 40
0.0
 40
0.0
 40
0.0002191285155391
 40
0.0009089490013139
 40
0.0021087558525323
 40
0.0038297319302671
 40
0.0060489052687558
 40
0.008707882326064
 40
0.0117174047456672
 40
0.0149671278840344
 40
0.0183384430249305
 40
0.0217173867036706
 40
0.0250050004698039
 40
0.0250050004698039
 40
0.0250050004698039
 40
0.0250050004698039
 10
-175.612395237224
 20
96.53897500984458
 30
0.0
 10
-175.6124682800626
 20
96.53897500984456
 30
0.0
 10
-175.612771263063
 20
96.53897500984448
 30
0.0
 10
-175.6134741816805
 20
96.53897500984455
 30
0.0
 10
-175.6146777161521
 20
96.53897500984455
 30
0.0
 10
-175.6163910349078
 20
96.53897500984448
 30
0.0
 10
-175.6185907437325
 20
96.53897500984455
 30
0.0
 10
-175.6212199680042
 20
96.53897500984446
 30
0.0
 10
-175.624192708876
 20
96.53897500984446
 30
0.0
 10
-175.6274028957755
 20
96.53897500984444
 30
0.0
 10
-175.6307362230949
 20
96.53897500984456
 30
0.0
 10
-175.6340821806235
 20
96.53897500984444
 30
0.0
 10
-175.6363043664385
 20
96.53897500984446
 30
0.0
 10
-175.6374002376938
 20
96.53897500984448
 30
0.0
 11
-175.612395237224
 21
96.53897500984458
 31
0.0
 11
-175.6126143657396
 21
96.53897500984453
 31
0.0
 11
-175.6133041862253
 21
96.53897500984453
 31
0.0
 11
-175.6145039930766
 21
96.53897500984453
 31
0.0
 11
-175.6162249691543
 21
96.53897500984452
 31
0.0
 11
-175.6184441424928
 21
96.53897500984452
 31
0.0
 11
-175.6211031195501
 21
96.53897500984448
 31
0.0
 11
-175.6241126419697
 21
96.53897500984446
 31
0.0
 11
-175.6273623651081
 21
96.53897500984446
 31
0.0
 11
-175.630733680249
 21
96.53897500984452
 31
0.0
 11
-175.6341126239277
 21
96.53897500984446
 31
0.0
 11
-175.6374002376938
 21
96.53897500984448
 31
0.0
  0
SPLINE
  5
170
330
7B
100
AcDbEntity
  8
0
  6
Continuous
 62
    20
100
AcDbSpline
210
0.0
220
0.0
230
1.0
 70
  1080
 71
     3
 72
    18
 73
    14
 74
    12
 42
0.0000000001
 43
0.0000000001
 44
0.0000000001
 12
-1.844415563006739E-11
 22
-1.0
 32
0.0
 13
1.822204462401628E-11
 23
-1.0
 33
0.0
 40
0.0
 40
0.0
 40
0.0
 40
0.0
 40
0.0030772989018004
 40
0.0061638546328453
 40
0.0092585516276671
 40
0.0123602664580034
 40
0.0154678691887824
 40
0.0185802247486322
 40
0.0216961943112182
 40
0.0248146366836721
 40
0.0279344096993412
 40
0.0310543716102956
 40
0.0341733824770216
 40
0.0341733824770216
 40
0.0341733824770216
 40
0.0341733824770216
 10
-175.6124002377058
 20
78.06029051762151
 30
0.0
 10
-175.6124002377058
 20
78.05926475132091
 30
0.0
 10
-175.6124002377057
 20
78.05721013310996
 30
0.0
 10
-175.6124002377058
 20
78.05412394923408
 30
0.0
 10
-175.6124002377056
 20
78.05102962671533
 30
0.0
 10
-175.6124002377058
 20
78.04792828853003
 30
0.0
 10
-175.6124002377057
 20
78.04482106415637
 30
0.0
 10
-175.6124002377058
 20
78.04170908820531
 30
0.0
 10
-175.6124002377058
 20
78.03859349904033
 30
0.0
 10
-175.6124002377057
 20
78.03547543739009
 30
0.0
 10
-175.6124002377057
 20
78.03235604495706
 30
0.0
 10
-175.6124002377058
 20
78.02923646302597
 30
0.0
 10
-175.6124002377058
 20
78.02715680543339
 30
0.0
 10
-175.6124002377058
 20
78.02611713514449
 30
0.0
 11
-175.6124002377058
 21
78.06029051762151
 31
0.0
 11
-175.6124002377058
 21
78.05721321871971
 31
0.0
 11
-175.6124002377058
 21
78.05412666298866
 31
0.0
 11
-175.6124002377057
 21
78.05103196599384
 31
0.0
 11
-175.6124002377058
 21
78.0479302511635
 31
0.0
 11
-175.6124002377058
 21
78.04482264843273
 31
0.0
 11
-175.6124002377058
 21
78.04171029287288
 31
0.0
 11
-175.6124002377058
 21
78.03859432331029
 31
0.0
 11
-175.6124002377058
 21
78.03547588093784
 31
0.0
 11
-175.6124002377058
 21
78.03235610792217
 31
0.0
 11
-175.6124002377058
 21
78.02923614601121
 31
0.0
 11
-175.6124002377058
 21
78.02611713514449
 31
0.0
  0
SPLINE
  5
171
330
7B
100
AcDbEntity
  8
0
  6
Continuous
 62
    20
100
AcDbSpline
210
0.0
220
0.0
230
1.0
 70
  1080
 71
     3
 72
    18
 73
    14
 74
    12
 42
0.0000000001
 43
0.0000000001
 44
0.0000000001
 12
-6.833057355804690E-12
 22
1.0
 32
0.0
 13
0.0
 23
1.0
 33
0.0
 40
0.0
 40
0.0
 40
0.0
 40
0.0
 40
0.0164124117353595
 40
0.0332818152467382
 40
0.0501154474464016
 40
0.0663457315413041
 40
0.08138165701925
 40
0.094672862411656
 40
0.105773386814775
 40
0.1143904389075203
 40
0.1204073394520435
 40
0.1238775660636549
 40
0.124995000000041
 40
0.124995000000041
 40
0.124995000000041
 40
0.124995000000041
 10
-175.6124002377083
 20
98.83897500984446
 30
0.0
 10
-175.6124002377083
 20
98.84444581375625
 30
0.0
 10
-175.6124002377082
 20
98.85553975217181
 30
0.0
 10
-175.6124002377086
 20
98.87224490132064
 30
0.0
 10
-175.6124002377084
 20
98.88888934125593
 30
0.0
 10
-175.6124002377083
 20
98.9049226218468
 30
0.0
 10
-175.6124002377083
 20
98.91977509350187
 30
0.0
 10
-175.6124002377082
 20
98.93291764525969
 30
0.0
 10
-175.6124002377085
 20
98.94392057255577
 30
0.0
 10
-175.6124002377082
 20
98.95249873156925
 30
0.0
 10
-175.6124002377085
 20
98.95853345798551
 30
0.0
 10
-175.6124002377086
 20
98.96206831168308
 30
0.0
 10
-175.6124002377085
 20
98.9635975318657
 30
0.0
 10
-175.6124002377085
 20
98.9639700098445
 30
0.0
 11
-175.6124002377083
 21
98.83897500984446
 31
0.0
 11
-175.6124002377083
 21
98.85538742157982
 31
0.0
 11
-175.6124002377085
 21
98.8722568250912
 31
0.0
 11
-175.6124002377084
 21
98.88909045729086
 31
0.0
 11
-175.6124002377083
 21
98.90532074138576
 31
0.0
 11
-175.6124002377083
 21
98.92035666686371
 31
0.0
 11
-175.6124002377083
 21
98.93364787225612
 31
0.0
 11
-175.6124002377084
 21
98.94474839665924
 31
0.0
 11
-175.6124002377083
 21
98.95336544875198
 31
0.0
 11
-175.6124002377085
 21
98.9593823492965
 31
0.0
 11
-175.6124002377085
 21
98.96285257590812
 31
0.0
 11
-175.6124002377085
 21
98.9639700098445
 31
0.0
  0
SPLINE
  5
172
330
7B
100
AcDbEntity
  8
0
  6
Continuous
 62
    20
100
AcDbSpline
210
0.0
220
0.0
230
1.0
 70
  1080
 71
     3
 72
    18
 73
    14
 74
    12
 42
0.0000000001
 43
0.0000000001
 44
0.0000000001
 12
1.0
 22
8.561754313474031E-12
 32
0.0
 13
1.0
 23
-8.154909071318806E-11
 33
0.0
 40
0.0
 40
0.0
 40
0.0
 40
0.0
 40
0.0032745171889417
 40
0.006640485082329
 40
0.0100000280456527
 40
0.0132403813659039
 40
0.0162440334894143
 40
0.0189013933637341
 40
0.0211234230658874
 40
0.0228513474264957
 40
0.0240612875682871
 40
0.0247631857730823
 40
0.0249950000000183
 40
0.0249950000000183
 40
0.0249950000000183
 40
0.0249950000000183
 10
-175.6374002376938
 20
98.83897500984446
 30
0.0
 10
-175.6363087319642
 20
98.83897500984448
 30
0.0
 10
-175.6340952369368
 20
98.83897500984452
 30
0.0
 10
-175.6307618942549
 20
98.83897500984445
 30
0.0
 10
-175.6274399395292
 20
98.83897500984453
 30
0.0
 10
-175.6242387567268
 20
98.83897500984443
 30
0.0
 10
-175.6212716349542
 20
98.83897500984446
 30
0.0
 10
-175.6186439543875
 20
98.83897500984446
 30
0.0
 10
-175.6164415164085
 20
98.83897500984446
 30
0.0
 10
-175.6147215516736
 20
98.83897500984449
 30
0.0
 10
-175.6135082974379
 20
98.83897500984445
 30
0.0
 10
-175.6127937465801
 20
98.83897500984446
 30
0.0
 10
-175.6124825091028
 20
98.83897500984446
 30
0.0
 10
-175.6124052376938
 20
98.83897500984446
 30
0.0
 11
-175.6374002376938
 21
98.83897500984446
 31
0.0
 11
-175.6341257205049
 21
98.83897500984449
 31
0.0
 11
-175.6307597526115
 21
98.83897500984446
 31
0.0
 11
-175.6274002096482
 21
98.83897500984449
 31
0.0
 11
-175.6241598563279
 21
98.83897500984446
 31
0.0
 11
-175.6211562042044
 21
98.83897500984446
 31
0.0
 11
-175.6184988443301
 21
98.83897500984446
 31
0.0
 11
-175.616276814628
 21
98.83897500984446
 31
0.0
 11
-175.6145488902673
 21
98.83897500984449
 31
0.0
 11
-175.6133389501256
 21
98.83897500984446
 31
0.0
 11
-175.6126370519208
 21
98.83897500984446
 31
0.0
 11
-175.6124052376938
 21
98.83897500984446
 31
0.0
  0
SPLINE
  5
173
330
7B
100
AcDbEntity
  8
0
  6
Continuous
 62
    20
100
AcDbSpline
210
0.0
220
0.0
230
1.0
 70
  1080
 71
     3
 72
    18
 73
    14
 74
    12
 42
0.0000000001
 43
0.0000000001
 44
0.0000000001
 12
0.0
 22
-1.0
 32
0.0
 13
1.599625526950680E-28
 23
-1.0
 33
0.0
 40
0.0
 40
0.0
 40
0.0
 40
0.0
 40
0.0013047432593112
 40
0.00543564475214
 40
0.012628562852214
 40
0.0229505601320028
 40
0.0362636260161224
 40
0.0522170802018564
 40
0.070274941112018
 40
0.0897746443230858
 40
0.1100040319744835
 40
0.1302788610721421
 40
0.1500050005199256
 40
0.1500050005199256
 40
0.1500050005199256
 40
0.1500050005199256
 10
-175.6374002376938
 20
98.98898001036439
 30
0.0
 10
-175.6374002376938
 20
98.98854509594462
 30
0.0
 10
-175.6374002376938
 20
98.98673321436058
 30
0.0
 10
-175.6374002376937
 20
98.98252369340982
 30
0.0
 10
-175.637400237694
 20
98.97530842111895
 30
0.0
 10
-175.6374002376937
 20
98.96503242736429
 30
0.0
 10
-175.6374002376938
 20
98.95183625491438
 30
0.0
 10
-175.6374002376938
 20
98.9360614612544
 30
0.0
 10
-175.6374002376938
 20
98.91822445515206
 30
0.0
 10
-175.6374002376939
 20
98.89896213789453
 30
0.0
 10
-175.6374002376938
 20
98.87896083124116
 30
0.0
 10
-175.6374002376938
 20
98.85888404584219
 30
0.0
 10
-175.6374002376938
 20
98.84555038966039
 30
0.0
 10
-175.6374002376938
 20
98.83897500984446
 30
0.0
 11
-175.6374002376938
 21
98.98898001036439
 31
0.0
 11
-175.6374002376938
 21
98.98767526710508
 31
0.0
 11
-175.6374002376938
 21
98.98354436561225
 31
0.0
 11
-175.6374002376938
 21
98.97635144751217
 31
0.0
 11
-175.6374002376938
 21
98.96602945023238
 31
0.0
 11
-175.6374002376938
 21
98.95271638434826
 31
0.0
 11
-175.6374002376938
 21
98.93676293016253
 31
0.0
 11
-175.6374002376938
 21
98.91870506925237
 31
0.0
 11
-175.6374002376938
 21
98.8992053660413
 31
0.0
 11
-175.6374002376938
 21
98.8789759783899
 31
0.0
 11
-175.6374002376938
 21
98.85870114929224
 31
0.0
 11
-175.6374002376938
 21
98.83897500984446
 31
0.0
  0
SPLINE
  5
174
330
7B
100
AcDbEntity
  8
0
  6
Continuous
 62
    20
100
AcDbSpline
210
0.0
220
0.0
230
1.0
 70
  1064
 71
     3
 72
    18
 73
    14
 74
    12
 42
0.0000000001
 43
0.0000000001
 44
0.0000000001
 12
-0.0005818273654904045
 22
0.9999998307384441
 32
0.0
 13
-0.9999998307397941
 23
0.0005818250450599185
 33
0.0
 40
0.0
 40
0.0
 40
0.0
 40
0.0
 40
0.003294866830392
 40
0.0067434142485086
 40
0.0103217490058542
 40
0.0139989186652432
 40
0.0177380465979594
 40
0.0214982925649372
 40
0.0252374204956515
 40
0.0289145901514646
 40
0.03249292490481
 40
0.0359414723193511
 40
0.0392363391475861
 40
0.0392363391475861
 40
0.0392363391475861
 40
0.0392363391475861
 10
-175.6124002377083
 20
98.96397500987288
 30
0.0
 10
-175.6124008767229
 20
98.96507329863044
 30
0.0
 10
-175.6125484665837
 20
98.9673238550084
 30
0.0
 10
-175.6132376510195
 20
98.97070549406533
 30
0.0
 10
-175.61443678017
 20
98.97407905554213
 30
0.0
 10
-175.6161574588783
 20
98.9773298904257
 30
0.0
 10
-175.6183764240836
 20
98.98033984834912
 30
0.0
 10
-175.6210353992323
 20
98.98299882350074
 30
0.0
 10
-175.6240453571522
 20
98.98521778870764
 30
0.0
 10
-175.6272961920323
 20
98.98693846741611
 30
0.0
 10
-175.6306697535059
 20
98.98813759656477
 30
0.0
 10
-175.6340513925607
 20
98.98882678099598
 30
0.0
 10
-175.636301948937
 20
98.98897437085235
 30
0.0
 10
-175.6374002376938
 20
98.98897500986436
 30
0.0
 11
-175.6124002377083
 21
98.96397500987288
 31
0.0
 11
-175.6126173606629
 21
98.96726271500756
 31
0.0
 11
-175.613305576868
 21
98.97064189208933
 31
0.0
 11
-175.614504199119
 21
98.97401350658913
 31
0.0
 11
-175.6162244033583
 21
98.97726350260126
 31
0.0
 11
-175.6184431818642
 21
98.98027317029704
 31
0.0
 11
-175.621102077285
 21
98.98293206572059
 31
0.0
 11
-175.6241117449773
 21
98.98515084422789
 31
0.0
 11
-175.6273617409855
 21
98.9868710484669
 31
0.0
 11
-175.6307333554819
 21
98.98806967071562
 31
0.0
 11
-175.6341125325609
 21
98.98875788691626
 31
0.0
 11
-175.6374002376938
 21
98.98897500986436
 31
0.0
  0
ENDBLK
  5
7D
330
7B
100
AcDbEntity
  8
0
100
AcDbBlockEnd
  0
BLOCK
  5
7F
330
7E
100
AcDbEntity
  8
0
100
AcDbBlockBegin
  2
VIS-ULRBNLN0004
 70
     0
 10
0.0
 20
0.0
 30
0.0
  3
VIS-ULRBNLN0004
  1

  0
LINE
  5
175
330
7E
100
AcDbEntity
  8
0
  6
Continuous
 62
     0
100
AcDbLine
 10
-336.5766688247514
 20
251.2389750266513
 30
0.0
 11
-336.5766688247514
 21
244.8639750266513
 31
0.0
  0
LINE
  5
176
330
7E
100
AcDbEntity
  8
0
  6
Continuous
 62
     0
100
AcDbLine
 10
-335.8266688247514
 20
244.8639750266513
 30
0.0
 11
-336.5766688247514
 21
244.8639750266513
 31
0.0
  0
LINE
  5
177
330
7E
100
AcDbEntity
  8
0
  6
Continuous
 62
     0
100
AcDbLine
 10
-335.8266688247514
 20
251.2389750266513
 30
0.0
 11
-335.8266688247514
 21
244.8639750266513
 31
0.0
  0
LINE
  5
178
330
7E
100
AcDbEntity
  8
0
  6
Continuous
 62
     0
100
AcDbLine
 10
-318.5766688247514
 20
251.2389750266513
 30
0.0
 11
-318.5766688247514
 21
244.8639750266513
 31
0.0
  0
LINE
  5
179
330
7E
100
AcDbEntity
  8
0
  6
Continuous
 62
     0
100
AcDbLine
 10
-319.3266688247514
 20
244.8639750266513
 30
0.0
 11
-318.5766688247514
 21
244.8639750266513
 31
0.0
  0
LINE
  5
17A
330
7E
100
AcDbEntity
  8
0
  6
Continuous
 62
     0
100
AcDbLine
 10
-319.3266688247514
 20
251.2389750266513
 30
0.0
 11
-319.3266688247514
 21
244.8639750266513
 31
0.0
  0
LINE
  5
17B
330
7E
100
AcDbEntity
  8
0
  6
Continuous
 62
     0
100
AcDbLine
 10
-319.3266688247514
 20
244.8889750266513
 30
0.0
 11
-335.8266688247514
 21
244.8889750266513
 31
0.0
  0
LINE
  5
17C
330
7E
100
AcDbEntity
  8
0
  6
Continuous
 62
     0
100
AcDbLine
 10
-336.5766688247514
 20
251.2389750266513
 30
0.0
 11
-318.5766688247514
 21
251.2389750266513
 31
0.0
  0
LINE
  5
17D
330
7E
100
AcDbEntity
  8
0
  6
Continuous
 62
     0
100
AcDbLine
 10
-336.4766688247514
 20
244.6389750266513
 30
0.0
 11
-318.6766688247515
 21
244.6389750266513
 31
0.0
  0
LINE
  5
17E
330
7E
100
AcDbEntity
  8
0
  6
Continuous
 62
     0
100
AcDbLine
 10
-336.4766688247514
 20
243.8889750266513
 30
0.0
 11
-318.6766688247515
 21
243.8889750266513
 31
0.0
  0
LINE
  5
17F
330
7E
100
AcDbEntity
  8
0
  6
Continuous
 62
     0
100
AcDbLine
 10
-336.4766688247514
 20
244.6389750266513
 30
0.0
 11
-336.4766688247514
 21
243.8889750266513
 31
0.0
  0
LINE
  5
180
330
7E
100
AcDbEntity
  8
0
  6
Continuous
 62
     0
100
AcDbLine
 10
-318.6766688247515
 20
244.6389750266513
 30
0.0
 11
-318.6766688247515
 21
243.8889750266513
 31
0.0
  0
ENDBLK
  5
80
330
7E
100
AcDbEntity
  8
0
100
AcDbBlockEnd
  0
BLOCK
  5
1CC
330
1CB
100
AcDbEntity
  8
0
100
AcDbBlockBegin
  2
_Dot
 70
     0
 10
0.0
 20
0.0
 30
0.0
  3
_Dot
  1

  0
LWPOLYLINE
  5
1CE
330
1CB
100
AcDbEntity
  8
0
  6
ByBlock
 62
     0
100
AcDbPolyline
 90
        2
 70
     1
 43
0.5
 10
-0.25
 20
0.0
 42
1.0
 10
0.25
 20
0.0
 42
1.0
  0
LINE
  5
1CF
330
1CB
100
AcDbEntity
  8
0
  6
ByBlock
 62
     0
370
    -2
100
AcDbLine
 10
-0.5
 20
0.0
 30
0.0
 11
-1.0
 21
0.0
 31
0.0
  0
ENDBLK
  5
1CD
330
1CB
100
AcDbEntity
  8
0
100
AcDbBlockEnd
  0
BLOCK
  5
1D2
330
1D1
100
AcDbEntity
  8
0
100
AcDbBlockBegin
  2
*D7
 70
     1
 10
0.0
 20
0.0
 30
0.0
  3
*D7
  1

  0
LINE
  5
1D4
330
1D1
100
AcDbEntity
  8
0
 62
     0
370
    -2
100
AcDbLine
 10
-340.8666688247515
 20
66.48897502665133
 30
0.0
 11
-347.3256688247515
 21
66.48897502665133
 31
0.0
  0
LINE
  5
1D5
330
1D1
100
AcDbEntity
  8
0
 62
     0
370
    -2
100
AcDbLine
 10
-337.4936688247516
 20
75.03897502665127
 30
0.0
 11
-347.3256688247515
 21
75.03897502665127
 31
0.0
  0
LINE
  5
1D6
330
1D1
100
AcDbEntity
  8
0
 62
     0
370
    -2
100
AcDbLine
 10
-345.3256688247515
 20
66.48897502665133
 30
0.0
 11
-345.3256688247515
 21
20.73743873625673
 31
0.0
  0
LINE
  5
1D7
330
1D1
100
AcDbEntity
  8
0
 62
     0
370
    -2
100
AcDbLine
 10
-345.3256688247515
 20
67.48897502665133
 30
0.0
 11
-345.3256688247515
 21
74.03897502665127
 31
0.0
  0
INSERT
  5
1D8
330
1D1
100
AcDbEntity
  8
0
 62
     0
370
    -2
100
AcDbBlockReference
  2
_Dot
 10
-345.3256688247515
 20
66.48897502665133
 30
0.0
 50
270.0
  0
INSERT
  5
1D9
330
1D1
100
AcDbEntity
  8
0
 62
     0
370
    -2
100
AcDbBlockReference
  2
_Dot
 10
-345.3256688247515
 20
75.03897502665127
 30
0.0
 50
90.0
  0
MTEXT
  5
1DA
330
1D1
100
AcDbEntity
  8
0
 62
     0
100
AcDbMText
 10
-347.901426400509
 20
43.11320688145403
 30
0.0
 40
2.5
 41
0.0
 71
     5
 72
     1
  1
(フロア収納キャビネット)171
 11
0.0
 21
1.0
 31
0.0
 73
     1
 44
1.0
  0
POINT
  5
1DB
330
1D1
100
AcDbEntity
  8
Defpoints
 62
     0
100
AcDbPoint
 10
-338.3266688247514
 20
66.48897502665133
 30
0.0
  0
POINT
  5
1DC
330
1D1
100
AcDbEntity
  8
Defpoints
 62
     0
100
AcDbPoint
 10
-334.9536688247516
 20
75.03897502665127
 30
0.0
  0
POINT
  5
1DD
330
1D1
100
AcDbEntity
  8
Defpoints
 62
     0
100
AcDbPoint
 10
-345.3266688247514
 20
75.03897502665127
 30
0.0
  0
ENDBLK
  5
1D3
330
1D1
100
AcDbEntity
  8
0
100
AcDbBlockEnd
  0
BLOCK
  5
1E0
330
1DF
100
AcDbEntity
  8
0
100
AcDbBlockBegin
  2
*D8
 70
     1
 10
0.0
 20
0.0
 30
0.0
  3
*D8
  1

  0
LINE
  5
1E2
330
1DF
100
AcDbEntity
  8
0
 62
     0
370
    -2
100
AcDbLine
 10
-318.5766688247514
 20
63.94897502665133
 30
0.0
 11
-318.5766688247514
 21
57.48997502665133
 31
0.0
  0
LINE
  5
1E3
330
1DF
100
AcDbEntity
  8
0
 62
     0
370
    -2
100
AcDbLine
 10
-320.4266688247515
 20
72.27197502665126
 30
0.0
 11
-320.4266688247515
 21
57.48997502665133
 31
0.0
  0
LINE
  5
1E4
330
1DF
100
AcDbEntity
  8
0
 62
     0
370
    -2
100
AcDbLine
 10
-318.5766688247514
 20
59.48997502665133
 30
0.0
 11
-273.4917992010235
 21
59.48997502665133
 31
0.0
  0
LINE
  5
1E5
330
1DF
100
AcDbEntity
  8
0
 62
     0
370
    -2
100
AcDbLine
 10
-318.5766688247514
 20
59.48997502665133
 30
0.0
 11
-320.4266688247515
 21
59.48997502665133
 31
0.0
  0
LINE
  5
1E6
330
1DF
100
AcDbEntity
  8
0
 62
     0
370
    -2
100
AcDbLine
 10
-317.5766688247514
 20
59.48997502665133
 30
0.0
 11
-316.5766688247514
 21
59.48997502665133
 31
0.0
  0
LINE
  5
1E7
330
1DF
100
AcDbEntity
  8
0
 62
     0
370
    -2
100
AcDbLine
 10
-321.4266688247515
 20
59.48997502665133
 30
0.0
 11
-322.4266688247515
 21
59.48997502665133
 31
0.0
  0
INSERT
  5
1E8
330
1DF
100
AcDbEntity
  8
0
 62
     0
370
    -2
100
AcDbBlockReference
  2
_Dot
 10
-318.5766688247514
 20
59.48997502665133
 30
0.0
 50
180.0
  0
INSERT
  5
1E9
330
1DF
100
AcDbEntity
  8
0
 62
     0
370
    -2
100
AcDbBlockReference
  2
_Dot
 10
-320.4266688247515
 20
59.48997502665133
 30
0.0
  0
MTEXT
  5
1EA
330
1DF
100
AcDbEntity
  8
0
 62
     0
100
AcDbMText
 10
-295.0342340128875
 20
62.06573260240891
 30
0.0
 40
2.5
 41
0.0
 71
     5
 72
     1
  1
37(フロア収納キャビネット)
 73
     1
 44
1.0
  0
POINT
  5
1EB
330
1DF
100
AcDbEntity
  8
Defpoints
 62
     0
100
AcDbPoint
 10
-318.5766688247514
 20
66.48897502665133
 30
0.0
  0
POINT
  5
1EC
330
1DF
100
AcDbEntity
  8
Defpoints
 62
     0
100
AcDbPoint
 10
-320.4266688247515
 20
74.81197502665127
 30
0.0
  0
POINT
  5
1ED
330
1DF
100
AcDbEntity
  8
Defpoints
 62
     0
100
AcDbPoint
 10
-320.4266688247515
 20
59.48897502665133
 30
0.0
  0
ENDBLK
  5
1E1
330
1DF
100
AcDbEntity
  8
0
100
AcDbBlockEnd
  0
BLOCK
  5
1F0
330
1EF
100
AcDbEntity
  8
0
100
AcDbBlockBegin
  2
*D9
 70
     1
 10
0.0
 20
0.0
 30
0.0
  3
*D9
  1

  0
LINE
  5
1F2
330
1EF
100
AcDbEntity
  8
0
 62
     0
370
    -2
100
AcDbLine
 10
-334.7266688247514
 20
72.27197502665126
 30
0.0
 11
-334.7266688247514
 21
57.48997502665133
 31
0.0
  0
LINE
  5
1F3
330
1EF
100
AcDbEntity
  8
0
 62
     0
370
    -2
100
AcDbLine
 10
-333.7266688247514
 20
59.48997502665133
 30
0.0
 11
-321.4266688247515
 21
59.48997502665133
 31
0.0
  0
INSERT
  5
1F4
330
1EF
100
AcDbEntity
  8
0
 62
     0
370
    -2
100
AcDbBlockReference
  2
_Dot
 10
-334.7266688247514
 20
59.48997502665133
 30
0.0
 50
180.0
  0
INSERT
  5
1F5
330
1EF
100
AcDbEntity
  8
0
 62
     0
370
    -2
100
AcDbBlockReference
  2
_Dot
 10
-320.4266688247515
 20
59.48997502665133
 30
0.0
  0
MTEXT
  5
1F6
330
1EF
100
AcDbEntity
  8
0
 62
     0
100
AcDbMText
 10
-327.5756688247515
 20
61.36497502665133
 30
0.0
 40
2.5
 41
0.0
 71
     5
 72
     1
  1
286
 73
     1
 44
1.0
  0
POINT
  5
1F7
330
1EF
100
AcDbEntity
  8
Defpoints
 62
     0
100
AcDbPoint
 10
-334.7266688247514
 20
74.81197502665127
 30
0.0
  0
POINT
  5
1F8
330
1EF
100
AcDbEntity
  8
Defpoints
 62
     0
100
AcDbPoint
 10
-320.4266688247515
 20
74.81197502665127
 30
0.0
  0
POINT
  5
1F9
330
1EF
100
AcDbEntity
  8
Defpoints
 62
     0
100
AcDbPoint
 10
-320.4266688247515
 20
59.48897502665133
 30
0.0
  0
ENDBLK
  5
1F1
330
1EF
100
AcDbEntity
  8
0
100
AcDbBlockEnd
  0
BLOCK
  5
1FC
330
1FB
100
AcDbEntity
  8
0
100
AcDbBlockBegin
  2
*D10
 70
     1
 10
0.0
 20
0.0
 30
0.0
  3
*D10
  1

  0
LINE
  5
1FE
330
1FB
100
AcDbEntity
  8
0
 62
     0
370
    -2
100
AcDbLine
 10
-337.4936688247516
 20
100.5889750266513
 30
0.0
 11
-347.3256688247515
 21
100.5889750266513
 31
0.0
  0
LINE
  5
1FF
330
1FB
100
AcDbEntity
  8
0
 62
     0
370
    -2
100
AcDbLine
 10
-345.3256688247515
 20
76.03897502665127
 30
0.0
 11
-345.3256688247515
 21
99.58897502665126
 31
0.0
  0
INSERT
  5
200
330
1FB
100
AcDbEntity
  8
0
 62
     0
370
    -2
100
AcDbBlockReference
  2
_Dot
 10
-345.3256688247515
 20
75.03897502665127
 30
0.0
 50
270.0
  0
INSERT
  5
201
330
1FB
100
AcDbEntity
  8
0
 62
     0
370
    -2
100
AcDbBlockReference
  2
_Dot
 10
-345.3256688247515
 20
100.5889750266513
 30
0.0
 50
90.0
  0
MTEXT
  5
202
330
1FB
100
AcDbEntity
  8
0
 62
     0
100
AcDbMText
 10
-347.2006688247515
 20
87.81497502665127
 30
0.0
 40
2.5
 41
0.0
 71
     5
 72
     1
  1
511
 11
0.0
 21
1.0
 31
0.0
 73
     1
 44
1.0
  0
POINT
  5
203
330
1FB
100
AcDbEntity
  8
Defpoints
 62
     0
100
AcDbPoint
 10
-334.9536688247516
 20
75.03897502665127
 30
0.0
  0
POINT
  5
204
330
1FB
100
AcDbEntity
  8
Defpoints
 62
     0
100
AcDbPoint
 10
-334.9536688247516
 20
100.5889750266513
 30
0.0
  0
POINT
  5
205
330
1FB
100
AcDbEntity
  8
Defpoints
 62
     0
100
AcDbPoint
 10
-345.3266688247514
 20
100.5889750266513
 30
0.0
  0
ENDBLK
  5
1FD
330
1FB
100
AcDbEntity
  8
0
100
AcDbBlockEnd
  0
BLOCK
  5
208
330
207
100
AcDbEntity
  8
0
100
AcDbBlockBegin
  2
*D11
 70
     1
 10
0.0
 20
0.0
 30
0.0
  3
*D11
  1

  0
LINE
  5
20A
330
207
100
AcDbEntity
  8
0
 62
     0
370
    -2
100
AcDbLine
 10
-318.5766688247514
 20
70.29897502665126
 30
0.0
 11
-318.5766688247514
 21
52.48997502665133
 31
0.0
  0
LINE
  5
20B
330
207
100
AcDbEntity
  8
0
 62
     0
370
    -2
100
AcDbLine
 10
-336.5766688247514
 20
70.29897502665126
 30
0.0
 11
-336.5766688247514
 21
52.48997502665133
 31
0.0
  0
LINE
  5
20C
330
207
100
AcDbEntity
  8
0
 62
     0
370
    -2
100
AcDbLine
 10
-319.5766688247514
 20
54.48997502665133
 30
0.0
 11
-335.5766688247514
 21
54.48997502665133
 31
0.0
  0
INSERT
  5
20D
330
207
100
AcDbEntity
  8
0
 62
     0
370
    -2
100
AcDbBlockReference
  2
_Dot
 10
-318.5766688247514
 20
54.48997502665133
 30
0.0
  0
INSERT
  5
20E
330
207
100
AcDbEntity
  8
0
 62
     0
370
    -2
100
AcDbBlockReference
  2
_Dot
 10
-336.5766688247514
 20
54.48997502665133
 30
0.0
 50
180.0
  0
MTEXT
  5
20F
330
207
100
AcDbEntity
  8
0
 62
     0
100
AcDbMText
 10
-327.5746688247515
 20
56.36497502665133
 30
0.0
 40
2.5
 41
0.0
 71
     5
 72
     1
  1
360
 73
     1
 44
1.0
  0
POINT
  5
210
330
207
100
AcDbEntity
  8
Defpoints
 62
     0
100
AcDbPoint
 10
-318.5766688247514
 20
72.83897502665127
 30
0.0
  0
POINT
  5
211
330
207
100
AcDbEntity
  8
Defpoints
 62
     0
100
AcDbPoint
 10
-336.5766688247514
 20
72.83897502665127
 30
0.0
  0
POINT
  5
212
330
207
100
AcDbEntity
  8
Defpoints
 62
     0
100
AcDbPoint
 10
-336.5766688247514
 20
54.48897502665133
 30
0.0
  0
ENDBLK
  5
209
330
207
100
AcDbEntity
  8
0
100
AcDbBlockEnd
  0
BLOCK
  5
215
330
214
100
AcDbEntity
  8
0
100
AcDbBlockBegin
  2
*D12
 70
     1
 10
0.0
 20
0.0
 30
0.0
  3
*D12
  1

  0
LINE
  5
217
330
214
100
AcDbEntity
  8
0
 62
     0
370
    -2
100
AcDbLine
 10
-340.8666688247515
 20
66.48897502665133
 30
0.0
 11
-352.3256688247515
 21
66.48897502665133
 31
0.0
  0
LINE
  5
218
330
214
100
AcDbEntity
  8
0
 62
     0
370
    -2
100
AcDbLine
 10
-339.1166688247515
 20
102.7889750266513
 30
0.0
 11
-352.3256688247515
 21
102.7889750266513
 31
0.0
  0
LINE
  5
219
330
214
100
AcDbEntity
  8
0
 62
     0
370
    -2
100
AcDbLine
 10
-350.3256688247515
 20
67.48897502665133
 30
0.0
 11
-350.3256688247515
 21
101.7889750266513
 31
0.0
  0
INSERT
  5
21A
330
214
100
AcDbEntity
  8
0
 62
     0
370
    -2
100
AcDbBlockReference
  2
_Dot
 10
-350.3256688247515
 20
66.48897502665133
 30
0.0
 50
270.0
  0
INSERT
  5
21B
330
214
100
AcDbEntity
  8
0
 62
     0
370
    -2
100
AcDbBlockReference
  2
_Dot
 10
-350.3256688247515
 20
102.7889750266513
 30
0.0
 50
90.0
  0
MTEXT
  5
21C
330
214
100
AcDbEntity
  8
0
 62
     0
100
AcDbMText
 10
-352.2006688247515
 20
84.6399750266513
 30
0.0
 40
2.5
 41
0.0
 71
     5
 72
     1
  1
726
 11
0.0
 21
1.0
 31
0.0
 73
     1
 44
1.0
  0
POINT
  5
21D
330
214
100
AcDbEntity
  8
Defpoints
 62
     0
100
AcDbPoint
 10
-338.3266688247514
 20
66.48897502665133
 30
0.0
  0
POINT
  5
21E
330
214
100
AcDbEntity
  8
Defpoints
 62
     0
100
AcDbPoint
 10
-336.5766688247514
 20
102.7889750266513
 30
0.0
  0
POINT
  5
21F
330
214
100
AcDbEntity
  8
Defpoints
 62
     0
100
AcDbPoint
 10
-350.3266688247514
 20
102.7889750266513
 30
0.0
  0
ENDBLK
  5
216
330
214
100
AcDbEntity
  8
0
100
AcDbBlockEnd
  0
BLOCK
  5
222
330
221
100
AcDbEntity
  8
0
100
AcDbBlockBegin
  2
*D13
 70
     1
 10
0.0
 20
0.0
 30
0.0
  3
*D13
  1

  0
LINE
  5
226
330
221
100
AcDbEntity
  8
0
 62
     0
370
    -2
100
AcDbLine
 10
-336.5766688247514
 20
55.02897502665133
 30
0.0
 11
-336.5766688247514
 21
56.48897502665133
 31
0.0
  0
LINE
  5
227
330
221
100
AcDbEntity
  8
0
 62
     0
370
    -2
100
AcDbLine
 10
-338.3266688247514
 20
63.94897502665133
 30
0.0
 11
-338.3266688247514
 21
52.48897502665133
 31
0.0
  0
LINE
  5
228
330
221
100
AcDbEntity
  8
0
 62
     0
370
    -2
100
AcDbLine
 10
-336.5766688247514
 20
54.48897502665133
 30
0.0
 11
-338.3266688247514
 21
54.48897502665133
 31
0.0
  0
LINE
  5
229
330
221
100
AcDbEntity
  8
0
 62
     0
370
    -2
100
AcDbLine
 10
-335.5766688247514
 20
54.48897502665133
 30
0.0
 11
-334.5766688247514
 21
54.48897502665133
 31
0.0
  0
LINE
  5
22A
330
221
100
AcDbEntity
  8
0
 62
     0
370
    -2
100
AcDbLine
 10
-339.3266688247514
 20
54.48897502665133
 30
0.0
 11
-340.3266688247514
 21
54.48897502665133
 31
0.0
  0
INSERT
  5
22B
330
221
100
AcDbEntity
  8
0
 62
     0
370
    -2
100
AcDbBlockReference
  2
_Dot
 10
-336.5766688247514
 20
54.48897502665133
 30
0.0
 50
180.0
  0
INSERT
  5
22C
330
221
100
AcDbEntity
  8
0
 62
     0
370
    -2
100
AcDbBlockReference
  2
_Dot
 10
-338.3266688247514
 20
54.48897502665133
 30
0.0
  0
MTEXT
  5
22D
330
221
100
AcDbEntity
  8
0
 62
     0
100
AcDbMText
 10
-329.1487591693926
 20
49.48897502665132
 30
0.0
 40
3.0
 41
0.0
 71
     8
 72
     1
  1
30以上
 73
     1
 44
1.0
  0
POINT
  5
22E
330
221
100
AcDbEntity
  8
Defpoints
 62
     0
100
AcDbPoint
 10
-336.5766688247514
 20
52.48897502665133
 30
0.0
  0
POINT
  5
22F
330
221
100
AcDbEntity
  8
Defpoints
 62
     0
100
AcDbPoint
 10
-338.3266688247514
 20
66.48897502665133
 30
0.0
  0
POINT
  5
230
330
221
100
AcDbEntity
  8
Defpoints
 62
     0
100
AcDbPoint
 10
-338.3266688247514
 20
54.48897502665133
 30
0.0
  0
LINE
  5
231
330
221
100
AcDbEntity
  8
0
  6
Continuous
 62
     7
100
AcDbLine
 10
-337.4516688247514
 20
54.48897502665136
 30
0.0
 11
-334.5649174788033
 21
49.48897502665133
 31
0.0
  0
LINE
  5
232
330
221
100
AcDbEntity
  8
0
  6
Continuous
 62
     7
100
AcDbLine
 10
-334.5649174788033
 20
49.48897502665132
 30
0.0
 11
-323.5787589381266
 21
49.48897502665132
 31
0.0
  0
ENDBLK
  5
223
330
221
100
AcDbEntity
  8
0
100
AcDbBlockEnd
  0
ENDSEC
  0
SECTION
  2
ENTITIES
  0
LINE
  5
181
330
1F
100
AcDbEntity
  8
0
  6
Continuous
 62
     7
100
AcDbLine
 10
-140.0836396975999
 20
281.9691812816094
 30
0.0
 11
-140.0836396975999
 21
216.9691812816094
 31
0.0
  0
LINE
  5
182
330
1F
100
AcDbEntity
  8
0
  6
Continuous
 62
     7
100
AcDbLine
 10
-140.0836396976
 20
276.9691812816094
 30
0.0
 11
-15.08363969760002
 21
276.9691812816094
 31
0.0
  0
LINE
  5
183
330
1F
100
AcDbEntity
  8
0
  6
Continuous
 62
     7
100
AcDbLine
 10
-15.08363969760002
 20
281.9691812816094
 30
0.0
 11
-15.08363969760002
 21
216.9691812816094
 31
0.0
  0
LINE
  5
184
330
1F
100
AcDbEntity
  8
0
  6
Continuous
 62
     7
100
AcDbLine
 10
-140.0836396976
 20
216.9691812816094
 30
0.0
 11
-15.08363969760002
 21
216.9691812816094
 31
0.0
  0
LINE
  5
185
330
1F
100
AcDbEntity
  8
0
  6
Continuous
 62
     7
100
AcDbLine
 10
-140.0836396976
 20
281.9691812816094
 30
0.0
 11
-15.08363969760002
 21
281.9691812816094
 31
0.0
  0
LINE
  5
186
330
1F
100
AcDbEntity
  8
0
  6
Continuous
 62
     7
100
AcDbLine
 10
-90.08363969759995
 20
281.9691812816094
 30
0.0
 11
-90.08363969759995
 21
216.9691812816094
 31
0.0
  0
LINE
  5
187
330
1F
100
AcDbEntity
  8
0
  6
PHANTOM
 62
     7
100
AcDbLine
 10
-169.14240051083
 20
66.48897502665127
 30
0.0
 11
-169.14240051083
 21
168.9889750266512
 31
0.0
  0
LINE
  5
188
330
1F
100
AcDbEntity
  8
0
  6
Continuous
 62
     7
100
AcDbLine
 10
-186.847248519309
 20
68.08272502665106
 30
0.0
 11
-187.76740051083
 21
66.48897502665103
 31
0.0
  0
LINE
  5
189
330
1F
100
AcDbEntity
  8
0
  6
Continuous
 62
     7
100
AcDbLine
 10
-188.6875525023513
 20
68.08272502665122
 30
0.0
 11
-187.7674005108303
 21
66.48897502665119
 31
0.0
  0
LINE
  5
18A
330
1F
100
AcDbEntity
  8
0
  6
Continuous
 62
     7
100
AcDbLine
 10
-188.6875525023509
 20
68.08272502665088
 30
0.0
 11
-186.8472485193088
 21
68.08272502665088
 31
0.0
  0
LINE
  5
18B
330
1F
100
AcDbEntity
  8
0
  6
PHANTOM
 62
     7
100
AcDbLine
 10
-169.1424005108302
 20
168.9889750266513
 30
0.0
 11
-208.14240051083
 21
168.9889750266513
 31
0.0
  0
LINE
  5
18C
330
1F
100
AcDbEntity
  8
0
  6
PHANTOM
 62
     7
100
AcDbLine
 10
-208.14240051083
 20
66.48897502665133
 30
0.0
 11
-169.1424005108302
 21
66.48897502665133
 31
0.0
  0
LINE
  5
18D
330
1F
100
AcDbEntity
  8
0
  6
PHANTOM
 62
     7
100
AcDbLine
 10
-256.8266688247514
 20
168.9889750266513
 30
0.0
 11
-338.3266688247514
 21
168.9889750266513
 31
0.0
  0
LINE
  5
18E
330
1F
100
AcDbEntity
  8
0
  6
PHANTOM
 62
     7
100
AcDbLine
 10
-256.8266688247514
 20
251.2389750266513
 30
0.0
 11
-338.3266688247514
 21
251.2389750266513
 31
0.0
  0
LINE
  5
18F
330
1F
100
AcDbEntity
  8
0
  6
PHANTOM
 62
     7
100
AcDbLine
 10
-338.3266688247514
 20
212.2389750266512
 30
0.0
 11
-338.3266688247514
 21
251.2389750266512
 31
0.0
  0
LINE
  5
190
330
1F
100
AcDbEntity
  8
0
  6
PHANTOM
 62
     7
100
AcDbLine
 10
-338.3266688247514
 20
66.48897502665133
 30
0.0
 11
-256.8266688247514
 21
66.48897502665133
 31
0.0
  0
LINE
  5
191
330
1F
100
AcDbEntity
  8
0
  6
PHANTOM
 62
     7
100
AcDbLine
 10
-338.3266688247514
 20
168.9889750266513
 30
0.0
 11
-338.3266688247514
 21
66.48897502665133
 31
0.0
  0
LINE
  5
192
330
1F
100
AcDbEntity
  8
0
  6
Continuous
 62
     7
100
AcDbLine
 10
-318.5766688247514
 20
64.19897502665128
 30
0.0
 11
-318.5766688247514
 21
57.13558600974666
 31
0.0
  0
LINE
  5
193
330
1F
100
AcDbEntity
  8
0
  6
PHANTOM
 62
     7
100
AcDbLine
 10
-256.8266688247514
 20
212.2389750266512
 30
0.0
 11
-256.8266688247514
 21
251.2389750266512
 31
0.0
  0
LINE
  5
194
330
1F
100
AcDbEntity
  8
0
  6
PHANTOM
 62
     7
100
AcDbLine
 10
-256.8266688247514
 20
212.2389750266513
 30
0.0
 11
-338.3266688247514
 21
212.2389750266513
 31
0.0
  0
LINE
  5
195
330
1F
100
AcDbEntity
  8
0
  6
PHANTOM
 62
     7
100
AcDbLine
 10
-256.8266688247514
 20
168.9889750266513
 30
0.0
 11
-256.8266688247514
 21
66.48897502665133
 31
0.0
  0
LINE
  5
196
330
1F
100
AcDbEntity
  8
0
  6
PHANTOM
 62
     7
100
AcDbLine
 10
-208.14240051083
 20
66.48897502665127
 30
0.0
 11
-208.14240051083
 21
168.9889750266512
 31
0.0
  0
LINE
  5
197
330
1F
100
AcDbEntity
  8
0
  6
Continuous
 62
     7
100
AcDbLine
 10
-295.8912749899733
 20
68.08272502665088
 30
0.0
 11
-294.0509710069313
 21
68.08272502665088
 31
0.0
  0
LINE
  5
198
330
1F
100
AcDbEntity
  8
0
  6
Continuous
 62
     7
100
AcDbLine
 10
-295.8912749899735
 20
68.0827250266513
 30
0.0
 11
-294.9711229984525
 21
66.4889750266513
 31
0.0
  0
LINE
  5
199
330
1F
100
AcDbEntity
  8
0
  6
Continuous
 62
     7
100
AcDbLine
 10
-294.0509710069313
 20
68.08272502665098
 30
0.0
 11
-294.9711229984523
 21
66.48897502665085
 31
0.0
  0
LINE
  5
19A
330
1F
100
AcDbEntity
  8
0
  6
Continuous
 62
     7
100
AcDbLine
 10
-336.6829320389258
 20
228.1879869024245
 30
0.0
 11
-338.2766820389257
 21
227.2678349109036
 31
0.0
  0
LINE
  5
19B
330
1F
100
AcDbEntity
  8
0
  6
Continuous
 62
     7
100
AcDbLine
 10
-336.6829320389255
 20
226.3476829193838
 30
0.0
 11
-338.2766820389254
 21
227.2678349109047
 31
0.0
  0
LINE
  5
19C
330
1F
100
AcDbEntity
  8
0
  6
Continuous
 62
     7
100
AcDbLine
 10
-336.682932038926
 20
226.3476829193823
 30
0.0
 11
-336.682932038926
 21
228.1879869024243
 31
0.0
  0
LINE
  5
19D
330
1F
100
AcDbEntity
  8
0
  6
Continuous
 62
     7
100
AcDbLine
 10
-170.7861372966561
 20
158.097682919384
 30
0.0
 11
-169.1923872966562
 21
159.0178349109049
 31
0.0
  0
LINE
  5
19E
330
1F
100
AcDbEntity
  8
0
  6
Continuous
 62
     7
100
AcDbLine
 10
-170.7861372966555
 20
158.0976829193823
 30
0.0
 11
-170.7861372966555
 21
159.9379869024243
 31
0.0
  0
LINE
  5
19F
330
1F
100
AcDbEntity
  8
0
  6
Continuous
 62
     7
100
AcDbLine
 10
-170.7861372966557
 20
159.9379869024246
 30
0.0
 11
-169.1923872966558
 21
159.0178349109037
 31
0.0
  0
LINE
  5
1A0
330
1F
100
AcDbEntity
  8
0
  6
Continuous
 62
     7
100
AcDbLine
 10
-336.7329188247518
 20
159.9379869024247
 30
0.0
 11
-338.3266688247518
 21
159.0178349109038
 31
0.0
  0
LINE
  5
1A1
330
1F
100
AcDbEntity
  8
0
  6
Continuous
 62
     7
100
AcDbLine
 10
-336.7329188247515
 20
158.097682919384
 30
0.0
 11
-338.3266688247514
 21
159.0178349109049
 31
0.0
  0
LINE
  5
1A2
330
1F
100
AcDbEntity
  8
0
  6
Continuous
 62
     7
100
AcDbLine
 10
-336.7329188247521
 20
158.0976829193825
 30
0.0
 11
-336.7329188247521
 21
159.9379869024245
 31
0.0
  0
MTEXT
  5
1A3
330
1F
100
AcDbEntity
  8
0
 62
     7
100
AcDbMText
 10
-132.7580623940555
 20
251.0755148882407
 30
0.0
 40
3.0
 41
0.0
 71
     7
 72
     1
  1
{\W0.833333;給排水位置}
 73
     1
 44
1.0
  0
MTEXT
  5
1A4
330
1F
100
AcDbEntity
  8
0
 62
     7
100
AcDbMText
 10
-137.6770292834369
 20
273.0755148882408
 30
0.0
 40
3.0
 41
0.0
 71
     7
 72
     1
  1
{\W0.707114;ULRＢＮＬＮ＊＊＊＊＊＊＊＊＊}
 73
     1
 44
1.0
  0
MTEXT
  5
1A5
330
1F
100
AcDbEntity
  8
0
 62
     7
100
AcDbMText
 10
-132.7580623940555
 20
263.0755148882408
 30
0.0
 40
3.0
 41
0.0
 71
     7
 72
     1
  1
{\W0.833333;手洗器}
 73
     1
 44
1.0
  0
MTEXT
  5
1A6
330
1F
100
AcDbEntity
  8
0
 62
     7
100
AcDbMText
 10
-87.7580623940555
 20
273.0755148882408
 30
0.0
 40
3.0
 41
0.0
 71
     7
 72
     1
  1
{\W0.833333;コンフォートシリーズ　Ｓサイズ}
 73
     1
 44
1.0
  0
MTEXT
  5
1A7
330
1F
100
AcDbEntity
  8
0
 62
     7
100
AcDbMText
 10
-87.65781974950708
 20
267.0755148882408
 30
0.0
 40
3.0
 41
0.0
 71
     7
 72
     1
  1
{\W0.677192;単体キャビネット}
 73
     1
 44
1.0
  0
MTEXT
  5
1A8
330
1F
100
AcDbEntity
  8
0
 62
     7
100
AcDbMText
 10
-139.3058079473632
 20
283.0460172941379
 30
0.0
 40
3.0
 41
0.0
 71
     7
 72
     1
  1
{\W0.833333;仕様一覧}
 73
     1
 44
1.0
  0
MTEXT
  5
1A9
330
1F
100
AcDbEntity
  8
0
 62
     7
100
AcDbMText
 10
-132.7580623940555
 20
267.0755148882408
 30
0.0
 40
3.0
 41
0.0
 71
     7
 72
     1
  1
{\W0.833333;タイプ}
 73
     1
 44
1.0
  0
MTEXT
  5
1AA
330
1F
100
AcDbEntity
  8
0
 62
     7
100
AcDbMText
 10
-87.7580623940555
 20
223.0755148882407
 30
0.0
 40
3.0
 41
0.0
 71
     7
 72
     1
  1
{\W0.833333;＊＊＊}
 73
     1
 44
1.0
  0
MTEXT
  5
1AB
330
1F
100
AcDbEntity
  8
0
 62
     7
100
AcDbMText
 10
-87.7580623940555
 20
219.0755148882407
 30
0.0
 40
3.0
 41
0.0
 71
     7
 72
     1
  1
{\W0.833333;なし}
 73
     1
 44
1.0
  0
MTEXT
  5
1AC
330
1F
100
AcDbEntity
  8
0
 62
     7
100
AcDbMText
 10
-132.7580623940555
 20
219.0755148882407
 30
0.0
 40
3.0
 41
0.0
 71
     7
 72
     1
  1
{\W0.833333;カウンターカラー}
 73
     1
 44
1.0
  0
MTEXT
  5
1AD
330
1F
100
AcDbEntity
  8
0
 62
     7
100
AcDbMText
 10
-132.7580623940555
 20
223.0755148882407
 30
0.0
 40
3.0
 41
0.0
 71
     7
 72
     1
  1
{\W0.833333;キャビネットカラー}
 73
     1
 44
1.0
  0
MTEXT
  5
1AE
330
1F
100
AcDbEntity
  8
0
 62
     7
100
AcDbMText
 10
-132.7580623940555
 20
227.0755148882407
 30
0.0
 40
3.0
 41
0.0
 71
     7
 72
     1
  1
{\W0.833333;手洗器カラー}
 73
     1
 44
1.0
  0
MTEXT
  5
1AF
330
1F
100
AcDbEntity
  8
0
 62
     7
100
AcDbMText
 10
-132.7580623940555
 20
231.0755148882407
 30
0.0
 40
3.0
 41
0.0
 71
     7
 72
     1
  1
{\W0.833333;アクセントパネル}
 73
     1
 44
1.0
  0
MTEXT
  5
1B0
330
1F
100
AcDbEntity
  8
0
 62
     7
100
AcDbMText
 10
-132.7580623940555
 20
235.0755148882407
 30
0.0
 40
3.0
 41
0.0
 71
     7
 72
     1
  1
{\W0.833333;化粧鏡}
 73
     1
 44
1.0
  0
MTEXT
  5
1B1
330
1F
100
AcDbEntity
  8
0
 62
     7
100
AcDbMText
 10
-132.7580623940555
 20
239.0755148882407
 30
0.0
 40
3.0
 41
0.0
 71
     7
 72
     1
  1
{\W0.833333;手すり}
 73
     1
 44
1.0
  0
MTEXT
  5
1B2
330
1F
100
AcDbEntity
  8
0
 62
     7
100
AcDbMText
 10
-87.7580623940555
 20
235.0755148882407
 30
0.0
 40
3.0
 41
0.0
 71
     7
 72
     1
  1
{\W0.833333;なし（ありの場合は単品図を参照ください）}
 73
     1
 44
1.0
  0
MTEXT
  5
1B3
330
1F
100
AcDbEntity
  8
0
 62
     7
100
AcDbMText
 10
-87.7580623940555
 20
231.0755148882407
 30
0.0
 40
3.0
 41
0.0
 71
     7
 72
     1
  1
{\W0.833333;なし}
 73
     1
 44
1.0
  0
MTEXT
  5
1B4
330
1F
100
AcDbEntity
  8
0
 62
     7
100
AcDbMText
 10
-132.7580623940555
 20
259.0755148882408
 30
0.0
 40
3.0
 41
0.0
 71
     7
 72
     1
  1
{\W0.833333;手洗器位置}
 73
     1
 44
1.0
  0
MTEXT
  5
1B5
330
1F
100
AcDbEntity
  8
0
 62
     7
100
AcDbMText
 10
-87.7580623940555
 20
259.0755148882408
 30
0.0
 40
3.0
 41
0.0
 71
     7
 72
     1
  1
{\W0.833333;左勝手}
 73
     1
 44
1.0
  0
MTEXT
  5
1B6
330
1F
100
AcDbEntity
  8
0
 62
     7
100
AcDbMText
 10
-132.7580623940555
 20
243.0755148882407
 30
0.0
 40
3.0
 41
0.0
 71
     7
 72
     1
  1
{\W0.833333;タオル掛け}
 73
     1
 44
1.0
  0
MTEXT
  5
1B7
330
1F
100
AcDbEntity
  8
0
 62
     7
100
AcDbMText
 10
-132.7580623940555
 20
247.0755148882407
 30
0.0
 40
3.0
 41
0.0
 71
     7
 72
     1
  1
{\W0.833333;紙巻器}
 73
     1
 44
1.0
  0
MTEXT
  5
1B8
330
1F
100
AcDbEntity
  8
0
 62
     7
100
AcDbMText
 10
-87.7580623940555
 20
251.0755148882407
 30
0.0
 40
3.0
 41
0.0
 71
     7
 72
     1
  1
{\W0.833333;なし}
 73
     1
 44
1.0
  0
MTEXT
  5
1B9
330
1F
100
AcDbEntity
  8
0
 62
     7
100
AcDbMText
 10
-87.7580623940555
 20
247.0755148882407
 30
0.0
 40
3.0
 41
0.0
 71
     7
 72
     1
  1
{\W0.833333;なし}
 73
     1
 44
1.0
  0
MTEXT
  5
1BA
330
1F
100
AcDbEntity
  8
0
 62
     7
100
AcDbMText
 10
-87.7580623940555
 20
263.0755148882408
 30
0.0
 40
3.0
 41
0.0
 71
     7
 72
     1
  1
{\W0.833333;なし}
 73
     1
 44
1.0
  0
MTEXT
  5
1BB
330
1F
100
AcDbEntity
  8
0
 62
     7
100
AcDbMText
 10
-87.7580623940555
 20
239.0755148882407
 30
0.0
 40
3.0
 41
0.0
 71
     7
 72
     1
  1
{\W0.833333;なし}
 73
     1
 44
1.0
  0
MTEXT
  5
1BC
330
1F
100
AcDbEntity
  8
0
 62
     7
100
AcDbMText
 10
-87.7580623940555
 20
255.0755148882408
 30
0.0
 40
3.0
 41
0.0
 71
     7
 72
     1
  1
{\W0.833333;なし}
 73
     1
 44
1.0
  0
MTEXT
  5
1BD
330
1F
100
AcDbEntity
  8
0
 62
     7
100
AcDbMText
 10
-87.7580623940555
 20
243.0755148882407
 30
0.0
 40
3.0
 41
0.0
 71
     7
 72
     1
  1
{\W0.833333;なし}
 73
     1
 44
1.0
  0
MTEXT
  5
1BE
330
1F
100
AcDbEntity
  8
0
 62
     7
100
AcDbMText
 10
-87.7580623940555
 20
227.0755148882407
 30
0.0
 40
3.0
 41
0.0
 71
     7
 72
     1
  1
{\W0.833333;なし}
 73
     1
 44
1.0
  0
MTEXT
  5
1BF
330
1F
100
AcDbEntity
  8
0
 62
     7
100
AcDbMText
 10
-132.7580623940555
 20
255.0755148882408
 30
0.0
 40
3.0
 41
0.0
 71
     7
 72
     1
  1
{\W0.833333;水栓金具}
 73
     1
 44
1.0
  0
MTEXT
  5
1C0
330
1F
100
AcDbEntity
  8
0
 62
     7
100
AcDbMText
 10
-52.58363969759998
 20
279.4691812816094
 30
0.0
 40
3.0
 41
0.0
 71
     5
 72
     1
  1
{\W0.833333;詳　細}
 73
     1
 44
1.0
  0
MTEXT
  5
1C1
330
1F
100
AcDbEntity
  8
0
 62
     7
100
AcDbMText
 10
-115.0836396975999
 20
279.4691812816094
 30
0.0
 40
3.0
 41
0.0
 71
     5
 72
     1
  1
{\W0.833333;品　番}
 73
     1
 44
1.0
  0
MTEXT
  5
1C2
330
1F
100
AcDbEntity
  8
0
 62
     7
100
AcDbMText
 10
-187.7674005108299
 20
69.48897502665088
 30
0.0
 40
1.909999966621399
 41
0.0
 71
     5
 72
     1
  1
{\W0.691099;F.L}
 73
     1
 44
1.0
  0
MTEXT
  5
1C3
330
1F
100
AcDbEntity
  8
0
 62
     7
100
AcDbMText
 10
-294.9711229984526
 20
69.48897502665088
 30
0.0
 40
1.909999966621399
 41
0.0
 71
     5
 72
     1
  1
{\W0.691099;F.L}
 73
     1
 44
1.0
  0
MTEXT
  5
1C4
330
1F
100
AcDbEntity
  8
0
 62
     7
100
AcDbMText
 10
-333.6184139041388
 20
227.3475873294289
 30
0.0
 40
2.5
 41
0.0
 71
     5
 72
     1
  1
{\W0.575916;W.L}
 73
     1
 44
1.0
  0
MTEXT
  5
1C5
330
1F
100
AcDbEntity
  8
0
 62
     7
100
AcDbMText
 10
-173.8506554314427
 20
159.0975873294289
 30
0.0
 40
2.5
 41
0.0
 71
     5
 72
     1
  1
{\W0.575916;W.L}
 73
     1
 44
1.0
  0
MTEXT
  5
1C6
330
1F
100
AcDbEntity
  8
0
 62
     7
100
AcDbMText
 10
-333.6684006899648
 20
159.0975873294291
 30
0.0
 40
2.5
 41
0.0
 71
     5
 72
     1
  1
{\W0.575916;W.L}
 73
     1
 44
1.0
  0
INSERT
  5
1C7
330
1F
100
AcDbEntity
  8
0
 62
     7
100
AcDbBlockReference
  2
VIS-ULRBNLN0002
 10
0.0
 20
0.0
 30
0.0
  0
INSERT
  5
1C8
330
1F
100
AcDbEntity
  8
0
 62
     7
100
AcDbBlockReference
  2
VIS-ULRBNLN0003
 10
0.0
 20
0.0
 30
0.0
  0
INSERT
  5
1C9
330
1F
100
AcDbEntity
  8
0
 62
     7
100
AcDbBlockReference
  2
VIS-ULRBNLN0004
 10
0.0
 20
0.0
 30
0.0
  0
DIMENSION
  5
1CA
330
1F
100
AcDbEntity
  8
0
 62
     7
100
AcDbDimension
  2
*D7
 10
-345.3256688247515
 20
75.03897502665127
 30
0.0
 11
-345.3256688247515
 21
43.11320688145403
 31
0.0
 70
   160
  1
(フロア収納キャビネット)171
 71
     5
 42
8.54999999999994
  3
ISO-25
100
AcDbAlignedDimension
 13
-338.3266688247514
 23
66.48897502665133
 33
0.0
 14
-334.9536688247516
 24
75.03897502665127
 34
0.0
 50
270.0
100
AcDbRotatedDimension
1001
ACAD
1000
DSTYLE
1002
{
1070
   278
1070
    46
1070
   147
1040
0.625
1070
    77
1070
     1
1070
    74
1070
     0
1070
    73
1070
     0
1070
    42
1040
2.54
1070
    44
1040
2.0
1070
    76
1070
     0
1070
    75
1070
     0
1070
   279
1070
     0
1070
   271
1070
     0
1070
   173
1070
     1
1070
    41
1040
1.0
1070
   140
1040
2.5
1070
   344
1005
1CB
1070
   343
1005
1CB
1002
}
  0
DIMENSION
  5
1DE
330
1F
100
AcDbEntity
  8
0
 62
     7
100
AcDbDimension
  2
*D8
 10
-320.4266688247515
 20
59.48997502665133
 30
0.0
 11
-295.0342340128875
 21
59.48997502665133
 31
0.0
 70
   160
  1
37(フロア収納キャビネット)
 71
     5
 42
1.850000000000023
  3
ISO-25
100
AcDbAlignedDimension
 13
-318.5766688247514
 23
66.48897502665133
 33
0.0
 14
-320.4266688247515
 24
74.81197502665127
 34
0.0
100
AcDbRotatedDimension
1001
ACAD
1000
DSTYLE
1002
{
1070
   278
1070
    46
1070
   147
1040
0.625
1070
    77
1070
     1
1070
    74
1070
     0
1070
    73
1070
     0
1070
    42
1040
2.54
1070
    44
1040
2.0
1070
    76
1070
     0
1070
    75
1070
     0
1070
   279
1070
     0
1070
   271
1070
     0
1070
   173
1070
     1
1070
    41
1040
1.0
1070
   140
1040
2.5
1070
   344
1005
1CB
1070
   343
1005
1CB
1002
}
  0
DIMENSION
  5
1EE
330
1F
100
AcDbEntity
  8
0
 62
     7
100
AcDbDimension
  2
*D9
 10
-320.4266688247515
 20
59.48997502665133
 30
0.0
 11
-327.5756688247515
 21
59.48997502665133
 31
0.0
 70
   160
  1
286
 71
     5
 42
14.29999999999995
  3
ISO-25
100
AcDbAlignedDimension
 13
-334.7266688247514
 23
74.81197502665127
 33
0.0
 14
-320.4266688247515
 24
74.81197502665127
 34
0.0
 50
180.0
100
AcDbRotatedDimension
1001
ACAD
1000
DSTYLE
1002
{
1070
   278
1070
    46
1070
   147
1040
0.625
1070
    77
1070
     1
1070
    74
1070
     0
1070
    73
1070
     0
1070
    42
1040
2.54
1070
    44
1040
2.0
1070
    76
1070
     1
1070
    75
1070
     0
1070
   279
1070
     0
1070
   271
1070
     0
1070
   173
1070
     1
1070
    41
1040
1.0
1070
   140
1040
2.5
1070
   344
1005
1CB
1070
   343
1005
1CB
1002
}
  0
DIMENSION
  5
1FA
330
1F
100
AcDbEntity
  8
0
 62
     7
100
AcDbDimension
  2
*D10
 10
-345.3256688247515
 20
100.5889750266513
 30
0.0
 11
-345.3256688247515
 21
87.81497502665127
 31
0.0
 70
   160
  1
511
 71
     5
 42
25.54999999999998
  3
ISO-25
100
AcDbAlignedDimension
 13
-334.9536688247516
 23
75.03897502665127
 33
0.0
 14
-334.9536688247516
 24
100.5889750266513
 34
0.0
 50
270.0
100
AcDbRotatedDimension
1001
ACAD
1000
DSTYLE
1002
{
1070
   278
1070
    46
1070
   147
1040
0.625
1070
    77
1070
     1
1070
    74
1070
     0
1070
    73
1070
     0
1070
    42
1040
2.54
1070
    44
1040
2.0
1070
    76
1070
     0
1070
    75
1070
     1
1070
   279
1070
     0
1070
   271
1070
     0
1070
   173
1070
     1
1070
    41
1040
1.0
1070
   140
1040
2.5
1070
   344
1005
1CB
1070
   343
1005
1CB
1002
}
  0
DIMENSION
  5
206
330
1F
100
AcDbEntity
  8
0
 62
     7
100
AcDbDimension
  2
*D11
 10
-336.5766688247514
 20
54.48997502665133
 30
0.0
 11
-327.5746688247515
 21
54.48997502665133
 31
0.0
 70
   160
  1
360
 71
     5
 42
17.99999999999994
  3
ISO-25
100
AcDbAlignedDimension
 13
-318.5766688247514
 23
72.83897502665127
 33
0.0
 14
-336.5766688247514
 24
72.83897502665127
 34
0.0
100
AcDbRotatedDimension
1001
ACAD
1000
DSTYLE
1002
{
1070
   278
1070
    46
1070
   147
1040
0.625
1070
    77
1070
     1
1070
    74
1070
     0
1070
    73
1070
     0
1070
    42
1040
2.54
1070
    44
1040
2.0
1070
    76
1070
     0
1070
    75
1070
     0
1070
   279
1070
     0
1070
   271
1070
     0
1070
   173
1070
     1
1070
    41
1040
1.0
1070
   140
1040
2.5
1070
   344
1005
1CB
1070
   343
1005
1CB
1002
}
  0
DIMENSION
  5
213
330
1F
100
AcDbEntity
  8
0
 62
     7
100
AcDbDimension
  2
*D12
 10
-350.3256688247515
 20
102.7889750266513
 30
0.0
 11
-350.3256688247515
 21
84.6399750266513
 31
0.0
 70
   160
  1
726
 71
     5
 42
36.29999999999993
  3
ISO-25
100
AcDbAlignedDimension
 13
-338.3266688247514
 23
66.48897502665133
 33
0.0
 14
-336.5766688247514
 24
102.7889750266513
 34
0.0
 50
270.0
100
AcDbRotatedDimension
1001
ACAD
1000
DSTYLE
1002
{
1070
   278
1070
    46
1070
   147
1040
0.625
1070
    77
1070
     1
1070
    74
1070
     0
1070
    73
1070
     0
1070
    42
1040
2.54
1070
    44
1040
2.0
1070
    76
1070
     0
1070
    75
1070
     0
1070
   279
1070
     0
1070
   271
1070
     0
1070
   173
1070
     1
1070
    41
1040
1.0
1070
   140
1040
2.5
1070
   344
1005
1CB
1070
   343
1005
1CB
1002
}
  0
DIMENSION
  5
220
330
1F
100
AcDbEntity
  8
0
 62
     7
100
AcDbDimension
  2
*D13
 10
-338.3266688247514
 20
54.48897502665133
 30
0.0
 11
-329.1487591693926
 21
49.48997502665132
 31
0.0
 70
   160
  1
30以上
 71
     5
 42
1.750000000000057
  3
ISO-25
100
AcDbAlignedDimension
 13
-336.5766688247514
 23
52.48897502665133
 33
0.0
 14
-338.3266688247514
 24
66.48897502665133
 34
0.0
100
AcDbRotatedDimension
1001
ACAD
1000
DSTYLE
1002
{
1070
   278
1070
    46
1070
   147
1040
0.75
1070
    77
1070
     1
1070
    74
1070
     0
1070
    73
1070
     0
1070
    42
1040
2.54
1070
    44
1040
2.0
1070
    76
1070
     0
1070
    75
1070
     0
1070
   279
1070
     1
1070
   271
1070
     0
1070
   173
1070
     1
1070
    41
1040
1.0
1070
   140
1040
3.0
1070
   344
1005
1CB
1070
   343
1005
1CB
1002
}
  0
MTEXT
  5
234
102
{ACAD_XDICTIONARY
360
252
102
}
330
1F
100
AcDbEntity
  8
AV
 62
     7
100
AcDbMText
 10
-156.2928571428571
 20
25.51667185549886
 30
0.0
 40
3.0
 41
2.311200113296509
 71
     5
 72
     1
  1
{\fＭＳ Ｐゴシック|b0|i0|c0|p0;\W0.83333x;\U+5185}\P{\fＭＳ Ｐゴシック|b0|i0|c0|p0;\W0.83333x;\U+5C71}
 73
     1
 44
0.735
  0
MTEXT
  5
235
102
{ACAD_XDICTIONARY
360
254
102
}
330
1F
100
AcDbEntity
  8
AV
 62
     7
100
AcDbMText
 10
-139.2159678114442
 20
25.51667185549886
 30
0.0
 40
3.0
 41
2.311200113296509
 71
     5
 72
     1
  1
{\fＭＳ Ｐゴシック|b0|i0|c0|p0;\W0.43775; }{\fＭＳ Ｐゴシック|b0|i0|c0|p0;\W0.83333x;\U+6A4B}\P{\fＭＳ Ｐゴシック|b0|i0|c0|p0;\W0.34838; }{\fＭＳ Ｐゴシック|b0|i0|c0|p0;\W0.83333x;\U+672C}
 73
     1
 44
0.735
  0
MTEXT
  5
236
102
{ACAD_XDICTIONARY
360
256
102
}
330
1F
100
AcDbEntity
  8
AV
 62
     7
100
AcDbMText
 10
-133.2928571428571
 20
25.51667185549886
 30
0.0
 40
3.0
 41
2.311200113296509
 71
     5
 72
     1
  1
{\fＭＳ Ｐゴシック|b0|i0|c0|p0;\W0.83333x;\U+6B66}\P{\fＭＳ Ｐゴシック|b0|i0|c0|p0;\W0.31596; }{\fＭＳ Ｐゴシック|b0|i0|c0|p0;\W0.83333x;\U+85E4}
 73
     1
 44
0.735
  0
MTEXT
  5
237
330
1F
100
AcDbEntity
  8
AV
 62
     7
100
AcDbMText
 10
-103.5
 20
23.83332834963949
 30
0.0
 40
2.700000047683716
 41
0.0
 71
     5
 72
     1
  1
{\W0.833333;1:20}
 73
     1
 44
1.0
  0
MTEXT
  5
238
330
1F
100
AcDbEntity
  8
AV
 62
     7
100
AcDbMText
 10
-120.5
 20
23.83332834963949
 30
0.0
 40
2.700000047683716
 41
0.0
 71
     5
 72
     1
  1
{\W0.617284;19.12.02}
 73
     1
 44
1.0
  0
MTEXT
  5
239
330
1F
100
AcDbEntity
  8
AV
 62
     7
100
AcDbMText
 10
-52.5
 20
25.50000010256917
 30
0.0
 40
2.700000047683716
 41
0.0
 71
     5
 72
     1
  1
{\W0.833333;ULRＢＮＬＮ＊＊＊＊＊＊＊＊＊}
 73
     1
 44
1.0
  0
MTEXT
  5
23A
102
{ACAD_XDICTIONARY
360
258
102
}
330
1F
100
AcDbEntity
  8
AV
 62
     7
100
AcDbMText
 10
-48.72857141494751
 20
35.83333597903402
 30
0.0
 40
2.700000047683716
 41
77.89607979297638
 71
     5
 72
     1
  1
{\fＭＳ Ｐゴシック|b0|i0|c0|p0;\W0.83333x;\U+30EC\U+30B9\U+30C8\U+30EB\U+30FC\U+30E0\U+30C9\U+30EC\U+30C3\U+30B5\U+30FC\U+3000\U+30B3\U+30F3\U+30D5\U+30A9\U+30FC\U+30C8\U+30B7\U+30EA\U+30FC\U+30BA\U+3000\U+FF33\U+30B5\U+30A4\U+30BA}\P{\fＭＳ Ｐゴシック|b0|i0|c0|p0;\W0.83333x;\U+5358\U+4F53\U+30AD\U+30E3\U+30D3\U+30CD\U+30C3\U+30C8}
 73
     1
 44
0.734999995364083
  0
MTEXT
  5
23B
330
1F
100
AcDbEntity
  8
AV
 62
     7
100
AcDbMText
 10
9.554582314814496
 20
32.52979792226297
 30
0.0
 40
3.0
 41
0.0
 71
     7
 72
     1
  1
{\W0.833333;レストルームドレッサー　コンフォートシリーズ}
 73
     1
 44
1.0
  0
MTEXT
  5
23C
330
1F
100
AcDbEntity
  8
AV
 62
     7
100
AcDbMText
 10
9.33367764550298
 20
28.54429621401644
 30
0.0
 40
3.0
 41
0.0
 71
     7
 72
     1
  1
{\W0.833333;レストルームドレッサー　プレミアムシリーズ}
 73
     1
 44
1.0
  0
MTEXT
  5
23D
102
{ACAD_XDICTIONARY
360
25A
102
}
330
1F
100
AcDbEntity
  8
AV
 62
     7
100
AcDbMText
 10
9.605388477289793
 20
16.16468209219901
 30
0.0
 40
3.0
 41
50.91120204448701
 71
     7
 72
     1
  1
{\W0.83333x;ULN*}{\fＭＳ Ｐゴシック|b0|i0|c0|p0;\W0.83333x;\U+FF0A\U+FF0A\U+FF0A\U+FF0A\U+FF0A\U+FF0A\U+FF0A\U+FF0A\U+FF0A\U+FF0A\U+FF0A\U+FF0A}\P{\W0.83333x;ULP}{\fＭＳ Ｐゴシック|b0|i0|c0|p0;\W0.83333x;\U+FF0A\U+FF0A\U+FF0A\U+FF0A\U+FF0A\U+FF0A}
 73
     1
 44
0.7875
  0
MTEXT
  5
23E
330
1F
100
AcDbEntity
  8
AV
 62
     7
100
AcDbMText
 10
9.741243893183196
 20
9.388682573046474
 30
0.0
 40
3.0
 41
0.0
 71
     7
 72
     1
  1
{\W0.833333;ULR＊＊＊＊＊＊＊＊＊}
 73
     1
 44
1.0
  0
MTEXT
  5
23F
330
1F
100
AcDbEntity
  8
AV
 62
     7
100
AcDbMText
 10
-132.0
 20
15.16666374926717
 30
0.0
 40
2.700000047683716
 41
0.0
 71
     5
 72
     1
  1
{\W0.833333;ねじ固定位置詳細図}
 73
     1
 44
1.0
  0
MTEXT
  5
240
330
1F
100
AcDbEntity
  8
AV
 62
     7
100
AcDbMText
 10
-52.5
 20
15.1666565967098
 30
0.0
 40
2.700000047683716
 41
0.0
 71
     5
 72
     1
  1
{\W0.833333;VIS-ULRＢＮＬＮ}
 73
     1
 44
1.0
  0
MTEXT
  5
241
330
1F
100
AcDbEntity
  8
AV
 62
     7
100
AcDbMText
 10
10.04598388166415
 20
1.914288909318874
 30
0.0
 40
3.0
 41
0.0
 71
     7
 72
     1
  1
{\W0.833333;VIS-ULR＊＊＊＊＊＊＊＊＊}
 73
     1
 44
1.0
  0
MTEXT
  5
242
330
1F
100
AcDbEntity
  8
AV
 62
     7
100
AcDbMText
 10
10.04598388166415
 20
-3.085711090681126
 30
0.0
 40
3.0
 41
0.0
 71
     7
 72
     1
  1
{\W0.833333;VIS-ULN＊＊＊＊＊＊＊＊＊}
 73
     1
 44
1.0
  0
MTEXT
  5
243
102
{ACAD_XDICTIONARY
360
25C
102
}
330
1F
100
AcDbEntity
  8
AV
 62
     7
100
AcDbMText
 10
-48.72857141494751
 20
-24.16666402096598
 30
0.0
 40
2.700000047683716
 41
77.89607979297638
 71
     5
 72
     1
  1
{\fＭＳ Ｐゴシック|b0|i0|c0|p0;\W0.83333x;\U+30EC\U+30B9\U+30C8\U+30EB\U+30FC\U+30E0\U+30C9\U+30EC\U+30C3\U+30B5\U+30FC\U+3000\U+30D7\U+30EC\U+30DF\U+30A2\U+30E0\U+30B7\U+30EA\U+30FC\U+30BA\U+3000}{\W0.83333x;L}{\fＭＳ Ｐゴシック|b0|i0|c0|p0;\W0.83333x;\U+30B5\U+30A4\U+30BA}\P{\fＭＳ Ｐゴシック|b0|i0|c0|p0;\W0.83333x;\U+30D5\U+30ED\U+30FC\U+30C6\U+30A3\U+30F3\U+30B0\U+30C7\U+30B6\U+30A4\U+30F3\U+30AD\U+30E3\U+30D3\U+30CD\U+30C3\U+30C8\U+FF08\U+4E21\U+6249\U+FF09\U+30FB\U+8DB3\U+5143\U+7167\U+660E\U+4ED8}
 73
     1
 44
0.734999995364083
  0
MTEXT
  5
244
102
{ACAD_XDICTIONARY
360
25E
102
}
330
1F
100
AcDbEntity
  8
AV
 62
     7
100
AcDbMText
 10
-48.72857141494751
 20
-14.16666402096598
 30
0.0
 40
2.700000047683716
 41
77.89607979297638
 71
     5
 72
     1
  1
{\fＭＳ Ｐゴシック|b0|i0|c0|p0;\W0.83333x;\U+30EC\U+30B9\U+30C8\U+30EB\U+30FC\U+30E0\U+30C9\U+30EC\U+30C3\U+30B5\U+30FC\U+3000\U+30B3\U+30F3\U+30D5\U+30A9\U+30FC\U+30C8\U+30B7\U+30EA\U+30FC\U+30BA\U+3000}{\W0.83333x;M}{\fＭＳ Ｐゴシック|b0|i0|c0|p0;\W0.83333x;\U+30B5\U+30A4\U+30BA}\P{\fＭＳ Ｐゴシック|b0|i0|c0|p0;\W0.83333x;\U+30CF\U+30FC\U+30D5\U+30AD\U+30E3\U+30D3\U+30CD\U+30C3\U+30C8\U+30FB\U+8DB3\U+5143\U+7167\U+660E\U+4ED8\U+FF08\U+30D5\U+30EA\U+30FC\U+30AB\U+30C3\U+30C8\U+5BFE\U+5FDC\U+FF09}
 73
     1
 44
0.734999995364083
  0
INSERT
  5
245
330
1F
100
AcDbEntity
  8
AV
 62
     7
100
AcDbBlockReference
  2
VIS-ULRBNLN0000
 10
0.0
 20
0.0
 30
0.0
  0
INSERT
  5
246
330
1F
100
AcDbEntity
  8
AV
 62
     7
100
AcDbBlockReference
  2
VIS-ULRBNLN0001
 10
0.0
 20
0.0
 30
0.0
  0
ENDSEC
  0
SECTION
  2
OBJECTS
  0
DICTIONARY
  5
C
330
0
100
AcDbDictionary
281
     1
  3
ACAD_GROUP
350
D
  3
ACAD_LAYOUT
350
1A
  3
ACAD_MATERIAL
350
43
  3
ACAD_MLEADERSTYLE
350
6B
  3
ACAD_MLINESTYLE
350
17
  3
ACAD_PLOTSETTINGS
350
19
  3
ACAD_PLOTSTYLENAME
350
E
  3
ACAD_SCALELIST
350
47
  3
ACAD_TABLESTYLE
350
69
  3
ACAD_VISUALSTYLE
350
2A
  3
ACDB_RECOMPOSE_DATA
350
29D
  3
AcDbVariableDictionary
350
247
  3
DWGPROPS
350
251
  0
DICTIONARY
  5
260
330
8
100
AcDbDictionary
280
     1
281
     1
  3
ACAD_XREC_ROUNDTRIP
360
261
  0
DICTIONARY
  5
252
330
234
100
AcDbDictionary
280
     1
281
     1
  3
ACAD_MTEXT_RT
360
253
  0
DICTIONARY
  5
254
330
235
100
AcDbDictionary
280
     1
281
     1
  3
ACAD_MTEXT_RT
360
255
  0
DICTIONARY
  5
256
330
236
100
AcDbDictionary
280
     1
281
     1
  3
ACAD_MTEXT_RT
360
257
  0
DICTIONARY
  5
258
330
23A
100
AcDbDictionary
280
     1
281
     1
  3
ACAD_MTEXT_RT
360
259
  0
DICTIONARY
  5
25A
330
23D
100
AcDbDictionary
280
     1
281
     1
  3
ACAD_MTEXT_RT
360
25B
  0
DICTIONARY
  5
25C
330
243
100
AcDbDictionary
280
     1
281
     1
  3
ACAD_MTEXT_RT
360
25D
  0
DICTIONARY
  5
25E
330
244
100
AcDbDictionary
280
     1
281
     1
  3
ACAD_MTEXT_RT
360
25F
  0
DICTIONARY
  5
D
102
{ACAD_REACTORS
330
C
102
}
330
C
100
AcDbDictionary
281
     1
  0
DICTIONARY
  5
1A
102
{ACAD_REACTORS
330
C
102
}
330
C
100
AcDbDictionary
281
     1
  3
Layout1
350
1E
  3
Layout2
350
26
  3
Model
350
22
  0
DICTIONARY
  5
43
102
{ACAD_REACTORS
330
C
102
}
330
C
100
AcDbDictionary
281
     1
  3
ByBlock
350
45
  3
ByLayer
350
44
  3
Global
350
46
  0
DICTIONARY
  5
6B
102
{ACAD_REACTORS
330
C
102
}
330
C
100
AcDbDictionary
281
     1
  3
Standard
350
6C
  0
DICTIONARY
  5
17
102
{ACAD_REACTORS
330
C
102
}
330
C
100
AcDbDictionary
281
     1
  3
Standard
350
18
  0
DICTIONARY
  5
19
102
{ACAD_REACTORS
330
C
102
}
330
C
100
AcDbDictionary
281
     1
  0
ACDBDICTIONARYWDFLT
  5
E
102
{ACAD_REACTORS
330
C
102
}
330
C
100
AcDbDictionary
281
     1
  3
Normal
350
F
100
AcDbDictionaryWithDefault
340
F
  0
DICTIONARY
  5
47
102
{ACAD_REACTORS
330
C
102
}
330
C
100
AcDbDictionary
281
     1
  3
A0
350
48
  3
A1
350
49
  3
A2
350
4A
  3
A3
350
4B
  3
A4
350
4C
  3
A5
350
4D
  3
A6
350
4E
  3
A7
350
4F
  3
A8
350
50
  3
A9
350
51
  3
B0
350
52
  3
B1
350
53
  3
B2
350
54
  3
B3
350
55
  3
B4
350
56
  3
B5
350
57
  3
B6
350
58
  3
B7
350
59
  3
B8
350
5A
  3
B9
350
5B
  3
C0
350
5C
  3
C1
350
5D
  3
C2
350
5E
  3
C3
350
5F
  3
C4
350
60
  3
C5
350
61
  3
C6
350
62
  3
C7
350
63
  3
C8
350
64
  3
C9
350
65
  3
D0
350
66
  3
D1
350
67
  3
D2
350
68
  0
DICTIONARY
  5
69
102
{ACAD_REACTORS
330
C
102
}
330
C
100
AcDbDictionary
281
     1
  3
Standard
350
6A
  0
DICTIONARY
  5
2A
102
{ACAD_REACTORS
330
C
102
}
330
C
100
AcDbDictionary
281
     1
  3
2dWireframe
350
2F
  3
Basic
350
32
  3
Brighten
350
36
  3
ColorChange
350
3A
  3
Conceptual
350
34
  3
Dim
350
35
  3
EdgeColorOff
350
3D
  3
Facepattern
350
39
  3
Flat
350
2B
  3
FlatWithEdges
350
2C
  3
Gouraud
350
2D
  3
GouraudWithEdges
350
2E
  3
Hidden
350
31
  3
JitterOff
350
3B
  3
Linepattern
350
38
  3
OverhangOff
350
3C
  3
Realistic
350
33
  3
Shaded
350
42
  3
Shaded with edges
350
41
  3
Shades of Gray
350
3E
  3
Sketchy
350
3F
  3
Thicken
350
37
  3
Wireframe
350
30
  3
X-Ray
350
40
  0
XRECORD
  5
29D
102
{ACAD_REACTORS
330
C
102
}
330
C
100
AcDbXrecord
280
     1
 90
        1
330
23D
330
243
330
244
330
236
330
234
330
235
330
23A
  0
DICTIONARY
  5
247
102
{ACAD_REACTORS
330
C
102
}
330
C
100
AcDbDictionary
281
     1
  3
CANNOSCALE
350
262
  3
CENTEREXE
350
24D
  3
CENTERLTYPEFILE
350
24E
  3
CMLEADERSTYLE
350
249
  3
CTABLESTYLE
350
248
  3
DIMASSOC
350
24F
  3
HIDETEXT
350
250
  3
MSLTSCALE
350
263
  3
PSOLHEIGHT
350
24A
  0
XRECORD
  5
251
102
{ACAD_REACTORS
330
C
102
}
330
C
100
AcDbXrecord
280
     1
  1
DWGPROPS COOKIE
  2

  3

  4

  6

  7

  8
SYSTEM
  9

300
=
301
=
302
=
303
=
304
=
305
=
306
=
307
=
308
=
309
=
 40
0.0
 41
2459754.244287315
 42
2459754.244288044
  1

 90
        0
  0
XRECORD
  5
261
102
{ACAD_REACTORS
330
260
102
}
330
260
100
AcDbXrecord
280
     1
102
VTR_0.000_0.000_1.000_1.000_VISUALSTYLE
340
2F
102
VTR_0.000_0.000_1.000_1.000_GRIDDISPLAY
 70
     3
102
VTR_0.000_0.000_1.000_1.000_GRIDMAJOR
 70
     5
102
VTR_0.000_0.000_1.000_1.000_DEFAULTLIGHTING
280
     1
102
VTR_0.000_0.000_1.000_1.000_DEFAULTLIGHTINGTYPE
 70
     1
102
VTR_0.000_0.000_1.000_1.000_BRIGHTNESS
141
0.0
102
VTR_0.000_0.000_1.000_1.000_CONTRAST
142
0.0
  0
XRECORD
  5
253
102
{ACAD_REACTORS
330
252
102
}
330
252
100
AcDbXrecord
280
     1
 40
303996.0
  1
\W0.833333;\pxql;内\P山}
  0
XRECORD
  5
255
102
{ACAD_REACTORS
330
254
102
}
330
254
100
AcDbXrecord
280
     1
 40
955975.0
  1
\W0.833333;\pxql;橋\P本}
  0
XRECORD
  5
257
102
{ACAD_REACTORS
330
256
102
}
330
256
100
AcDbXrecord
280
     1
 40
580266.0
  1
\W0.833333;\pxql;武\P藤}
  0
XRECORD
  5
259
102
{ACAD_REACTORS
330
258
102
}
330
258
100
AcDbXrecord
280
     1
 40
3405910.0
  1
\W0.833333;\pxql;レストルームドレッサー　コンフォートシリーズ　Ｓサイズ\P単体キャビネット}
  0
XRECORD
  5
25B
102
{ACAD_REACTORS
330
25A
102
}
330
25A
100
AcDbXrecord
280
     1
 40
1954635.0
  1
\W0.833333;\pxql;ULN*＊＊＊＊＊＊＊＊＊＊＊＊\PULP＊＊＊＊＊＊}
  0
XRECORD
  5
25D
102
{ACAD_REACTORS
330
25C
102
}
330
25C
100
AcDbXrecord
280
     1
 40
8010709.0
  1
\W0.833333;\pxql;レストルームドレッサー　プレミアムシリーズ　Lサイズ\Pフローティングデザインキャビネット（両扉）・足元照明付}
  0
XRECORD
  5
25F
102
{ACAD_REACTORS
330
25E
102
}
330
25E
100
AcDbXrecord
280
     1
 40
7840983.0
  1
\W0.833333;\pxql;レストルームドレッサー　コンフォートシリーズ　Mサイズ\Pハーフキャビネット・足元照明付（フリーカット対応）}
  0
LAYOUT
  5
1E
102
{ACAD_REACTORS
330
1A
102
}
330
1A
100
AcDbPlotSettings
  1

  2
none_device
  4

  6

 40
0.0
 41
0.0
 42
0.0
 43
0.0
 44
0.0
 45
0.0
 46
0.0
 47
0.0
 48
0.0
 49
0.0
140
0.0
141
0.0
142
1.0
143
1.0
 70
   688
 72
     1
 73
     0
 74
     5
  7

 75
    16
147
1.0
148
0.0
149
0.0
100
AcDbLayout
  1
Layout1
 70
     1
 71
     1
 10
-420.0
 20
0.0
 11
0.0
 21
297.0
 12
0.0
 22
0.0
 32
0.0
 14
1.000000000000000E+20
 24
1.000000000000000E+20
 34
1.000000000000000E+20
 15
-1.000000000000000E+20
 25
-1.000000000000000E+20
 35
-1.000000000000000E+20
146
0.0
 13
0.0
 23
0.0
 33
0.0
 16
1.0
 26
0.0
 36
0.0
 17
0.0
 27
1.0
 37
0.0
 76
     0
330
1B
  0
LAYOUT
  5
26
102
{ACAD_REACTORS
330
1A
102
}
330
1A
100
AcDbPlotSettings
  1

  2
none_device
  4

  6

 40
0.0
 41
0.0
 42
0.0
 43
0.0
 44
0.0
 45
0.0
 46
0.0
 47
0.0
 48
0.0
 49
0.0
140
0.0
141
0.0
142
1.0
143
1.0
 70
   688
 72
     1
 73
     0
 74
     5
  7

 75
    16
147
1.0
148
0.0
149
0.0
100
AcDbLayout
  1
Layout2
 70
     1
 71
     2
 10
0.0
 20
0.0
 11
0.0
 21
0.0
 12
0.0
 22
0.0
 32
0.0
 14
0.0
 24
0.0
 34
0.0
 15
0.0
 25
0.0
 35
0.0
146
0.0
 13
0.0
 23
0.0
 33
0.0
 16
1.0
 26
0.0
 36
0.0
 17
0.0
 27
1.0
 37
0.0
 76
     0
330
23
  0
LAYOUT
  5
22
102
{ACAD_REACTORS
330
1A
102
}
330
1A
100
AcDbPlotSettings
  1

  2
none_device
  4
Letter_(8.50_x_11.00_Inches)
  6

 40
6.35
 41
6.35
 42
6.35000508
 43
6.35000508
 44
215.9
 45
279.4
 46
0.0
 47
0.0
 48
0.0
 49
0.0
140
0.0
141
0.0
142
1.0
143
1.0
 70
  1712
 72
     1
 73
     0
 74
     0
  7

 75
     0
147
1.0
148
0.0
149
0.0
100
AcDbLayout
  1
Model
 70
     1
 71
     0
 10
-420.0
 20
0.0
 11
0.0
 21
297.0
 12
0.0
 22
0.0
 32
0.0
 14
-420.0
 24
0.0
 34
0.0
 15
0.0
 25
297.0
 35
0.0
146
0.0
 13
0.0
 23
0.0
 33
0.0
 16
1.0
 26
0.0
 36
0.0
 17
0.0
 27
1.0
 37
0.0
 76
     0
330
1F
331
29
  0
MATERIAL
  5
45
102
{ACAD_REACTORS
330
43
102
}
102
{ACAD_XDICTIONARY
360
296
102
}
330
43
100
AcDbMaterial
  1
ByBlock
  0
MATERIAL
  5
44
102
{ACAD_REACTORS
330
43
102
}
102
{ACAD_XDICTIONARY
360
294
102
}
330
43
100
AcDbMaterial
  1
ByLayer
  0
MATERIAL
  5
46
102
{ACAD_REACTORS
330
43
102
}
102
{ACAD_XDICTIONARY
360
298
102
}
330
43
100
AcDbMaterial
  1
Global
  0
MLEADERSTYLE
  5
6C
102
{ACAD_REACTORS
330
6B
102
}
102
{ACAD_XDICTIONARY
360
29B
102
}
330
6B
100
AcDbMLeaderStyle
170
     2
171
     1
172
     0
 90
        2
 40
0.0
 41
0.0
173
     1
 91
-1056964608
340
14
 92
       -2
290
     1
 42
2.0
291
     1
 43
8.0
  3
Standard
341
0
 44
4.0
300

342
11
174
     1
178
     6
175
     1
176
     0
 93
-1056964608
 45
4.0
292
     0
297
     0
 46
4.0
343
0
 94
-1056964608
 47
1.0
 49
1.0
140
1.0
293
     1
141
0.0
294
     1
177
     0
142
1.0
295
     0
296
     0
143
3.75
1001
ACAD_MLEADERVER
1070
     2
  0
MLINESTYLE
  5
18
102
{ACAD_REACTORS
330
17
102
}
330
17
100
AcDbMlineStyle
  2
Standard
 70
     0
  3

 62
   256
 51
90.0
 52
90.0
 71
     2
 49
0.5
 62
   256
  6
BYLAYER
 49
-0.5
 62
   256
  6
BYLAYER
  0
ACDBPLACEHOLDER
  5
F
102
{ACAD_REACTORS
330
E
102
}
330
E
  0
SCALE
  5
48
102
{ACAD_REACTORS
330
47
102
}
330
47
100
AcDbScale
 70
     0
300
1:1
140
1.0
141
1.0
290
     1
  0
SCALE
  5
49
102
{ACAD_REACTORS
330
47
102
}
330
47
100
AcDbScale
 70
     0
300
1:2
140
1.0
141
2.0
290
     0
  0
SCALE
  5
4A
102
{ACAD_REACTORS
330
47
102
}
330
47
100
AcDbScale
 70
     0
300
1:4
140
1.0
141
4.0
290
     0
  0
SCALE
  5
4B
102
{ACAD_REACTORS
330
47
102
}
330
47
100
AcDbScale
 70
     0
300
1:5
140
1.0
141
5.0
290
     0
  0
SCALE
  5
4C
102
{ACAD_REACTORS
330
47
102
}
330
47
100
AcDbScale
 70
     0
300
1:8
140
1.0
141
8.0
290
     0
  0
SCALE
  5
4D
102
{ACAD_REACTORS
330
47
102
}
330
47
100
AcDbScale
 70
     0
300
1:10
140
1.0
141
10.0
290
     0
  0
SCALE
  5
4E
102
{ACAD_REACTORS
330
47
102
}
330
47
100
AcDbScale
 70
     0
300
1:16
140
1.0
141
16.0
290
     0
  0
SCALE
  5
4F
102
{ACAD_REACTORS
330
47
102
}
330
47
100
AcDbScale
 70
     0
300
1:20
140
1.0
141
20.0
290
     0
  0
SCALE
  5
50
102
{ACAD_REACTORS
330
47
102
}
330
47
100
AcDbScale
 70
     0
300
1:30
140
1.0
141
30.0
290
     0
  0
SCALE
  5
51
102
{ACAD_REACTORS
330
47
102
}
330
47
100
AcDbScale
 70
     0
300
1:40
140
1.0
141
40.0
290
     0
  0
SCALE
  5
52
102
{ACAD_REACTORS
330
47
102
}
330
47
100
AcDbScale
 70
     0
300
1:50
140
1.0
141
50.0
290
     0
  0
SCALE
  5
53
102
{ACAD_REACTORS
330
47
102
}
330
47
100
AcDbScale
 70
     0
300
1:100
140
1.0
141
100.0
290
     0
  0
SCALE
  5
54
102
{ACAD_REACTORS
330
47
102
}
330
47
100
AcDbScale
 70
     0
300
2:1
140
2.0
141
1.0
290
     0
  0
SCALE
  5
55
102
{ACAD_REACTORS
330
47
102
}
330
47
100
AcDbScale
 70
     0
300
4:1
140
4.0
141
1.0
290
     0
  0
SCALE
  5
56
102
{ACAD_REACTORS
330
47
102
}
330
47
100
AcDbScale
 70
     0
300
8:1
140
8.0
141
1.0
290
     0
  0
SCALE
  5
57
102
{ACAD_REACTORS
330
47
102
}
330
47
100
AcDbScale
 70
     0
300
10:1
140
10.0
141
1.0
290
     0
  0
SCALE
  5
58
102
{ACAD_REACTORS
330
47
102
}
330
47
100
AcDbScale
 70
     0
300
100:1
140
100.0
141
1.0
290
     0
  0
SCALE
  5
59
102
{ACAD_REACTORS
330
47
102
}
330
47
100
AcDbScale
 70
     0
300
1/128" = 1'-0"
140
0.0078125
141
12.0
290
     0
  0
SCALE
  5
5A
102
{ACAD_REACTORS
330
47
102
}
330
47
100
AcDbScale
 70
     0
300
1/64" = 1'-0"
140
0.015625
141
12.0
290
     0
  0
SCALE
  5
5B
102
{ACAD_REACTORS
330
47
102
}
330
47
100
AcDbScale
 70
     0
300
1/32" = 1'-0"
140
0.03125
141
12.0
290
     0
  0
SCALE
  5
5C
102
{ACAD_REACTORS
330
47
102
}
330
47
100
AcDbScale
 70
     0
300
1/16" = 1'-0"
140
0.0625
141
12.0
290
     0
  0
SCALE
  5
5D
102
{ACAD_REACTORS
330
47
102
}
330
47
100
AcDbScale
 70
     0
300
3/32" = 1'-0"
140
0.09375
141
12.0
290
     0
  0
SCALE
  5
5E
102
{ACAD_REACTORS
330
47
102
}
330
47
100
AcDbScale
 70
     0
300
1/8" = 1'-0"
140
0.125
141
12.0
290
     0
  0
SCALE
  5
5F
102
{ACAD_REACTORS
330
47
102
}
330
47
100
AcDbScale
 70
     0
300
3/16" = 1'-0"
140
0.1875
141
12.0
290
     0
  0
SCALE
  5
60
102
{ACAD_REACTORS
330
47
102
}
330
47
100
AcDbScale
 70
     0
300
1/4" = 1'-0"
140
0.25
141
12.0
290
     0
  0
SCALE
  5
61
102
{ACAD_REACTORS
330
47
102
}
330
47
100
AcDbScale
 70
     0
300
3/8" = 1'-0"
140
0.375
141
12.0
290
     0
  0
SCALE
  5
62
102
{ACAD_REACTORS
330
47
102
}
330
47
100
AcDbScale
 70
     0
300
1/2" = 1'-0"
140
0.5
141
12.0
290
     0
  0
SCALE
  5
63
102
{ACAD_REACTORS
330
47
102
}
330
47
100
AcDbScale
 70
     0
300
3/4" = 1'-0"
140
0.75
141
12.0
290
     0
  0
SCALE
  5
64
102
{ACAD_REACTORS
330
47
102
}
330
47
100
AcDbScale
 70
     0
300
1" = 1'-0"
140
1.0
141
12.0
290
     0
  0
SCALE
  5
65
102
{ACAD_REACTORS
330
47
102
}
330
47
100
AcDbScale
 70
     0
300
1-1/2" = 1'-0"
140
1.5
141
12.0
290
     0
  0
SCALE
  5
66
102
{ACAD_REACTORS
330
47
102
}
330
47
100
AcDbScale
 70
     0
300
3" = 1'-0"
140
3.0
141
12.0
290
     0
  0
SCALE
  5
67
102
{ACAD_REACTORS
330
47
102
}
330
47
100
AcDbScale
 70
     0
300
6" = 1'-0"
140
6.0
141
12.0
290
     0
  0
SCALE
  5
68
102
{ACAD_REACTORS
330
47
102
}
330
47
100
AcDbScale
 70
     0
300
1'-0" = 1'-0"
140
12.0
141
12.0
290
     0
  0
TABLESTYLE
  5
6A
102
{ACAD_REACTORS
330
69
102
}
330
69
100
AcDbTableStyle
  3
Standard
 70
     0
 71
     0
 40
1.5
 41
1.5
280
     0
281
     0
  7
Standard
140
4.5
170
     2
 62
     0
 63
   257
283
     0
274
    -2
284
     1
 64
     0
275
    -2
285
     1
 65
     0
276
    -2
286
     1
 66
     0
277
    -2
287
     1
 67
     0
278
    -2
288
     1
 68
     0
279
    -2
289
     1
 69
     0
  7
Standard
140
6.0
170
     5
 62
     0
 63
   257
283
     0
274
    -2
284
     1
 64
     0
275
    -2
285
     1
 65
     0
276
    -2
286
     1
 66
     0
277
    -2
287
     1
 67
     0
278
    -2
288
     1
 68
     0
279
    -2
289
     1
 69
     0
  7
Standard
140
4.5
170
     5
 62
     0
 63
   257
283
     0
274
    -2
284
     1
 64
     0
275
    -2
285
     1
 65
     0
276
    -2
286
     1
 66
     0
277
    -2
287
     1
 67
     0
278
    -2
288
     1
 68
     0
279
    -2
289
     1
 69
     0
  0
VISUALSTYLE
  5
2F
102
{ACAD_REACTORS
330
2A
102
}
102
{ACAD_XDICTIONARY
360
26C
102
}
330
2A
100
AcDbVisualStyle
  2
2dWireframe
 70
     4
 71
     0
 72
     2
 73
     0
 90
        0
 40
0.6
 41
30.0
 62
     5
 63
     7
 74
     1
 91
        4
 64
     7
 65
   257
 75
     1
175
     1
 42
1.0
 92
        0
 66
   257
 43
1.0
 76
     1
 77
     6
 78
     2
 67
     7
 79
     5
170
     0
171
     0
290
     0
174
     0
 93
        1
 44
0.0
173
     0
291
     0
 45
0.0
1001
ACAD
1000
AcDbSavedByObjectVersion
1070
     0
  0
VISUALSTYLE
  5
32
102
{ACAD_REACTORS
330
2A
102
}
102
{ACAD_XDICTIONARY
360
272
102
}
330
2A
100
AcDbVisualStyle
  2
Basic
 70
     7
 71
     1
 72
     0
 73
     1
 90
        0
 40
0.6
 41
30.0
 62
     5
 63
     7
 74
     0
 91
        4
 64
     7
 65
   257
 75
     1
175
     1
 42
1.0
 92
        8
 66
     7
 43
1.0
 76
     1
 77
     6
 78
     2
 67
     7
 79
     5
170
     0
171
     0
290
     0
174
     0
 93
        1
 44
0.0
173
     0
291
     1
 45
0.0
1001
ACAD
1000
AcDbSavedByObjectVersion
1070
     0
  0
VISUALSTYLE
  5
36
102
{ACAD_REACTORS
330
2A
102
}
102
{ACAD_XDICTIONARY
360
27A
102
}
330
2A
100
AcDbVisualStyle
  2
Brighten
 70
    12
 71
     2
 72
     2
 73
     0
 90
        0
 40
0.6
 41
30.0
 62
     5
 63
     7
 74
     1
 91
        4
 64
     7
 65
   257
 75
     1
175
     1
 42
1.0
 92
        8
 66
     7
 43
1.0
 76
     1
 77
     6
 78
     2
 67
     7
 79
     5
170
     0
171
     0
290
     0
174
     0
 93
        1
 44
50.0
173
     0
291
     1
 45
0.0
1001
ACAD
1000
AcDbSavedByObjectVersion
1070
     0
  0
VISUALSTYLE
  5
3A
102
{ACAD_REACTORS
330
2A
102
}
102
{ACAD_XDICTIONARY
360
282
102
}
330
2A
100
AcDbVisualStyle
  2
ColorChange
 70
    16
 71
     2
 72
     2
 73
     3
 90
        0
 40
0.6
 41
30.0
 62
     5
 63
     8
 74
     1
 91
        4
 64
     7
 65
   257
 75
     1
175
     1
 42
1.0
 92
        8
 66
     8
 43
1.0
 76
     1
 77
     6
 78
     2
 67
     7
 79
     5
170
     0
171
     0
290
     0
174
     0
 93
        1
 44
0.0
173
     0
291
     1
 45
0.0
1001
ACAD
1000
AcDbSavedByObjectVersion
1070
     0
  0
VISUALSTYLE
  5
34
102
{ACAD_REACTORS
330
2A
102
}
102
{ACAD_XDICTIONARY
360
276
102
}
330
2A
100
AcDbVisualStyle
  2
Conceptual
 70
     9
 71
     3
 72
     2
 73
     0
 90
        0
 40
0.6
 41
30.0
 62
     5
 63
     7
 74
     2
 91
        2
 64
     7
 65
   257
 75
     1
175
     1
 42
179.0
 92
        8
 66
     7
 43
1.0
 76
     1
 77
     6
 78
     2
 67
     7
 79
     3
170
     0
171
     0
290
     0
174
     0
 93
        1
 44
0.0
173
     0
291
     0
 45
0.0
1001
ACAD
1000
AcDbSavedByObjectVersion
1070
     0
  0
VISUALSTYLE
  5
35
102
{ACAD_REACTORS
330
2A
102
}
102
{ACAD_XDICTIONARY
360
278
102
}
330
2A
100
AcDbVisualStyle
  2
Dim
 70
    11
 71
     2
 72
     2
 73
     0
 90
        0
 40
0.6
 41
30.0
 62
     5
 63
     7
 74
     1
 91
        4
 64
     7
 65
   257
 75
     1
175
     1
 42
1.0
 92
        8
 66
     7
 43
1.0
 76
     1
 77
     6
 78
     2
 67
     7
 79
     5
170
     0
171
     0
290
     0
174
     0
 93
        1
 44
-50.0
173
     0
291
     1
 45
0.0
1001
ACAD
1000
AcDbSavedByObjectVersion
1070
     0
  0
VISUALSTYLE
  5
3D
102
{ACAD_REACTORS
330
2A
102
}
102
{ACAD_XDICTIONARY
360
288
102
}
330
2A
100
AcDbVisualStyle
  2
EdgeColorOff
 70
    22
 71
     2
 72
     2
 73
     0
 90
        0
 40
0.6
 41
30.0
 62
     5
 63
     7
 74
     1
 91
        4
 64
     7
 65
   257
 75
     1
175
     1
 42
1.0
 92
        8
 66
     7
 43
1.0
 76
     1
 77
     6
 78
     2
 67
     7
 79
     5
170
     0
171
     0
290
     0
174
     0
 93
        1
 44
0.0
173
     0
291
     1
 45
0.0
1001
ACAD
1000
AcDbSavedByObjectVersion
1070
     0
  0
VISUALSTYLE
  5
39
102
{ACAD_REACTORS
330
2A
102
}
102
{ACAD_XDICTIONARY
360
280
102
}
330
2A
100
AcDbVisualStyle
  2
Facepattern
 70
    15
 71
     2
 72
     2
 73
     0
 90
        0
 40
0.6
 41
30.0
 62
     5
 63
     7
 74
     1
 91
        4
 64
     7
 65
   257
 75
     1
175
     1
 42
1.0
 92
        8
 66
     7
 43
1.0
 76
     1
 77
     6
 78
     2
 67
     7
 79
     5
170
     0
171
     0
290
     0
174
     0
 93
        1
 44
0.0
173
     0
291
     1
 45
0.0
1001
ACAD
1000
AcDbSavedByObjectVersion
1070
     0
  0
VISUALSTYLE
  5
2B
102
{ACAD_REACTORS
330
2A
102
}
102
{ACAD_XDICTIONARY
360
264
102
}
330
2A
100
AcDbVisualStyle
  2
Flat
 70
     0
 71
     2
 72
     1
 73
     1
 90
        2
 40
0.6
 41
30.0
 62
     5
 63
     7
 74
     0
 91
        0
 64
     7
 65
   257
 75
     1
175
     1
 42
1.0
 92
        8
 66
     7
 43
1.0
 76
     1
 77
     6
 78
     2
 67
     7
 79
     5
170
     0
171
     0
290
     0
174
     0
 93
       13
 44
0.0
173
     0
291
     1
 45
0.0
1001
ACAD
1000
AcDbSavedByObjectVersion
1070
     0
  0
VISUALSTYLE
  5
2C
102
{ACAD_REACTORS
330
2A
102
}
102
{ACAD_XDICTIONARY
360
266
102
}
330
2A
100
AcDbVisualStyle
  2
FlatWithEdges
 70
     1
 71
     2
 72
     1
 73
     1
 90
        2
 40
0.6
 41
30.0
 62
     5
 63
     7
 74
     1
 91
        0
 64
     7
 65
   257
 75
     1
175
     1
 42
1.0
 92
        0
 66
   257
 43
1.0
 76
     1
 77
     6
 78
     2
 67
     7
 79
     5
170
     0
171
     0
290
     0
174
     0
 93
       13
 44
0.0
173
     0
291
     1
 45
0.0
1001
ACAD
1000
AcDbSavedByObjectVersion
1070
     0
  0
VISUALSTYLE
  5
2D
102
{ACAD_REACTORS
330
2A
102
}
102
{ACAD_XDICTIONARY
360
268
102
}
330
2A
100
AcDbVisualStyle
  2
Gouraud
 70
     2
 71
     2
 72
     2
 73
     1
 90
        2
 40
0.6
 41
30.0
 62
     5
 63
     7
 74
     0
 91
        0
 64
     7
 65
   257
 75
     1
175
     1
 42
1.0
 92
        0
 66
     7
 43
1.0
 76
     1
 77
     6
 78
     2
 67
     7
 79
     5
170
     0
171
     0
290
     0
174
     0
 93
       13
 44
0.0
173
     0
291
     1
 45
0.0
1001
ACAD
1000
AcDbSavedByObjectVersion
1070
     0
  0
VISUALSTYLE
  5
2E
102
{ACAD_REACTORS
330
2A
102
}
102
{ACAD_XDICTIONARY
360
26A
102
}
330
2A
100
AcDbVisualStyle
  2
GouraudWithEdges
 70
     3
 71
     2
 72
     2
 73
     1
 90
        2
 40
0.6
 41
30.0
 62
     5
 63
     7
 74
     1
 91
        0
 64
     7
 65
   257
 75
     1
175
     1
 42
1.0
 92
        0
 66
   257
 43
1.0
 76
     1
 77
     6
 78
     2
 67
     7
 79
     5
170
     0
171
     0
290
     0
174
     0
 93
       13
 44
0.0
173
     0
291
     1
 45
0.0
1001
ACAD
1000
AcDbSavedByObjectVersion
1070
     0
  0
VISUALSTYLE
  5
31
102
{ACAD_REACTORS
330
2A
102
}
102
{ACAD_XDICTIONARY
360
270
102
}
330
2A
100
AcDbVisualStyle
  2
Hidden
 70
     6
 71
     1
 72
     2
 73
     2
 90
        0
 40
0.6
 41
30.0
 62
     5
 63
     7
 74
     2
 91
        2
 64
     7
 65
   257
 75
     2
175
     1
 42
40.0
 92
        0
 66
   257
 43
1.0
 76
     1
 77
     6
 78
     2
 67
     7
 79
     3
170
     0
171
     0
290
     0
174
     0
 93
        1
 44
0.0
173
     0
291
     0
 45
0.0
1001
ACAD
1000
AcDbSavedByObjectVersion
1070
     0
  0
VISUALSTYLE
  5
3B
102
{ACAD_REACTORS
330
2A
102
}
102
{ACAD_XDICTIONARY
360
284
102
}
330
2A
100
AcDbVisualStyle
  2
JitterOff
 70
    20
 71
     2
 72
     2
 73
     0
 90
        0
 40
0.6
 41
30.0
 62
     5
 63
     7
 74
     1
 91
        4
 64
     7
 65
   257
 75
     1
175
     1
 42
1.0
 92
       10
 66
     7
 43
1.0
 76
     1
 77
     6
 78
     2
 67
     7
 79
     5
170
     0
171
     0
290
     0
174
     0
 93
        1
 44
0.0
173
     0
291
     1
 45
0.0
1001
ACAD
1000
AcDbSavedByObjectVersion
1070
     0
  0
VISUALSTYLE
  5
38
102
{ACAD_REACTORS
330
2A
102
}
102
{ACAD_XDICTIONARY
360
27E
102
}
330
2A
100
AcDbVisualStyle
  2
Linepattern
 70
    14
 71
     2
 72
     2
 73
     0
 90
        0
 40
0.6
 41
30.0
 62
     5
 63
     7
 74
     1
 91
        4
 64
     7
 65
   257
 75
     7
175
     7
 42
1.0
 92
        8
 66
     7
 43
1.0
 76
     1
 77
     6
 78
     2
 67
     7
 79
     5
170
     0
171
     0
290
     0
174
     0
 93
        1
 44
0.0
173
     0
291
     1
 45
0.0
1001
ACAD
1000
AcDbSavedByObjectVersion
1070
     0
  0
VISUALSTYLE
  5
3C
102
{ACAD_REACTORS
330
2A
102
}
102
{ACAD_XDICTIONARY
360
286
102
}
330
2A
100
AcDbVisualStyle
  2
OverhangOff
 70
    21
 71
     2
 72
     2
 73
     0
 90
        0
 40
0.6
 41
30.0
 62
     5
 63
     7
 74
     1
 91
        4
 64
     7
 65
   257
 75
     1
175
     1
 42
1.0
 92
        9
 66
     7
 43
1.0
 76
     1
 77
     6
 78
     2
 67
     7
 79
     5
170
     0
171
     0
290
     0
174
     0
 93
        1
 44
0.0
173
     0
291
     1
 45
0.0
1001
ACAD
1000
AcDbSavedByObjectVersion
1070
     0
  0
VISUALSTYLE
  5
33
102
{ACAD_REACTORS
330
2A
102
}
102
{ACAD_XDICTIONARY
360
274
102
}
330
2A
100
AcDbVisualStyle
  2
Realistic
 70
     8
 71
     2
 72
     3
 73
     0
 90
        2
 40
0.6
 41
30.0
 62
     5
 63
     7
 74
     0
 91
        0
 64
     7
 65
   257
 75
     1
175
     1
 42
1.0
 92
        8
 66
   257
 43
1.0
 76
     1
 77
     6
 78
     2
 67
     7
 79
     3
170
     0
171
     0
290
     0
174
     0
 93
       13
 44
0.0
173
     0
291
     0
 45
0.0
1001
ACAD
1000
AcDbSavedByObjectVersion
1070
     0
  0
VISUALSTYLE
  5
42
102
{ACAD_REACTORS
330
2A
102
}
102
{ACAD_XDICTIONARY
360
292
102
}
330
2A
100
AcDbVisualStyle
  2
Shaded
 70
    27
 71
     2
 72
     2
 73
     1
 90
        2
 40
0.6
 41
30.0
 62
     5
 63
     7
 74
     0
 91
        4
 64
     7
 65
   257
 75
     1
175
     1
 42
1.0
 92
        8
 66
   257
 43
1.0
 76
     1
 77
     6
 78
     2
 67
     8
 79
     3
170
     0
171
     0
290
     0
174
     0
 93
        5
 44
0.0
173
     0
291
     0
 45
0.0
1001
ACAD
1000
AcDbSavedByObjectVersion
1070
     0
  0
VISUALSTYLE
  5
41
102
{ACAD_REACTORS
330
2A
102
}
102
{ACAD_XDICTIONARY
360
290
102
}
330
2A
100
AcDbVisualStyle
  2
Shaded with edges
 70
    26
 71
     2
 72
     2
 73
     1
 90
        2
 40
0.6
 41
30.0
 62
     5
 63
     7
 74
     1
 91
       10
 64
     7
 65
   257
 75
     2
175
     1
 42
1.0
 92
        8
 66
   257
 43
1.0
 76
     1
 77
     6
 78
     2
 67
     7
 79
     3
170
     0
171
     0
290
     0
174
     0
 93
        5
 44
0.0
173
     0
291
     0
 45
0.0
1001
ACAD
1000
AcDbSavedByObjectVersion
1070
     0
  0
VISUALSTYLE
  5
3E
102
{ACAD_REACTORS
330
2A
102
}
102
{ACAD_XDICTIONARY
360
28A
102
}
330
2A
100
AcDbVisualStyle
  2
Shades of Gray
 70
    23
 71
     2
 72
     2
 73
     3
 90
        0
 40
0.6
 41
30.0
 62
     5
 63
     7
 74
     2
 91
        2
 64
     7
 65
     7
 75
     1
175
     1
 42
40.0
 92
        8
 66
     7
 43
1.0
 76
     1
 77
     6
 78
     2
 67
     7
 79
     3
170
     0
171
     0
290
     0
174
     0
 93
        1
 44
0.0
173
     0
291
     0
 45
0.0
1001
ACAD
1000
AcDbSavedByObjectVersion
1070
     0
  0
VISUALSTYLE
  5
3F
102
{ACAD_REACTORS
330
2A
102
}
102
{ACAD_XDICTIONARY
360
28C
102
}
330
2A
100
AcDbVisualStyle
  2
Sketchy
 70
    24
 71
     1
 72
     2
 73
     2
 90
        0
 40
0.6
 41
30.0
 62
     5
 63
     7
 74
     2
 91
        2
 64
     7
 65
     7
 75
     1
175
     1
 42
40.0
 92
       11
 66
     7
 43
1.0
 76
     1
 77
     6
 78
     2
 67
     7
 79
     6
170
     0
171
     0
290
     0
174
     0
 93
        1
 44
0.0
173
     0
291
     0
 45
0.0
1001
ACAD
1000
AcDbSavedByObjectVersion
1070
     0
  0
VISUALSTYLE
  5
37
102
{ACAD_REACTORS
330
2A
102
}
102
{ACAD_XDICTIONARY
360
27C
102
}
330
2A
100
AcDbVisualStyle
  2
Thicken
 70
    13
 71
     2
 72
     2
 73
     0
 90
        0
 40
0.6
 41
30.0
 62
     5
 63
     7
 74
     1
 91
        4
 64
     7
 65
   257
 75
     1
175
     1
 42
1.0
 92
       12
 66
     7
 43
1.0
 76
     1
 77
     6
 78
     2
 67
     7
 79
     5
170
     0
171
     0
290
     0
174
     0
 93
        1
 44
0.0
173
     0
291
     1
 45
0.0
1001
ACAD
1000
AcDbSavedByObjectVersion
1070
     0
  0
VISUALSTYLE
  5
30
102
{ACAD_REACTORS
330
2A
102
}
102
{ACAD_XDICTIONARY
360
26E
102
}
330
2A
100
AcDbVisualStyle
  2
Wireframe
 70
     5
 71
     0
 72
     2
 73
     0
 90
        0
 40
0.6
 41
30.0
 62
     5
 63
     7
 74
     1
 91
        4
 64
     7
 65
   257
 75
     1
175
     1
 42
1.0
 92
        0
 66
   257
 43
1.0
 76
     1
 77
     6
 78
     2
 67
     7
 79
     3
170
     0
171
     0
290
     0
174
     0
 93
        1
 44
0.0
173
     0
291
     0
 45
0.0
1001
ACAD
1000
AcDbSavedByObjectVersion
1070
     0
  0
VISUALSTYLE
  5
40
102
{ACAD_REACTORS
330
2A
102
}
102
{ACAD_XDICTIONARY
360
28E
102
}
330
2A
100
AcDbVisualStyle
  2
X-Ray
 70
    25
 71
     2
 72
     2
 73
     1
 90
        1
 40
0.5
 41
30.0
 62
     5
 63
     7
 74
     1
 91
        0
 64
     7
 65
   257
 75
     1
175
     1
 42
1.0
 92
        8
 66
     7
 43
1.0
 76
     1
 77
     6
 78
     2
 67
     7
 79
     3
170
     0
171
     0
290
     0
174
     0
 93
       13
 44
0.0
173
     0
291
     0
 45
0.0
1001
ACAD
1000
AcDbSavedByObjectVersion
1070
     0
  0
DICTIONARYVAR
  5
262
102
{ACAD_REACTORS
330
247
102
}
330
247
100
DictionaryVariables
280
     0
  1
1:1
  0
DICTIONARYVAR
  5
24D
102
{ACAD_REACTORS
330
247
102
}
330
247
100
DictionaryVariables
280
     0
  1
3.500000
  0
DICTIONARYVAR
  5
24E
102
{ACAD_REACTORS
330
247
102
}
330
247
100
DictionaryVariables
280
     0
  1
acadiso.lin
  0
DICTIONARYVAR
  5
249
102
{ACAD_REACTORS
330
247
102
}
330
247
100
DictionaryVariables
280
     0
  1
Standard
  0
DICTIONARYVAR
  5
248
102
{ACAD_REACTORS
330
247
102
}
330
247
100
DictionaryVariables
280
     0
  1
Standard
  0
DICTIONARYVAR
  5
24F
102
{ACAD_REACTORS
330
247
102
}
330
247
100
DictionaryVariables
280
     0
  1
2
  0
DICTIONARYVAR
  5
250
102
{ACAD_REACTORS
330
247
102
}
330
247
100
DictionaryVariables
280
     0
  1
1
  0
DICTIONARYVAR
  5
263
102
{ACAD_REACTORS
330
247
102
}
330
247
100
DictionaryVariables
280
     0
  1
1
  0
DICTIONARYVAR
  5
24A
102
{ACAD_REACTORS
330
247
102
}
330
247
100
DictionaryVariables
280
     0
  1
80.000000
  0
DICTIONARY
  5
296
330
45
100
AcDbDictionary
280
     1
281
     1
  3
ACAD_XREC_ROUNDTRIP
360
297
  0
DICTIONARY
  5
294
330
44
100
AcDbDictionary
280
     1
281
     1
  3
ACAD_XREC_ROUNDTRIP
360
295
  0
DICTIONARY
  5
298
330
46
100
AcDbDictionary
280
     1
281
     1
  3
ACAD_XREC_ROUNDTRIP
360
299
  0
DICTIONARY
  5
29B
330
6C
100
AcDbDictionary
280
     1
281
     1
  3
ACAD_XREC_ROUNDTRIP
360
29C
  0
DICTIONARY
  5
26C
330
2F
100
AcDbDictionary
280
     1
281
     1
  3
ACAD_XREC_ROUNDTRIP
360
26D
  0
DICTIONARY
  5
272
330
32
100
AcDbDictionary
280
     1
281
     1
  3
ACAD_XREC_ROUNDTRIP
360
273
  0
DICTIONARY
  5
27A
330
36
100
AcDbDictionary
280
     1
281
     1
  3
ACAD_XREC_ROUNDTRIP
360
27B
  0
DICTIONARY
  5
282
330
3A
100
AcDbDictionary
280
     1
281
     1
  3
ACAD_XREC_ROUNDTRIP
360
283
  0
DICTIONARY
  5
276
330
34
100
AcDbDictionary
280
     1
281
     1
  3
ACAD_XREC_ROUNDTRIP
360
277
  0
DICTIONARY
  5
278
330
35
100
AcDbDictionary
280
     1
281
     1
  3
ACAD_XREC_ROUNDTRIP
360
279
  0
DICTIONARY
  5
288
330
3D
100
AcDbDictionary
280
     1
281
     1
  3
ACAD_XREC_ROUNDTRIP
360
289
  0
DICTIONARY
  5
280
330
39
100
AcDbDictionary
280
     1
281
     1
  3
ACAD_XREC_ROUNDTRIP
360
281
  0
DICTIONARY
  5
264
330
2B
100
AcDbDictionary
280
     1
281
     1
  3
ACAD_XREC_ROUNDTRIP
360
265
  0
DICTIONARY
  5
266
330
2C
100
AcDbDictionary
280
     1
281
     1
  3
ACAD_XREC_ROUNDTRIP
360
267
  0
DICTIONARY
  5
268
330
2D
100
AcDbDictionary
280
     1
281
     1
  3
ACAD_XREC_ROUNDTRIP
360
269
  0
DICTIONARY
  5
26A
330
2E
100
AcDbDictionary
280
     1
281
     1
  3
ACAD_XREC_ROUNDTRIP
360
26B
  0
DICTIONARY
  5
270
330
31
100
AcDbDictionary
280
     1
281
     1
  3
ACAD_XREC_ROUNDTRIP
360
271
  0
DICTIONARY
  5
284
330
3B
100
AcDbDictionary
280
     1
281
     1
  3
ACAD_XREC_ROUNDTRIP
360
285
  0
DICTIONARY
  5
27E
330
38
100
AcDbDictionary
280
     1
281
     1
  3
ACAD_XREC_ROUNDTRIP
360
27F
  0
DICTIONARY
  5
286
330
3C
100
AcDbDictionary
280
     1
281
     1
  3
ACAD_XREC_ROUNDTRIP
360
287
  0
DICTIONARY
  5
274
330
33
100
AcDbDictionary
280
     1
281
     1
  3
ACAD_XREC_ROUNDTRIP
360
275
  0
DICTIONARY
  5
292
330
42
100
AcDbDictionary
280
     1
281
     1
  3
ACAD_XREC_ROUNDTRIP
360
293
  0
DICTIONARY
  5
290
330
41
100
AcDbDictionary
280
     1
281
     1
  3
ACAD_XREC_ROUNDTRIP
360
291
  0
DICTIONARY
  5
28A
330
3E
100
AcDbDictionary
280
     1
281
     1
  3
ACAD_XREC_ROUNDTRIP
360
28B
  0
DICTIONARY
  5
28C
330
3F
100
AcDbDictionary
280
     1
281
     1
  3
ACAD_XREC_ROUNDTRIP
360
28D
  0
DICTIONARY
  5
27C
330
37
100
AcDbDictionary
280
     1
281
     1
  3
ACAD_XREC_ROUNDTRIP
360
27D
  0
DICTIONARY
  5
26E
330
30
100
AcDbDictionary
280
     1
281
     1
  3
ACAD_XREC_ROUNDTRIP
360
26F
  0
DICTIONARY
  5
28E
330
40
100
AcDbDictionary
280
     1
281
     1
  3
ACAD_XREC_ROUNDTRIP
360
28F
  0
XRECORD
  5
297
102
{ACAD_REACTORS
330
296
102
}
330
296
100
AcDbXrecord
280
     1
102
MATERIAL
148
0.0
149
0.0
149
0.0
 93
        0
 94
      127
282
     0
 72
     1
 77
     1
171
     1
175
     1
179
     1
273
     0
  0
XRECORD
  5
295
102
{ACAD_REACTORS
330
294
102
}
330
294
100
AcDbXrecord
280
     1
102
MATERIAL
148
0.0
149
0.0
149
0.0
 93
        0
 94
      127
282
     0
 72
     1
 77
     1
171
     1
175
     1
179
     1
273
     0
  0
XRECORD
  5
299
102
{ACAD_REACTORS
330
298
102
}
330
298
100
AcDbXrecord
280
     1
102
MATERIAL
148
0.0
149
0.0
149
0.0
 93
        0
 94
      127
282
     0
 72
     1
 77
     1
171
     1
175
     1
179
     1
273
     0
  0
XRECORD
  5
29C
102
{ACAD_REACTORS
330
29B
102
}
330
29B
100
AcDbXrecord
280
     1
102
ACAD_ROUNDTRIP_2010_MLEADER_STYLE
  0
XRECORD
  5
26D
102
{ACAD_REACTORS
330
26C
102
}
330
26C
100
AcDbXrecord
280
     1
102
RTVSPropertyOp0
 70
     1
102
RTVSPropertyOp1
 70
     1
102
RTVSPropertyOp2
 70
     1
102
RTVSPropertyOp3
 70
     1
102
RTVSPropertyOp4
 70
     1
102
RTVSPropertyOp5
 70
     1
102
RTVSPropertyOp6
 70
     1
102
RTVSPropertyOp7
 70
     1
102
RTVSPropertyOp8
 70
     1
102
RTVSPropertyOp9
 70
     1
102
RTVSPropertyOp10
 70
     1
102
RTVSPropertyOp11
 70
     1
102
RTVSPropertyOp12
 70
     1
102
RTVSPropertyOp13
 70
     1
102
RTVSPropertyOp14
 70
     1
102
RTVSPropertyOp15
 70
     1
102
RTVSPropertyOp16
 70
     1
102
RTVSPropertyOp17
 70
     1
102
RTVSPropertyOp18
 70
     1
102
RTVSPropertyOp19
 70
     1
102
RTVSPropertyOp20
 70
     1
102
RTVSPropertyOp21
 70
     1
102
RTVSPropertyOp22
 70
     1
102
RTVSPropertyOp23
 70
     1
102
RTVSPropertyOp24
 70
     1
102
RTVSPropertyOp25
 70
     1
102
RTVSPropertyOp26
 70
     1
102
RTVSPropertyOp27
 70
     1
102
RTVSPropertyOp28
 70
     1
102
RTVSPropertyOp29
 70
     1
102
RTVSPropertyOp30
 70
     1
102
RTVSPropertyOp31
 70
     1
102
RTVSPropertyOp32
 70
     1
102
RTVSPropertyOp33
 70
     1
102
RTVSPropertyOp34
 70
     1
102
RTVSPropertyOp35
 70
     1
102
RTVSPropertyOp36
 70
     1
102
RTVSPropertyOp37
 70
     1
102
RTVSPropertyOp38
 70
     1
102
RTVSPropertyOp39
 70
     1
102
RTVSPropertyOp40
 70
     1
102
RTVSPropertyOp41
 70
     1
102
RTVSPropertyOp42
 70
     1
102
RTVSPropertyOp43
 70
     1
102
RTVSPropertyOp44
 70
     1
102
RTVSPropertyOp45
 70
     1
102
RTVSPropertyOp46
 70
     1
102
RTVSPropertyOp47
 70
     1
102
RTVSPropertyOp48
 70
     1
102
RTVSPropertyOp49
 70
     1
102
RTVSPropertyOp50
 70
     1
102
RTVSPropertyOp51
 70
     0
102
RTVSPropertyOp52
 70
     0
102
RTVSPropertyOp53
 70
     1
102
RTVSPropertyOp54
 70
     1
102
RTVSPropertyOp55
 70
     1
102
RTVSPropertyOp56
 70
     1
102
RTVSPropertyOp57
 70
     1
102
RTVSPost2010Prop28
280
     1
102
RTVSPost2010PropOp28
 70
     1
102
RTVSPost2010Prop29
280
     1
102
RTVSPost2010PropOp29
 70
     1
102
RTVSPost2010Prop30
280
     0
102
RTVSPost2010PropOp30
 70
     1
102
RTVSPost2010Prop31
280
     0
102
RTVSPost2010PropOp31
 70
     1
102
RTVSPost2010Prop32
280
     0
102
RTVSPost2010PropOp32
 70
     1
102
RTVSPost2010Prop33
280
     0
102
RTVSPost2010PropOp33
 70
     1
102
RTVSPost2010Prop34
280
     0
102
RTVSPost2010PropOp34
 70
     1
102
RTVSPost2010Prop35
280
     0
102
RTVSPost2010PropOp35
 70
     1
102
RTVSPost2010Prop36
280
     0
102
RTVSPost2010PropOp36
 70
     1
102
RTVSPost2010Prop37
 90
       50
102
RTVSPost2010PropOp37
 70
     1
102
RTVSPost2010Prop38
140
0.0
102
RTVSPost2010PropOp38
 70
     1
102
RTVSPost2010Prop39
140
1.0
102
RTVSPost2010PropOp39
 70
     1
102
RTVSPost2010Prop40
 90
        0
102
RTVSPost2010PropOp40
 70
     1
102
RTVSPost2010Prop41ColorIndex
 90
       18
102
RTVSPost2010Prop41ColorRGB
 90
        0
102
RTVSPost2010PropOp41
 70
     1
102
RTVSPost2010Prop42
 90
       50
102
RTVSPost2010PropOp42
 70
     1
102
RTVSPost2010Prop43
 90
        3
102
RTVSPost2010PropOp43
 70
     1
102
RTVSPost2010Prop44ColorIndex
 90
        5
102
RTVSPost2010Prop44ColorRGB
 90
      255
102
RTVSPost2010PropOp44
 70
     1
102
RTVSPost2010Prop45
280
     0
102
RTVSPost2010PropOp45
 70
     1
102
RTVSPost2010Prop46
 90
       50
102
RTVSPost2010PropOp46
 70
     1
102
RTVSPost2010Prop47
 90
       50
102
RTVSPost2010PropOp47
 70
     1
102
RTVSPost2010Prop48
 90
       50
102
RTVSPost2010PropOp48
 70
     1
102
RTVSPost2010Prop49
280
     0
102
RTVSPost2010PropOp49
 70
     1
102
RTVSPost2010Prop50
 90
       50
102
RTVSPost2010PropOp50
 70
     1
102
RTVSPost2010Prop51ColorIndex
 90
      256
102
RTVSPost2010Prop51ColorRGB
 90
-16777216
102
RTVSPost2010PropOp51
 70
     0
102
RTVSPost2010Prop52
140
1.0
102
RTVSPost2010PropOp52
 70
     0
102
RTVSPost2010Prop53
 90
        2
102
RTVSPost2010PropOp53
 70
     1
102
RTVSPost2010Prop54
  1
strokes_ogs.tif
102
RTVSPost2010PropOp54
 70
     1
102
RTVSPost2010Prop55
280
     0
102
RTVSPost2010PropOp55
 70
     1
102
RTVSPost2010Prop56
140
1.0
102
RTVSPost2010PropOp56
 70
     1
102
RTVSPost2010Prop57
140
1.0
102
RTVSPost2010PropOp57
 70
     1
  0
XRECORD
  5
273
102
{ACAD_REACTORS
330
272
102
}
330
272
100
AcDbXrecord
280
     1
102
RTVSPropertyOp0
 70
     1
102
RTVSPropertyOp1
 70
     1
102
RTVSPropertyOp2
 70
     1
102
RTVSPropertyOp3
 70
     1
102
RTVSPropertyOp4
 70
     1
102
RTVSPropertyOp5
 70
     1
102
RTVSPropertyOp6
 70
     1
102
RTVSPropertyOp7
 70
     1
102
RTVSPropertyOp8
 70
     1
102
RTVSPropertyOp9
 70
     1
102
RTVSPropertyOp10
 70
     1
102
RTVSPropertyOp11
 70
     1
102
RTVSPropertyOp12
 70
     1
102
RTVSPropertyOp13
 70
     1
102
RTVSPropertyOp14
 70
     1
102
RTVSPropertyOp15
 70
     1
102
RTVSPropertyOp16
 70
     1
102
RTVSPropertyOp17
 70
     1
102
RTVSPropertyOp18
 70
     1
102
RTVSPropertyOp19
 70
     1
102
RTVSPropertyOp20
 70
     1
102
RTVSPropertyOp21
 70
     1
102
RTVSPropertyOp22
 70
     1
102
RTVSPropertyOp23
 70
     1
102
RTVSPropertyOp24
 70
     1
102
RTVSPropertyOp25
 70
     1
102
RTVSPropertyOp26
 70
     1
102
RTVSPropertyOp27
 70
     1
102
RTVSPropertyOp28
 70
     1
102
RTVSPropertyOp29
 70
     1
102
RTVSPropertyOp30
 70
     1
102
RTVSPropertyOp31
 70
     1
102
RTVSPropertyOp32
 70
     1
102
RTVSPropertyOp33
 70
     1
102
RTVSPropertyOp34
 70
     1
102
RTVSPropertyOp35
 70
     1
102
RTVSPropertyOp36
 70
     1
102
RTVSPropertyOp37
 70
     1
102
RTVSPropertyOp38
 70
     1
102
RTVSPropertyOp39
 70
     1
102
RTVSPropertyOp40
 70
     1
102
RTVSPropertyOp41
 70
     1
102
RTVSPropertyOp42
 70
     1
102
RTVSPropertyOp43
 70
     1
102
RTVSPropertyOp44
 70
     1
102
RTVSPropertyOp45
 70
     1
102
RTVSPropertyOp46
 70
     1
102
RTVSPropertyOp47
 70
     1
102
RTVSPropertyOp48
 70
     1
102
RTVSPropertyOp49
 70
     1
102
RTVSPropertyOp50
 70
     1
102
RTVSPropertyOp51
 70
     0
102
RTVSPropertyOp52
 70
     0
102
RTVSPropertyOp53
 70
     1
102
RTVSPropertyOp54
 70
     1
102
RTVSPropertyOp55
 70
     1
102
RTVSPropertyOp56
 70
     1
102
RTVSPropertyOp57
 70
     1
102
RTVSPost2010Prop28
280
     0
102
RTVSPost2010PropOp28
 70
     1
102
RTVSPost2010Prop29
280
     1
102
RTVSPost2010PropOp29
 70
     1
102
RTVSPost2010Prop30
280
     1
102
RTVSPost2010PropOp30
 70
     1
102
RTVSPost2010Prop31
280
     0
102
RTVSPost2010PropOp31
 70
     1
102
RTVSPost2010Prop32
280
     0
102
RTVSPost2010PropOp32
 70
     1
102
RTVSPost2010Prop33
280
     0
102
RTVSPost2010PropOp33
 70
     1
102
RTVSPost2010Prop34
280
     0
102
RTVSPost2010PropOp34
 70
     1
102
RTVSPost2010Prop35
280
     0
102
RTVSPost2010PropOp35
 70
     1
102
RTVSPost2010Prop36
280
     0
102
RTVSPost2010PropOp36
 70
     1
102
RTVSPost2010Prop37
 90
       50
102
RTVSPost2010PropOp37
 70
     1
102
RTVSPost2010Prop38
140
0.0
102
RTVSPost2010PropOp38
 70
     1
102
RTVSPost2010Prop39
140
1.0
102
RTVSPost2010PropOp39
 70
     1
102
RTVSPost2010Prop40
 90
        0
102
RTVSPost2010PropOp40
 70
     1
102
RTVSPost2010Prop41ColorIndex
 90
       18
102
RTVSPost2010Prop41ColorRGB
 90
        0
102
RTVSPost2010PropOp41
 70
     1
102
RTVSPost2010Prop42
 90
       50
102
RTVSPost2010PropOp42
 70
     1
102
RTVSPost2010Prop43
 90
        3
102
RTVSPost2010PropOp43
 70
     1
102
RTVSPost2010Prop44ColorIndex
 90
        5
102
RTVSPost2010Prop44ColorRGB
 90
      255
102
RTVSPost2010PropOp44
 70
     1
102
RTVSPost2010Prop45
280
     0
102
RTVSPost2010PropOp45
 70
     1
102
RTVSPost2010Prop46
 90
       50
102
RTVSPost2010PropOp46
 70
     1
102
RTVSPost2010Prop47
 90
       50
102
RTVSPost2010PropOp47
 70
     1
102
RTVSPost2010Prop48
 90
       50
102
RTVSPost2010PropOp48
 70
     1
102
RTVSPost2010Prop49
280
     0
102
RTVSPost2010PropOp49
 70
     1
102
RTVSPost2010Prop50
 90
       50
102
RTVSPost2010PropOp50
 70
     1
102
RTVSPost2010Prop51ColorIndex
 90
      256
102
RTVSPost2010Prop51ColorRGB
 90
-16777216
102
RTVSPost2010PropOp51
 70
     0
102
RTVSPost2010Prop52
140
1.0
102
RTVSPost2010PropOp52
 70
     0
102
RTVSPost2010Prop53
 90
        2
102
RTVSPost2010PropOp53
 70
     1
102
RTVSPost2010Prop54
  1
strokes_ogs.tif
102
RTVSPost2010PropOp54
 70
     1
102
RTVSPost2010Prop55
280
     0
102
RTVSPost2010PropOp55
 70
     1
102
RTVSPost2010Prop56
140
1.0
102
RTVSPost2010PropOp56
 70
     1
102
RTVSPost2010Prop57
140
1.0
102
RTVSPost2010PropOp57
 70
     1
  0
XRECORD
  5
27B
102
{ACAD_REACTORS
330
27A
102
}
330
27A
100
AcDbXrecord
280
     1
102
RTVSPropertyOp0
 70
     1
102
RTVSPropertyOp1
 70
     1
102
RTVSPropertyOp2
 70
     1
102
RTVSPropertyOp3
 70
     1
102
RTVSPropertyOp4
 70
     1
102
RTVSPropertyOp5
 70
     1
102
RTVSPropertyOp6
 70
     1
102
RTVSPropertyOp7
 70
     1
102
RTVSPropertyOp8
 70
     1
102
RTVSPropertyOp9
 70
     1
102
RTVSPropertyOp10
 70
     1
102
RTVSPropertyOp11
 70
     1
102
RTVSPropertyOp12
 70
     1
102
RTVSPropertyOp13
 70
     1
102
RTVSPropertyOp14
 70
     1
102
RTVSPropertyOp15
 70
     1
102
RTVSPropertyOp16
 70
     1
102
RTVSPropertyOp17
 70
     1
102
RTVSPropertyOp18
 70
     1
102
RTVSPropertyOp19
 70
     1
102
RTVSPropertyOp20
 70
     1
102
RTVSPropertyOp21
 70
     1
102
RTVSPropertyOp22
 70
     1
102
RTVSPropertyOp23
 70
     1
102
RTVSPropertyOp24
 70
     1
102
RTVSPropertyOp25
 70
     1
102
RTVSPropertyOp26
 70
     1
102
RTVSPropertyOp27
 70
     1
102
RTVSPropertyOp28
 70
     1
102
RTVSPropertyOp29
 70
     1
102
RTVSPropertyOp30
 70
     1
102
RTVSPropertyOp31
 70
     1
102
RTVSPropertyOp32
 70
     1
102
RTVSPropertyOp33
 70
     1
102
RTVSPropertyOp34
 70
     1
102
RTVSPropertyOp35
 70
     1
102
RTVSPropertyOp36
 70
     1
102
RTVSPropertyOp37
 70
     1
102
RTVSPropertyOp38
 70
     1
102
RTVSPropertyOp39
 70
     1
102
RTVSPropertyOp40
 70
     1
102
RTVSPropertyOp41
 70
     1
102
RTVSPropertyOp42
 70
     1
102
RTVSPropertyOp43
 70
     1
102
RTVSPropertyOp44
 70
     1
102
RTVSPropertyOp45
 70
     1
102
RTVSPropertyOp46
 70
     1
102
RTVSPropertyOp47
 70
     1
102
RTVSPropertyOp48
 70
     1
102
RTVSPropertyOp49
 70
     1
102
RTVSPropertyOp50
 70
     1
102
RTVSPropertyOp51
 70
     0
102
RTVSPropertyOp52
 70
     0
102
RTVSPropertyOp53
 70
     1
102
RTVSPropertyOp54
 70
     1
102
RTVSPropertyOp55
 70
     1
102
RTVSPropertyOp56
 70
     1
102
RTVSPropertyOp57
 70
     1
102
RTVSPost2010Prop28
280
     0
102
RTVSPost2010PropOp28
 70
     1
102
RTVSPost2010Prop29
280
     1
102
RTVSPost2010PropOp29
 70
     1
102
RTVSPost2010Prop30
280
     1
102
RTVSPost2010PropOp30
 70
     1
102
RTVSPost2010Prop31
280
     0
102
RTVSPost2010PropOp31
 70
     1
102
RTVSPost2010Prop32
280
     0
102
RTVSPost2010PropOp32
 70
     1
102
RTVSPost2010Prop33
280
     0
102
RTVSPost2010PropOp33
 70
     1
102
RTVSPost2010Prop34
280
     0
102
RTVSPost2010PropOp34
 70
     1
102
RTVSPost2010Prop35
280
     0
102
RTVSPost2010PropOp35
 70
     1
102
RTVSPost2010Prop36
280
     0
102
RTVSPost2010PropOp36
 70
     1
102
RTVSPost2010Prop37
 90
       50
102
RTVSPost2010PropOp37
 70
     1
102
RTVSPost2010Prop38
140
0.0
102
RTVSPost2010PropOp38
 70
     1
102
RTVSPost2010Prop39
140
1.0
102
RTVSPost2010PropOp39
 70
     1
102
RTVSPost2010Prop40
 90
        0
102
RTVSPost2010PropOp40
 70
     1
102
RTVSPost2010Prop41ColorIndex
 90
       18
102
RTVSPost2010Prop41ColorRGB
 90
        0
102
RTVSPost2010PropOp41
 70
     1
102
RTVSPost2010Prop42
 90
       50
102
RTVSPost2010PropOp42
 70
     1
102
RTVSPost2010Prop43
 90
        3
102
RTVSPost2010PropOp43
 70
     1
102
RTVSPost2010Prop44ColorIndex
 90
        5
102
RTVSPost2010Prop44ColorRGB
 90
      255
102
RTVSPost2010PropOp44
 70
     1
102
RTVSPost2010Prop45
280
     0
102
RTVSPost2010PropOp45
 70
     1
102
RTVSPost2010Prop46
 90
       50
102
RTVSPost2010PropOp46
 70
     1
102
RTVSPost2010Prop47
 90
       50
102
RTVSPost2010PropOp47
 70
     1
102
RTVSPost2010Prop48
 90
       50
102
RTVSPost2010PropOp48
 70
     1
102
RTVSPost2010Prop49
280
     0
102
RTVSPost2010PropOp49
 70
     1
102
RTVSPost2010Prop50
 90
       50
102
RTVSPost2010PropOp50
 70
     1
102
RTVSPost2010Prop51ColorIndex
 90
      256
102
RTVSPost2010Prop51ColorRGB
 90
-16777216
102
RTVSPost2010PropOp51
 70
     0
102
RTVSPost2010Prop52
140
1.0
102
RTVSPost2010PropOp52
 70
     0
102
RTVSPost2010Prop53
 90
        2
102
RTVSPost2010PropOp53
 70
     1
102
RTVSPost2010Prop54
  1
strokes_ogs.tif
102
RTVSPost2010PropOp54
 70
     1
102
RTVSPost2010Prop55
280
     0
102
RTVSPost2010PropOp55
 70
     1
102
RTVSPost2010Prop56
140
1.0
102
RTVSPost2010PropOp56
 70
     1
102
RTVSPost2010Prop57
140
1.0
102
RTVSPost2010PropOp57
 70
     1
  0
XRECORD
  5
283
102
{ACAD_REACTORS
330
282
102
}
330
282
100
AcDbXrecord
280
     1
102
RTVSPropertyOp0
 70
     1
102
RTVSPropertyOp1
 70
     1
102
RTVSPropertyOp2
 70
     1
102
RTVSPropertyOp3
 70
     1
102
RTVSPropertyOp4
 70
     1
102
RTVSPropertyOp5
 70
     1
102
RTVSPropertyOp6
 70
     1
102
RTVSPropertyOp7
 70
     1
102
RTVSPropertyOp8
 70
     1
102
RTVSPropertyOp9
 70
     1
102
RTVSPropertyOp10
 70
     1
102
RTVSPropertyOp11
 70
     1
102
RTVSPropertyOp12
 70
     1
102
RTVSPropertyOp13
 70
     1
102
RTVSPropertyOp14
 70
     1
102
RTVSPropertyOp15
 70
     1
102
RTVSPropertyOp16
 70
     1
102
RTVSPropertyOp17
 70
     1
102
RTVSPropertyOp18
 70
     1
102
RTVSPropertyOp19
 70
     1
102
RTVSPropertyOp20
 70
     1
102
RTVSPropertyOp21
 70
     1
102
RTVSPropertyOp22
 70
     1
102
RTVSPropertyOp23
 70
     1
102
RTVSPropertyOp24
 70
     1
102
RTVSPropertyOp25
 70
     1
102
RTVSPropertyOp26
 70
     1
102
RTVSPropertyOp27
 70
     1
102
RTVSPropertyOp28
 70
     1
102
RTVSPropertyOp29
 70
     1
102
RTVSPropertyOp30
 70
     1
102
RTVSPropertyOp31
 70
     1
102
RTVSPropertyOp32
 70
     1
102
RTVSPropertyOp33
 70
     1
102
RTVSPropertyOp34
 70
     1
102
RTVSPropertyOp35
 70
     1
102
RTVSPropertyOp36
 70
     1
102
RTVSPropertyOp37
 70
     1
102
RTVSPropertyOp38
 70
     1
102
RTVSPropertyOp39
 70
     1
102
RTVSPropertyOp40
 70
     1
102
RTVSPropertyOp41
 70
     1
102
RTVSPropertyOp42
 70
     1
102
RTVSPropertyOp43
 70
     1
102
RTVSPropertyOp44
 70
     1
102
RTVSPropertyOp45
 70
     1
102
RTVSPropertyOp46
 70
     1
102
RTVSPropertyOp47
 70
     1
102
RTVSPropertyOp48
 70
     1
102
RTVSPropertyOp49
 70
     1
102
RTVSPropertyOp50
 70
     1
102
RTVSPropertyOp51
 70
     0
102
RTVSPropertyOp52
 70
     0
102
RTVSPropertyOp53
 70
     1
102
RTVSPropertyOp54
 70
     1
102
RTVSPropertyOp55
 70
     1
102
RTVSPropertyOp56
 70
     1
102
RTVSPropertyOp57
 70
     1
102
RTVSPost2010Prop28
280
     0
102
RTVSPost2010PropOp28
 70
     1
102
RTVSPost2010Prop29
280
     1
102
RTVSPost2010PropOp29
 70
     1
102
RTVSPost2010Prop30
280
     1
102
RTVSPost2010PropOp30
 70
     1
102
RTVSPost2010Prop31
280
     0
102
RTVSPost2010PropOp31
 70
     1
102
RTVSPost2010Prop32
280
     0
102
RTVSPost2010PropOp32
 70
     1
102
RTVSPost2010Prop33
280
     0
102
RTVSPost2010PropOp33
 70
     1
102
RTVSPost2010Prop34
280
     0
102
RTVSPost2010PropOp34
 70
     1
102
RTVSPost2010Prop35
280
     0
102
RTVSPost2010PropOp35
 70
     1
102
RTVSPost2010Prop36
280
     0
102
RTVSPost2010PropOp36
 70
     1
102
RTVSPost2010Prop37
 90
       50
102
RTVSPost2010PropOp37
 70
     1
102
RTVSPost2010Prop38
140
0.0
102
RTVSPost2010PropOp38
 70
     1
102
RTVSPost2010Prop39
140
1.0
102
RTVSPost2010PropOp39
 70
     1
102
RTVSPost2010Prop40
 90
        0
102
RTVSPost2010PropOp40
 70
     1
102
RTVSPost2010Prop41ColorIndex
 90
       18
102
RTVSPost2010Prop41ColorRGB
 90
        0
102
RTVSPost2010PropOp41
 70
     1
102
RTVSPost2010Prop42
 90
       50
102
RTVSPost2010PropOp42
 70
     1
102
RTVSPost2010Prop43
 90
        3
102
RTVSPost2010PropOp43
 70
     1
102
RTVSPost2010Prop44ColorIndex
 90
        5
102
RTVSPost2010Prop44ColorRGB
 90
      255
102
RTVSPost2010PropOp44
 70
     1
102
RTVSPost2010Prop45
280
     0
102
RTVSPost2010PropOp45
 70
     1
102
RTVSPost2010Prop46
 90
       50
102
RTVSPost2010PropOp46
 70
     1
102
RTVSPost2010Prop47
 90
       50
102
RTVSPost2010PropOp47
 70
     1
102
RTVSPost2010Prop48
 90
       50
102
RTVSPost2010PropOp48
 70
     1
102
RTVSPost2010Prop49
280
     0
102
RTVSPost2010PropOp49
 70
     1
102
RTVSPost2010Prop50
 90
       50
102
RTVSPost2010PropOp50
 70
     1
102
RTVSPost2010Prop51ColorIndex
 90
      256
102
RTVSPost2010Prop51ColorRGB
 90
-16777216
102
RTVSPost2010PropOp51
 70
     0
102
RTVSPost2010Prop52
140
1.0
102
RTVSPost2010PropOp52
 70
     0
102
RTVSPost2010Prop53
 90
        2
102
RTVSPost2010PropOp53
 70
     1
102
RTVSPost2010Prop54
  1
strokes_ogs.tif
102
RTVSPost2010PropOp54
 70
     1
102
RTVSPost2010Prop55
280
     0
102
RTVSPost2010PropOp55
 70
     1
102
RTVSPost2010Prop56
140
1.0
102
RTVSPost2010PropOp56
 70
     1
102
RTVSPost2010Prop57
140
1.0
102
RTVSPost2010PropOp57
 70
     1
  0
XRECORD
  5
277
102
{ACAD_REACTORS
330
276
102
}
330
276
100
AcDbXrecord
280
     1
102
RTVSPropertyOp0
 70
     1
102
RTVSPropertyOp1
 70
     1
102
RTVSPropertyOp2
 70
     1
102
RTVSPropertyOp3
 70
     1
102
RTVSPropertyOp4
 70
     1
102
RTVSPropertyOp5
 70
     1
102
RTVSPropertyOp6
 70
     1
102
RTVSPropertyOp7
 70
     1
102
RTVSPropertyOp8
 70
     1
102
RTVSPropertyOp9
 70
     1
102
RTVSPropertyOp10
 70
     1
102
RTVSPropertyOp11
 70
     1
102
RTVSPropertyOp12
 70
     1
102
RTVSPropertyOp13
 70
     1
102
RTVSPropertyOp14
 70
     1
102
RTVSPropertyOp15
 70
     1
102
RTVSPropertyOp16
 70
     1
102
RTVSPropertyOp17
 70
     1
102
RTVSPropertyOp18
 70
     1
102
RTVSPropertyOp19
 70
     1
102
RTVSPropertyOp20
 70
     1
102
RTVSPropertyOp21
 70
     1
102
RTVSPropertyOp22
 70
     1
102
RTVSPropertyOp23
 70
     1
102
RTVSPropertyOp24
 70
     1
102
RTVSPropertyOp25
 70
     1
102
RTVSPropertyOp26
 70
     1
102
RTVSPropertyOp27
 70
     1
102
RTVSPropertyOp28
 70
     1
102
RTVSPropertyOp29
 70
     1
102
RTVSPropertyOp30
 70
     1
102
RTVSPropertyOp31
 70
     1
102
RTVSPropertyOp32
 70
     1
102
RTVSPropertyOp33
 70
     1
102
RTVSPropertyOp34
 70
     1
102
RTVSPropertyOp35
 70
     1
102
RTVSPropertyOp36
 70
     1
102
RTVSPropertyOp37
 70
     1
102
RTVSPropertyOp38
 70
     1
102
RTVSPropertyOp39
 70
     1
102
RTVSPropertyOp40
 70
     1
102
RTVSPropertyOp41
 70
     1
102
RTVSPropertyOp42
 70
     1
102
RTVSPropertyOp43
 70
     1
102
RTVSPropertyOp44
 70
     1
102
RTVSPropertyOp45
 70
     1
102
RTVSPropertyOp46
 70
     1
102
RTVSPropertyOp47
 70
     1
102
RTVSPropertyOp48
 70
     1
102
RTVSPropertyOp49
 70
     1
102
RTVSPropertyOp50
 70
     1
102
RTVSPropertyOp51
 70
     0
102
RTVSPropertyOp52
 70
     0
102
RTVSPropertyOp53
 70
     1
102
RTVSPropertyOp54
 70
     1
102
RTVSPropertyOp55
 70
     1
102
RTVSPropertyOp56
 70
     1
102
RTVSPropertyOp57
 70
     1
102
RTVSPost2010Prop28
280
     0
102
RTVSPost2010PropOp28
 70
     1
102
RTVSPost2010Prop29
280
     1
102
RTVSPost2010PropOp29
 70
     1
102
RTVSPost2010Prop30
280
     1
102
RTVSPost2010PropOp30
 70
     1
102
RTVSPost2010Prop31
280
     0
102
RTVSPost2010PropOp31
 70
     1
102
RTVSPost2010Prop32
280
     0
102
RTVSPost2010PropOp32
 70
     1
102
RTVSPost2010Prop33
280
     0
102
RTVSPost2010PropOp33
 70
     1
102
RTVSPost2010Prop34
280
     0
102
RTVSPost2010PropOp34
 70
     1
102
RTVSPost2010Prop35
280
     0
102
RTVSPost2010PropOp35
 70
     1
102
RTVSPost2010Prop36
280
     0
102
RTVSPost2010PropOp36
 70
     1
102
RTVSPost2010Prop37
 90
       50
102
RTVSPost2010PropOp37
 70
     1
102
RTVSPost2010Prop38
140
0.0
102
RTVSPost2010PropOp38
 70
     1
102
RTVSPost2010Prop39
140
1.0
102
RTVSPost2010PropOp39
 70
     1
102
RTVSPost2010Prop40
 90
        0
102
RTVSPost2010PropOp40
 70
     1
102
RTVSPost2010Prop41ColorIndex
 90
       18
102
RTVSPost2010Prop41ColorRGB
 90
        0
102
RTVSPost2010PropOp41
 70
     1
102
RTVSPost2010Prop42
 90
       50
102
RTVSPost2010PropOp42
 70
     1
102
RTVSPost2010Prop43
 90
        3
102
RTVSPost2010PropOp43
 70
     1
102
RTVSPost2010Prop44ColorIndex
 90
        5
102
RTVSPost2010Prop44ColorRGB
 90
      255
102
RTVSPost2010PropOp44
 70
     1
102
RTVSPost2010Prop45
280
     0
102
RTVSPost2010PropOp45
 70
     1
102
RTVSPost2010Prop46
 90
       50
102
RTVSPost2010PropOp46
 70
     1
102
RTVSPost2010Prop47
 90
       50
102
RTVSPost2010PropOp47
 70
     1
102
RTVSPost2010Prop48
 90
       50
102
RTVSPost2010PropOp48
 70
     1
102
RTVSPost2010Prop49
280
     0
102
RTVSPost2010PropOp49
 70
     1
102
RTVSPost2010Prop50
 90
       50
102
RTVSPost2010PropOp50
 70
     1
102
RTVSPost2010Prop51ColorIndex
 90
      256
102
RTVSPost2010Prop51ColorRGB
 90
-16777216
102
RTVSPost2010PropOp51
 70
     0
102
RTVSPost2010Prop52
140
1.0
102
RTVSPost2010PropOp52
 70
     0
102
RTVSPost2010Prop53
 90
        2
102
RTVSPost2010PropOp53
 70
     1
102
RTVSPost2010Prop54
  1
strokes_ogs.tif
102
RTVSPost2010PropOp54
 70
     1
102
RTVSPost2010Prop55
280
     0
102
RTVSPost2010PropOp55
 70
     1
102
RTVSPost2010Prop56
140
1.0
102
RTVSPost2010PropOp56
 70
     1
102
RTVSPost2010Prop57
140
1.0
102
RTVSPost2010PropOp57
 70
     1
  0
XRECORD
  5
279
102
{ACAD_REACTORS
330
278
102
}
330
278
100
AcDbXrecord
280
     1
102
RTVSPropertyOp0
 70
     1
102
RTVSPropertyOp1
 70
     1
102
RTVSPropertyOp2
 70
     1
102
RTVSPropertyOp3
 70
     1
102
RTVSPropertyOp4
 70
     1
102
RTVSPropertyOp5
 70
     1
102
RTVSPropertyOp6
 70
     1
102
RTVSPropertyOp7
 70
     1
102
RTVSPropertyOp8
 70
     1
102
RTVSPropertyOp9
 70
     1
102
RTVSPropertyOp10
 70
     1
102
RTVSPropertyOp11
 70
     1
102
RTVSPropertyOp12
 70
     1
102
RTVSPropertyOp13
 70
     1
102
RTVSPropertyOp14
 70
     1
102
RTVSPropertyOp15
 70
     1
102
RTVSPropertyOp16
 70
     1
102
RTVSPropertyOp17
 70
     1
102
RTVSPropertyOp18
 70
     1
102
RTVSPropertyOp19
 70
     1
102
RTVSPropertyOp20
 70
     1
102
RTVSPropertyOp21
 70
     1
102
RTVSPropertyOp22
 70
     1
102
RTVSPropertyOp23
 70
     1
102
RTVSPropertyOp24
 70
     1
102
RTVSPropertyOp25
 70
     1
102
RTVSPropertyOp26
 70
     1
102
RTVSPropertyOp27
 70
     1
102
RTVSPropertyOp28
 70
     1
102
RTVSPropertyOp29
 70
     1
102
RTVSPropertyOp30
 70
     1
102
RTVSPropertyOp31
 70
     1
102
RTVSPropertyOp32
 70
     1
102
RTVSPropertyOp33
 70
     1
102
RTVSPropertyOp34
 70
     1
102
RTVSPropertyOp35
 70
     1
102
RTVSPropertyOp36
 70
     1
102
RTVSPropertyOp37
 70
     1
102
RTVSPropertyOp38
 70
     1
102
RTVSPropertyOp39
 70
     1
102
RTVSPropertyOp40
 70
     1
102
RTVSPropertyOp41
 70
     1
102
RTVSPropertyOp42
 70
     1
102
RTVSPropertyOp43
 70
     1
102
RTVSPropertyOp44
 70
     1
102
RTVSPropertyOp45
 70
     1
102
RTVSPropertyOp46
 70
     1
102
RTVSPropertyOp47
 70
     1
102
RTVSPropertyOp48
 70
     1
102
RTVSPropertyOp49
 70
     1
102
RTVSPropertyOp50
 70
     1
102
RTVSPropertyOp51
 70
     0
102
RTVSPropertyOp52
 70
     0
102
RTVSPropertyOp53
 70
     1
102
RTVSPropertyOp54
 70
     1
102
RTVSPropertyOp55
 70
     1
102
RTVSPropertyOp56
 70
     1
102
RTVSPropertyOp57
 70
     1
102
RTVSPost2010Prop28
280
     0
102
RTVSPost2010PropOp28
 70
     1
102
RTVSPost2010Prop29
280
     1
102
RTVSPost2010PropOp29
 70
     1
102
RTVSPost2010Prop30
280
     1
102
RTVSPost2010PropOp30
 70
     1
102
RTVSPost2010Prop31
280
     0
102
RTVSPost2010PropOp31
 70
     1
102
RTVSPost2010Prop32
280
     0
102
RTVSPost2010PropOp32
 70
     1
102
RTVSPost2010Prop33
280
     0
102
RTVSPost2010PropOp33
 70
     1
102
RTVSPost2010Prop34
280
     0
102
RTVSPost2010PropOp34
 70
     1
102
RTVSPost2010Prop35
280
     0
102
RTVSPost2010PropOp35
 70
     1
102
RTVSPost2010Prop36
280
     0
102
RTVSPost2010PropOp36
 70
     1
102
RTVSPost2010Prop37
 90
       50
102
RTVSPost2010PropOp37
 70
     1
102
RTVSPost2010Prop38
140
0.0
102
RTVSPost2010PropOp38
 70
     1
102
RTVSPost2010Prop39
140
1.0
102
RTVSPost2010PropOp39
 70
     1
102
RTVSPost2010Prop40
 90
        0
102
RTVSPost2010PropOp40
 70
     1
102
RTVSPost2010Prop41ColorIndex
 90
       18
102
RTVSPost2010Prop41ColorRGB
 90
        0
102
RTVSPost2010PropOp41
 70
     1
102
RTVSPost2010Prop42
 90
       50
102
RTVSPost2010PropOp42
 70
     1
102
RTVSPost2010Prop43
 90
        3
102
RTVSPost2010PropOp43
 70
     1
102
RTVSPost2010Prop44ColorIndex
 90
        5
102
RTVSPost2010Prop44ColorRGB
 90
      255
102
RTVSPost2010PropOp44
 70
     1
102
RTVSPost2010Prop45
280
     0
102
RTVSPost2010PropOp45
 70
     1
102
RTVSPost2010Prop46
 90
       50
102
RTVSPost2010PropOp46
 70
     1
102
RTVSPost2010Prop47
 90
       50
102
RTVSPost2010PropOp47
 70
     1
102
RTVSPost2010Prop48
 90
       50
102
RTVSPost2010PropOp48
 70
     1
102
RTVSPost2010Prop49
280
     0
102
RTVSPost2010PropOp49
 70
     1
102
RTVSPost2010Prop50
 90
       50
102
RTVSPost2010PropOp50
 70
     1
102
RTVSPost2010Prop51ColorIndex
 90
      256
102
RTVSPost2010Prop51ColorRGB
 90
-16777216
102
RTVSPost2010PropOp51
 70
     0
102
RTVSPost2010Prop52
140
1.0
102
RTVSPost2010PropOp52
 70
     0
102
RTVSPost2010Prop53
 90
        2
102
RTVSPost2010PropOp53
 70
     1
102
RTVSPost2010Prop54
  1
strokes_ogs.tif
102
RTVSPost2010PropOp54
 70
     1
102
RTVSPost2010Prop55
280
     0
102
RTVSPost2010PropOp55
 70
     1
102
RTVSPost2010Prop56
140
1.0
102
RTVSPost2010PropOp56
 70
     1
102
RTVSPost2010Prop57
140
1.0
102
RTVSPost2010PropOp57
 70
     1
  0
XRECORD
  5
289
102
{ACAD_REACTORS
330
288
102
}
330
288
100
AcDbXrecord
280
     1
102
RTVSPropertyOp0
 70
     0
102
RTVSPropertyOp1
 70
     0
102
RTVSPropertyOp2
 70
     0
102
RTVSPropertyOp3
 70
     0
102
RTVSPropertyOp4
 70
     0
102
RTVSPropertyOp5
 70
     0
102
RTVSPropertyOp6
 70
     0
102
RTVSPropertyOp7
 70
     0
102
RTVSPropertyOp8
 70
     0
102
RTVSPropertyOp9
 70
     0
102
RTVSPropertyOp10
 70
     0
102
RTVSPropertyOp11
 70
     0
102
RTVSPropertyOp12
 70
     0
102
RTVSPropertyOp13
 70
     0
102
RTVSPropertyOp14
 70
     2
102
RTVSPropertyOp15
 70
     0
102
RTVSPropertyOp16
 70
     0
102
RTVSPropertyOp17
 70
     0
102
RTVSPropertyOp18
 70
     0
102
RTVSPropertyOp19
 70
     0
102
RTVSPropertyOp20
 70
     0
102
RTVSPropertyOp21
 70
     0
102
RTVSPropertyOp22
 70
     0
102
RTVSPropertyOp23
 70
     0
102
RTVSPropertyOp24
 70
     0
102
RTVSPropertyOp25
 70
     0
102
RTVSPropertyOp26
 70
     0
102
RTVSPropertyOp27
 70
     0
102
RTVSPropertyOp28
 70
     0
102
RTVSPropertyOp29
 70
     0
102
RTVSPropertyOp30
 70
     0
102
RTVSPropertyOp31
 70
     0
102
RTVSPropertyOp32
 70
     0
102
RTVSPropertyOp33
 70
     0
102
RTVSPropertyOp34
 70
     0
102
RTVSPropertyOp35
 70
     0
102
RTVSPropertyOp36
 70
     0
102
RTVSPropertyOp37
 70
     0
102
RTVSPropertyOp38
 70
     0
102
RTVSPropertyOp39
 70
     0
102
RTVSPropertyOp40
 70
     0
102
RTVSPropertyOp41
 70
     0
102
RTVSPropertyOp42
 70
     0
102
RTVSPropertyOp43
 70
     0
102
RTVSPropertyOp44
 70
     0
102
RTVSPropertyOp45
 70
     0
102
RTVSPropertyOp46
 70
     0
102
RTVSPropertyOp47
 70
     0
102
RTVSPropertyOp48
 70
     0
102
RTVSPropertyOp49
 70
     0
102
RTVSPropertyOp50
 70
     0
102
RTVSPropertyOp51
 70
     0
102
RTVSPropertyOp52
 70
     0
102
RTVSPropertyOp53
 70
     0
102
RTVSPropertyOp54
 70
     0
102
RTVSPropertyOp55
 70
     0
102
RTVSPropertyOp56
 70
     0
102
RTVSPropertyOp57
 70
     0
102
RTVSPost2010Prop28
280
     0
102
RTVSPost2010PropOp28
 70
     0
102
RTVSPost2010Prop29
280
     1
102
RTVSPost2010PropOp29
 70
     0
102
RTVSPost2010Prop30
280
     1
102
RTVSPost2010PropOp30
 70
     0
102
RTVSPost2010Prop31
280
     0
102
RTVSPost2010PropOp31
 70
     0
102
RTVSPost2010Prop32
280
     0
102
RTVSPost2010PropOp32
 70
     0
102
RTVSPost2010Prop33
280
     0
102
RTVSPost2010PropOp33
 70
     0
102
RTVSPost2010Prop34
280
     0
102
RTVSPost2010PropOp34
 70
     0
102
RTVSPost2010Prop35
280
     0
102
RTVSPost2010PropOp35
 70
     0
102
RTVSPost2010Prop36
280
     0
102
RTVSPost2010PropOp36
 70
     0
102
RTVSPost2010Prop37
 90
       50
102
RTVSPost2010PropOp37
 70
     0
102
RTVSPost2010Prop38
140
0.0
102
RTVSPost2010PropOp38
 70
     0
102
RTVSPost2010Prop39
140
1.0
102
RTVSPost2010PropOp39
 70
     0
102
RTVSPost2010Prop40
 90
        0
102
RTVSPost2010PropOp40
 70
     0
102
RTVSPost2010Prop41ColorIndex
 90
       18
102
RTVSPost2010Prop41ColorRGB
 90
        0
102
RTVSPost2010PropOp41
 70
     0
102
RTVSPost2010Prop42
 90
       50
102
RTVSPost2010PropOp42
 70
     0
102
RTVSPost2010Prop43
 90
        3
102
RTVSPost2010PropOp43
 70
     0
102
RTVSPost2010Prop44ColorIndex
 90
        5
102
RTVSPost2010Prop44ColorRGB
 90
      255
102
RTVSPost2010PropOp44
 70
     0
102
RTVSPost2010Prop45
280
     0
102
RTVSPost2010PropOp45
 70
     0
102
RTVSPost2010Prop46
 90
       50
102
RTVSPost2010PropOp46
 70
     0
102
RTVSPost2010Prop47
 90
       50
102
RTVSPost2010PropOp47
 70
     0
102
RTVSPost2010Prop48
 90
       50
102
RTVSPost2010PropOp48
 70
     0
102
RTVSPost2010Prop49
280
     0
102
RTVSPost2010PropOp49
 70
     0
102
RTVSPost2010Prop50
 90
       50
102
RTVSPost2010PropOp50
 70
     0
102
RTVSPost2010Prop51ColorIndex
 90
      256
102
RTVSPost2010Prop51ColorRGB
 90
-16777216
102
RTVSPost2010PropOp51
 70
     0
102
RTVSPost2010Prop52
140
1.0
102
RTVSPost2010PropOp52
 70
     0
102
RTVSPost2010Prop53
 90
        2
102
RTVSPost2010PropOp53
 70
     0
102
RTVSPost2010Prop54
  1
strokes_ogs.tif
102
RTVSPost2010PropOp54
 70
     0
102
RTVSPost2010Prop55
280
     0
102
RTVSPost2010PropOp55
 70
     0
102
RTVSPost2010Prop56
140
1.0
102
RTVSPost2010PropOp56
 70
     0
102
RTVSPost2010Prop57
140
1.0
102
RTVSPost2010PropOp57
 70
     0
  0
XRECORD
  5
281
102
{ACAD_REACTORS
330
280
102
}
330
280
100
AcDbXrecord
280
     1
102
RTVSPropertyOp0
 70
     1
102
RTVSPropertyOp1
 70
     1
102
RTVSPropertyOp2
 70
     1
102
RTVSPropertyOp3
 70
     1
102
RTVSPropertyOp4
 70
     1
102
RTVSPropertyOp5
 70
     1
102
RTVSPropertyOp6
 70
     1
102
RTVSPropertyOp7
 70
     1
102
RTVSPropertyOp8
 70
     1
102
RTVSPropertyOp9
 70
     1
102
RTVSPropertyOp10
 70
     1
102
RTVSPropertyOp11
 70
     1
102
RTVSPropertyOp12
 70
     1
102
RTVSPropertyOp13
 70
     1
102
RTVSPropertyOp14
 70
     1
102
RTVSPropertyOp15
 70
     1
102
RTVSPropertyOp16
 70
     1
102
RTVSPropertyOp17
 70
     1
102
RTVSPropertyOp18
 70
     1
102
RTVSPropertyOp19
 70
     1
102
RTVSPropertyOp20
 70
     1
102
RTVSPropertyOp21
 70
     1
102
RTVSPropertyOp22
 70
     1
102
RTVSPropertyOp23
 70
     1
102
RTVSPropertyOp24
 70
     1
102
RTVSPropertyOp25
 70
     1
102
RTVSPropertyOp26
 70
     1
102
RTVSPropertyOp27
 70
     1
102
RTVSPropertyOp28
 70
     1
102
RTVSPropertyOp29
 70
     1
102
RTVSPropertyOp30
 70
     1
102
RTVSPropertyOp31
 70
     1
102
RTVSPropertyOp32
 70
     1
102
RTVSPropertyOp33
 70
     1
102
RTVSPropertyOp34
 70
     1
102
RTVSPropertyOp35
 70
     1
102
RTVSPropertyOp36
 70
     1
102
RTVSPropertyOp37
 70
     1
102
RTVSPropertyOp38
 70
     1
102
RTVSPropertyOp39
 70
     1
102
RTVSPropertyOp40
 70
     1
102
RTVSPropertyOp41
 70
     1
102
RTVSPropertyOp42
 70
     1
102
RTVSPropertyOp43
 70
     1
102
RTVSPropertyOp44
 70
     1
102
RTVSPropertyOp45
 70
     1
102
RTVSPropertyOp46
 70
     1
102
RTVSPropertyOp47
 70
     1
102
RTVSPropertyOp48
 70
     1
102
RTVSPropertyOp49
 70
     1
102
RTVSPropertyOp50
 70
     1
102
RTVSPropertyOp51
 70
     0
102
RTVSPropertyOp52
 70
     0
102
RTVSPropertyOp53
 70
     1
102
RTVSPropertyOp54
 70
     1
102
RTVSPropertyOp55
 70
     1
102
RTVSPropertyOp56
 70
     1
102
RTVSPropertyOp57
 70
     1
102
RTVSPost2010Prop28
280
     0
102
RTVSPost2010PropOp28
 70
     1
102
RTVSPost2010Prop29
280
     1
102
RTVSPost2010PropOp29
 70
     1
102
RTVSPost2010Prop30
280
     1
102
RTVSPost2010PropOp30
 70
     1
102
RTVSPost2010Prop31
280
     0
102
RTVSPost2010PropOp31
 70
     1
102
RTVSPost2010Prop32
280
     0
102
RTVSPost2010PropOp32
 70
     1
102
RTVSPost2010Prop33
280
     0
102
RTVSPost2010PropOp33
 70
     1
102
RTVSPost2010Prop34
280
     0
102
RTVSPost2010PropOp34
 70
     1
102
RTVSPost2010Prop35
280
     0
102
RTVSPost2010PropOp35
 70
     1
102
RTVSPost2010Prop36
280
     0
102
RTVSPost2010PropOp36
 70
     1
102
RTVSPost2010Prop37
 90
       50
102
RTVSPost2010PropOp37
 70
     1
102
RTVSPost2010Prop38
140
0.0
102
RTVSPost2010PropOp38
 70
     1
102
RTVSPost2010Prop39
140
1.0
102
RTVSPost2010PropOp39
 70
     1
102
RTVSPost2010Prop40
 90
        0
102
RTVSPost2010PropOp40
 70
     1
102
RTVSPost2010Prop41ColorIndex
 90
       18
102
RTVSPost2010Prop41ColorRGB
 90
        0
102
RTVSPost2010PropOp41
 70
     1
102
RTVSPost2010Prop42
 90
       50
102
RTVSPost2010PropOp42
 70
     1
102
RTVSPost2010Prop43
 90
        3
102
RTVSPost2010PropOp43
 70
     1
102
RTVSPost2010Prop44ColorIndex
 90
        5
102
RTVSPost2010Prop44ColorRGB
 90
      255
102
RTVSPost2010PropOp44
 70
     1
102
RTVSPost2010Prop45
280
     0
102
RTVSPost2010PropOp45
 70
     1
102
RTVSPost2010Prop46
 90
       50
102
RTVSPost2010PropOp46
 70
     1
102
RTVSPost2010Prop47
 90
       50
102
RTVSPost2010PropOp47
 70
     1
102
RTVSPost2010Prop48
 90
       50
102
RTVSPost2010PropOp48
 70
     1
102
RTVSPost2010Prop49
280
     0
102
RTVSPost2010PropOp49
 70
     1
102
RTVSPost2010Prop50
 90
       50
102
RTVSPost2010PropOp50
 70
     1
102
RTVSPost2010Prop51ColorIndex
 90
      256
102
RTVSPost2010Prop51ColorRGB
 90
-16777216
102
RTVSPost2010PropOp51
 70
     0
102
RTVSPost2010Prop52
140
1.0
102
RTVSPost2010PropOp52
 70
     0
102
RTVSPost2010Prop53
 90
        2
102
RTVSPost2010PropOp53
 70
     1
102
RTVSPost2010Prop54
  1
strokes_ogs.tif
102
RTVSPost2010PropOp54
 70
     1
102
RTVSPost2010Prop55
280
     0
102
RTVSPost2010PropOp55
 70
     1
102
RTVSPost2010Prop56
140
1.0
102
RTVSPost2010PropOp56
 70
     1
102
RTVSPost2010Prop57
140
1.0
102
RTVSPost2010PropOp57
 70
     1
  0
XRECORD
  5
265
102
{ACAD_REACTORS
330
264
102
}
330
264
100
AcDbXrecord
280
     1
102
RTVSPropertyOp0
 70
     1
102
RTVSPropertyOp1
 70
     1
102
RTVSPropertyOp2
 70
     1
102
RTVSPropertyOp3
 70
     1
102
RTVSPropertyOp4
 70
     1
102
RTVSPropertyOp5
 70
     1
102
RTVSPropertyOp6
 70
     1
102
RTVSPropertyOp7
 70
     1
102
RTVSPropertyOp8
 70
     1
102
RTVSPropertyOp9
 70
     1
102
RTVSPropertyOp10
 70
     1
102
RTVSPropertyOp11
 70
     1
102
RTVSPropertyOp12
 70
     1
102
RTVSPropertyOp13
 70
     1
102
RTVSPropertyOp14
 70
     1
102
RTVSPropertyOp15
 70
     1
102
RTVSPropertyOp16
 70
     1
102
RTVSPropertyOp17
 70
     1
102
RTVSPropertyOp18
 70
     1
102
RTVSPropertyOp19
 70
     1
102
RTVSPropertyOp20
 70
     1
102
RTVSPropertyOp21
 70
     1
102
RTVSPropertyOp22
 70
     1
102
RTVSPropertyOp23
 70
     1
102
RTVSPropertyOp24
 70
     1
102
RTVSPropertyOp25
 70
     1
102
RTVSPropertyOp26
 70
     1
102
RTVSPropertyOp27
 70
     1
102
RTVSPropertyOp28
 70
     1
102
RTVSPropertyOp29
 70
     1
102
RTVSPropertyOp30
 70
     1
102
RTVSPropertyOp31
 70
     1
102
RTVSPropertyOp32
 70
     1
102
RTVSPropertyOp33
 70
     1
102
RTVSPropertyOp34
 70
     1
102
RTVSPropertyOp35
 70
     1
102
RTVSPropertyOp36
 70
     1
102
RTVSPropertyOp37
 70
     1
102
RTVSPropertyOp38
 70
     1
102
RTVSPropertyOp39
 70
     1
102
RTVSPropertyOp40
 70
     1
102
RTVSPropertyOp41
 70
     1
102
RTVSPropertyOp42
 70
     1
102
RTVSPropertyOp43
 70
     1
102
RTVSPropertyOp44
 70
     1
102
RTVSPropertyOp45
 70
     1
102
RTVSPropertyOp46
 70
     1
102
RTVSPropertyOp47
 70
     1
102
RTVSPropertyOp48
 70
     1
102
RTVSPropertyOp49
 70
     1
102
RTVSPropertyOp50
 70
     1
102
RTVSPropertyOp51
 70
     0
102
RTVSPropertyOp52
 70
     0
102
RTVSPropertyOp53
 70
     1
102
RTVSPropertyOp54
 70
     1
102
RTVSPropertyOp55
 70
     1
102
RTVSPropertyOp56
 70
     1
102
RTVSPropertyOp57
 70
     1
102
RTVSPost2010Prop28
280
     0
102
RTVSPost2010PropOp28
 70
     1
102
RTVSPost2010Prop29
280
     1
102
RTVSPost2010PropOp29
 70
     1
102
RTVSPost2010Prop30
280
     1
102
RTVSPost2010PropOp30
 70
     1
102
RTVSPost2010Prop31
280
     0
102
RTVSPost2010PropOp31
 70
     1
102
RTVSPost2010Prop32
280
     0
102
RTVSPost2010PropOp32
 70
     1
102
RTVSPost2010Prop33
280
     0
102
RTVSPost2010PropOp33
 70
     1
102
RTVSPost2010Prop34
280
     0
102
RTVSPost2010PropOp34
 70
     1
102
RTVSPost2010Prop35
280
     0
102
RTVSPost2010PropOp35
 70
     1
102
RTVSPost2010Prop36
280
     0
102
RTVSPost2010PropOp36
 70
     1
102
RTVSPost2010Prop37
 90
       50
102
RTVSPost2010PropOp37
 70
     1
102
RTVSPost2010Prop38
140
0.0
102
RTVSPost2010PropOp38
 70
     1
102
RTVSPost2010Prop39
140
1.0
102
RTVSPost2010PropOp39
 70
     1
102
RTVSPost2010Prop40
 90
        0
102
RTVSPost2010PropOp40
 70
     1
102
RTVSPost2010Prop41ColorIndex
 90
       18
102
RTVSPost2010Prop41ColorRGB
 90
        0
102
RTVSPost2010PropOp41
 70
     1
102
RTVSPost2010Prop42
 90
       50
102
RTVSPost2010PropOp42
 70
     1
102
RTVSPost2010Prop43
 90
        3
102
RTVSPost2010PropOp43
 70
     1
102
RTVSPost2010Prop44ColorIndex
 90
        5
102
RTVSPost2010Prop44ColorRGB
 90
      255
102
RTVSPost2010PropOp44
 70
     1
102
RTVSPost2010Prop45
280
     0
102
RTVSPost2010PropOp45
 70
     1
102
RTVSPost2010Prop46
 90
       50
102
RTVSPost2010PropOp46
 70
     1
102
RTVSPost2010Prop47
 90
       50
102
RTVSPost2010PropOp47
 70
     1
102
RTVSPost2010Prop48
 90
       50
102
RTVSPost2010PropOp48
 70
     1
102
RTVSPost2010Prop49
280
     0
102
RTVSPost2010PropOp49
 70
     1
102
RTVSPost2010Prop50
 90
       50
102
RTVSPost2010PropOp50
 70
     1
102
RTVSPost2010Prop51ColorIndex
 90
      256
102
RTVSPost2010Prop51ColorRGB
 90
-16777216
102
RTVSPost2010PropOp51
 70
     0
102
RTVSPost2010Prop52
140
1.0
102
RTVSPost2010PropOp52
 70
     0
102
RTVSPost2010Prop53
 90
        2
102
RTVSPost2010PropOp53
 70
     1
102
RTVSPost2010Prop54
  1
strokes_ogs.tif
102
RTVSPost2010PropOp54
 70
     1
102
RTVSPost2010Prop55
280
     0
102
RTVSPost2010PropOp55
 70
     1
102
RTVSPost2010Prop56
140
1.0
102
RTVSPost2010PropOp56
 70
     1
102
RTVSPost2010Prop57
140
1.0
102
RTVSPost2010PropOp57
 70
     1
  0
XRECORD
  5
267
102
{ACAD_REACTORS
330
266
102
}
330
266
100
AcDbXrecord
280
     1
102
RTVSPropertyOp0
 70
     1
102
RTVSPropertyOp1
 70
     1
102
RTVSPropertyOp2
 70
     1
102
RTVSPropertyOp3
 70
     1
102
RTVSPropertyOp4
 70
     1
102
RTVSPropertyOp5
 70
     1
102
RTVSPropertyOp6
 70
     1
102
RTVSPropertyOp7
 70
     1
102
RTVSPropertyOp8
 70
     1
102
RTVSPropertyOp9
 70
     1
102
RTVSPropertyOp10
 70
     1
102
RTVSPropertyOp11
 70
     1
102
RTVSPropertyOp12
 70
     1
102
RTVSPropertyOp13
 70
     1
102
RTVSPropertyOp14
 70
     1
102
RTVSPropertyOp15
 70
     1
102
RTVSPropertyOp16
 70
     1
102
RTVSPropertyOp17
 70
     1
102
RTVSPropertyOp18
 70
     1
102
RTVSPropertyOp19
 70
     1
102
RTVSPropertyOp20
 70
     1
102
RTVSPropertyOp21
 70
     1
102
RTVSPropertyOp22
 70
     1
102
RTVSPropertyOp23
 70
     1
102
RTVSPropertyOp24
 70
     1
102
RTVSPropertyOp25
 70
     1
102
RTVSPropertyOp26
 70
     1
102
RTVSPropertyOp27
 70
     1
102
RTVSPropertyOp28
 70
     1
102
RTVSPropertyOp29
 70
     1
102
RTVSPropertyOp30
 70
     1
102
RTVSPropertyOp31
 70
     1
102
RTVSPropertyOp32
 70
     1
102
RTVSPropertyOp33
 70
     1
102
RTVSPropertyOp34
 70
     1
102
RTVSPropertyOp35
 70
     1
102
RTVSPropertyOp36
 70
     1
102
RTVSPropertyOp37
 70
     1
102
RTVSPropertyOp38
 70
     1
102
RTVSPropertyOp39
 70
     1
102
RTVSPropertyOp40
 70
     1
102
RTVSPropertyOp41
 70
     1
102
RTVSPropertyOp42
 70
     1
102
RTVSPropertyOp43
 70
     1
102
RTVSPropertyOp44
 70
     1
102
RTVSPropertyOp45
 70
     1
102
RTVSPropertyOp46
 70
     1
102
RTVSPropertyOp47
 70
     1
102
RTVSPropertyOp48
 70
     1
102
RTVSPropertyOp49
 70
     1
102
RTVSPropertyOp50
 70
     1
102
RTVSPropertyOp51
 70
     0
102
RTVSPropertyOp52
 70
     0
102
RTVSPropertyOp53
 70
     1
102
RTVSPropertyOp54
 70
     1
102
RTVSPropertyOp55
 70
     1
102
RTVSPropertyOp56
 70
     1
102
RTVSPropertyOp57
 70
     1
102
RTVSPost2010Prop28
280
     0
102
RTVSPost2010PropOp28
 70
     1
102
RTVSPost2010Prop29
280
     1
102
RTVSPost2010PropOp29
 70
     1
102
RTVSPost2010Prop30
280
     1
102
RTVSPost2010PropOp30
 70
     1
102
RTVSPost2010Prop31
280
     0
102
RTVSPost2010PropOp31
 70
     1
102
RTVSPost2010Prop32
280
     0
102
RTVSPost2010PropOp32
 70
     1
102
RTVSPost2010Prop33
280
     0
102
RTVSPost2010PropOp33
 70
     1
102
RTVSPost2010Prop34
280
     0
102
RTVSPost2010PropOp34
 70
     1
102
RTVSPost2010Prop35
280
     0
102
RTVSPost2010PropOp35
 70
     1
102
RTVSPost2010Prop36
280
     0
102
RTVSPost2010PropOp36
 70
     1
102
RTVSPost2010Prop37
 90
       50
102
RTVSPost2010PropOp37
 70
     1
102
RTVSPost2010Prop38
140
0.0
102
RTVSPost2010PropOp38
 70
     1
102
RTVSPost2010Prop39
140
1.0
102
RTVSPost2010PropOp39
 70
     1
102
RTVSPost2010Prop40
 90
        0
102
RTVSPost2010PropOp40
 70
     1
102
RTVSPost2010Prop41ColorIndex
 90
       18
102
RTVSPost2010Prop41ColorRGB
 90
        0
102
RTVSPost2010PropOp41
 70
     1
102
RTVSPost2010Prop42
 90
       50
102
RTVSPost2010PropOp42
 70
     1
102
RTVSPost2010Prop43
 90
        3
102
RTVSPost2010PropOp43
 70
     1
102
RTVSPost2010Prop44ColorIndex
 90
        5
102
RTVSPost2010Prop44ColorRGB
 90
      255
102
RTVSPost2010PropOp44
 70
     1
102
RTVSPost2010Prop45
280
     0
102
RTVSPost2010PropOp45
 70
     1
102
RTVSPost2010Prop46
 90
       50
102
RTVSPost2010PropOp46
 70
     1
102
RTVSPost2010Prop47
 90
       50
102
RTVSPost2010PropOp47
 70
     1
102
RTVSPost2010Prop48
 90
       50
102
RTVSPost2010PropOp48
 70
     1
102
RTVSPost2010Prop49
280
     0
102
RTVSPost2010PropOp49
 70
     1
102
RTVSPost2010Prop50
 90
       50
102
RTVSPost2010PropOp50
 70
     1
102
RTVSPost2010Prop51ColorIndex
 90
      256
102
RTVSPost2010Prop51ColorRGB
 90
-16777216
102
RTVSPost2010PropOp51
 70
     0
102
RTVSPost2010Prop52
140
1.0
102
RTVSPost2010PropOp52
 70
     0
102
RTVSPost2010Prop53
 90
        2
102
RTVSPost2010PropOp53
 70
     1
102
RTVSPost2010Prop54
  1
strokes_ogs.tif
102
RTVSPost2010PropOp54
 70
     1
102
RTVSPost2010Prop55
280
     0
102
RTVSPost2010PropOp55
 70
     1
102
RTVSPost2010Prop56
140
1.0
102
RTVSPost2010PropOp56
 70
     1
102
RTVSPost2010Prop57
140
1.0
102
RTVSPost2010PropOp57
 70
     1
  0
XRECORD
  5
269
102
{ACAD_REACTORS
330
268
102
}
330
268
100
AcDbXrecord
280
     1
102
RTVSPropertyOp0
 70
     1
102
RTVSPropertyOp1
 70
     1
102
RTVSPropertyOp2
 70
     1
102
RTVSPropertyOp3
 70
     1
102
RTVSPropertyOp4
 70
     1
102
RTVSPropertyOp5
 70
     1
102
RTVSPropertyOp6
 70
     1
102
RTVSPropertyOp7
 70
     1
102
RTVSPropertyOp8
 70
     1
102
RTVSPropertyOp9
 70
     1
102
RTVSPropertyOp10
 70
     1
102
RTVSPropertyOp11
 70
     1
102
RTVSPropertyOp12
 70
     1
102
RTVSPropertyOp13
 70
     1
102
RTVSPropertyOp14
 70
     1
102
RTVSPropertyOp15
 70
     1
102
RTVSPropertyOp16
 70
     1
102
RTVSPropertyOp17
 70
     1
102
RTVSPropertyOp18
 70
     1
102
RTVSPropertyOp19
 70
     1
102
RTVSPropertyOp20
 70
     1
102
RTVSPropertyOp21
 70
     1
102
RTVSPropertyOp22
 70
     1
102
RTVSPropertyOp23
 70
     1
102
RTVSPropertyOp24
 70
     1
102
RTVSPropertyOp25
 70
     1
102
RTVSPropertyOp26
 70
     1
102
RTVSPropertyOp27
 70
     1
102
RTVSPropertyOp28
 70
     1
102
RTVSPropertyOp29
 70
     1
102
RTVSPropertyOp30
 70
     1
102
RTVSPropertyOp31
 70
     1
102
RTVSPropertyOp32
 70
     1
102
RTVSPropertyOp33
 70
     1
102
RTVSPropertyOp34
 70
     1
102
RTVSPropertyOp35
 70
     1
102
RTVSPropertyOp36
 70
     1
102
RTVSPropertyOp37
 70
     1
102
RTVSPropertyOp38
 70
     1
102
RTVSPropertyOp39
 70
     1
102
RTVSPropertyOp40
 70
     1
102
RTVSPropertyOp41
 70
     1
102
RTVSPropertyOp42
 70
     1
102
RTVSPropertyOp43
 70
     1
102
RTVSPropertyOp44
 70
     1
102
RTVSPropertyOp45
 70
     1
102
RTVSPropertyOp46
 70
     1
102
RTVSPropertyOp47
 70
     1
102
RTVSPropertyOp48
 70
     1
102
RTVSPropertyOp49
 70
     1
102
RTVSPropertyOp50
 70
     1
102
RTVSPropertyOp51
 70
     0
102
RTVSPropertyOp52
 70
     0
102
RTVSPropertyOp53
 70
     1
102
RTVSPropertyOp54
 70
     1
102
RTVSPropertyOp55
 70
     1
102
RTVSPropertyOp56
 70
     1
102
RTVSPropertyOp57
 70
     1
102
RTVSPost2010Prop28
280
     0
102
RTVSPost2010PropOp28
 70
     1
102
RTVSPost2010Prop29
280
     1
102
RTVSPost2010PropOp29
 70
     1
102
RTVSPost2010Prop30
280
     1
102
RTVSPost2010PropOp30
 70
     1
102
RTVSPost2010Prop31
280
     0
102
RTVSPost2010PropOp31
 70
     1
102
RTVSPost2010Prop32
280
     0
102
RTVSPost2010PropOp32
 70
     1
102
RTVSPost2010Prop33
280
     0
102
RTVSPost2010PropOp33
 70
     1
102
RTVSPost2010Prop34
280
     0
102
RTVSPost2010PropOp34
 70
     1
102
RTVSPost2010Prop35
280
     0
102
RTVSPost2010PropOp35
 70
     1
102
RTVSPost2010Prop36
280
     0
102
RTVSPost2010PropOp36
 70
     1
102
RTVSPost2010Prop37
 90
       50
102
RTVSPost2010PropOp37
 70
     1
102
RTVSPost2010Prop38
140
0.0
102
RTVSPost2010PropOp38
 70
     1
102
RTVSPost2010Prop39
140
1.0
102
RTVSPost2010PropOp39
 70
     1
102
RTVSPost2010Prop40
 90
        0
102
RTVSPost2010PropOp40
 70
     1
102
RTVSPost2010Prop41ColorIndex
 90
       18
102
RTVSPost2010Prop41ColorRGB
 90
        0
102
RTVSPost2010PropOp41
 70
     1
102
RTVSPost2010Prop42
 90
       50
102
RTVSPost2010PropOp42
 70
     1
102
RTVSPost2010Prop43
 90
        3
102
RTVSPost2010PropOp43
 70
     1
102
RTVSPost2010Prop44ColorIndex
 90
        5
102
RTVSPost2010Prop44ColorRGB
 90
      255
102
RTVSPost2010PropOp44
 70
     1
102
RTVSPost2010Prop45
280
     0
102
RTVSPost2010PropOp45
 70
     1
102
RTVSPost2010Prop46
 90
       50
102
RTVSPost2010PropOp46
 70
     1
102
RTVSPost2010Prop47
 90
       50
102
RTVSPost2010PropOp47
 70
     1
102
RTVSPost2010Prop48
 90
       50
102
RTVSPost2010PropOp48
 70
     1
102
RTVSPost2010Prop49
280
     0
102
RTVSPost2010PropOp49
 70
     1
102
RTVSPost2010Prop50
 90
       50
102
RTVSPost2010PropOp50
 70
     1
102
RTVSPost2010Prop51ColorIndex
 90
      256
102
RTVSPost2010Prop51ColorRGB
 90
-16777216
102
RTVSPost2010PropOp51
 70
     0
102
RTVSPost2010Prop52
140
1.0
102
RTVSPost2010PropOp52
 70
     0
102
RTVSPost2010Prop53
 90
        2
102
RTVSPost2010PropOp53
 70
     1
102
RTVSPost2010Prop54
  1
strokes_ogs.tif
102
RTVSPost2010PropOp54
 70
     1
102
RTVSPost2010Prop55
280
     0
102
RTVSPost2010PropOp55
 70
     1
102
RTVSPost2010Prop56
140
1.0
102
RTVSPost2010PropOp56
 70
     1
102
RTVSPost2010Prop57
140
1.0
102
RTVSPost2010PropOp57
 70
     1
  0
XRECORD
  5
26B
102
{ACAD_REACTORS
330
26A
102
}
330
26A
100
AcDbXrecord
280
     1
102
RTVSPropertyOp0
 70
     1
102
RTVSPropertyOp1
 70
     1
102
RTVSPropertyOp2
 70
     1
102
RTVSPropertyOp3
 70
     1
102
RTVSPropertyOp4
 70
     1
102
RTVSPropertyOp5
 70
     1
102
RTVSPropertyOp6
 70
     1
102
RTVSPropertyOp7
 70
     1
102
RTVSPropertyOp8
 70
     1
102
RTVSPropertyOp9
 70
     1
102
RTVSPropertyOp10
 70
     1
102
RTVSPropertyOp11
 70
     1
102
RTVSPropertyOp12
 70
     1
102
RTVSPropertyOp13
 70
     1
102
RTVSPropertyOp14
 70
     1
102
RTVSPropertyOp15
 70
     1
102
RTVSPropertyOp16
 70
     1
102
RTVSPropertyOp17
 70
     1
102
RTVSPropertyOp18
 70
     1
102
RTVSPropertyOp19
 70
     1
102
RTVSPropertyOp20
 70
     1
102
RTVSPropertyOp21
 70
     1
102
RTVSPropertyOp22
 70
     1
102
RTVSPropertyOp23
 70
     1
102
RTVSPropertyOp24
 70
     1
102
RTVSPropertyOp25
 70
     1
102
RTVSPropertyOp26
 70
     1
102
RTVSPropertyOp27
 70
     1
102
RTVSPropertyOp28
 70
     1
102
RTVSPropertyOp29
 70
     1
102
RTVSPropertyOp30
 70
     1
102
RTVSPropertyOp31
 70
     1
102
RTVSPropertyOp32
 70
     1
102
RTVSPropertyOp33
 70
     1
102
RTVSPropertyOp34
 70
     1
102
RTVSPropertyOp35
 70
     1
102
RTVSPropertyOp36
 70
     1
102
RTVSPropertyOp37
 70
     1
102
RTVSPropertyOp38
 70
     1
102
RTVSPropertyOp39
 70
     1
102
RTVSPropertyOp40
 70
     1
102
RTVSPropertyOp41
 70
     1
102
RTVSPropertyOp42
 70
     1
102
RTVSPropertyOp43
 70
     1
102
RTVSPropertyOp44
 70
     1
102
RTVSPropertyOp45
 70
     1
102
RTVSPropertyOp46
 70
     1
102
RTVSPropertyOp47
 70
     1
102
RTVSPropertyOp48
 70
     1
102
RTVSPropertyOp49
 70
     1
102
RTVSPropertyOp50
 70
     1
102
RTVSPropertyOp51
 70
     0
102
RTVSPropertyOp52
 70
     0
102
RTVSPropertyOp53
 70
     1
102
RTVSPropertyOp54
 70
     1
102
RTVSPropertyOp55
 70
     1
102
RTVSPropertyOp56
 70
     1
102
RTVSPropertyOp57
 70
     1
102
RTVSPost2010Prop28
280
     0
102
RTVSPost2010PropOp28
 70
     1
102
RTVSPost2010Prop29
280
     1
102
RTVSPost2010PropOp29
 70
     1
102
RTVSPost2010Prop30
280
     1
102
RTVSPost2010PropOp30
 70
     1
102
RTVSPost2010Prop31
280
     0
102
RTVSPost2010PropOp31
 70
     1
102
RTVSPost2010Prop32
280
     0
102
RTVSPost2010PropOp32
 70
     1
102
RTVSPost2010Prop33
280
     0
102
RTVSPost2010PropOp33
 70
     1
102
RTVSPost2010Prop34
280
     0
102
RTVSPost2010PropOp34
 70
     1
102
RTVSPost2010Prop35
280
     0
102
RTVSPost2010PropOp35
 70
     1
102
RTVSPost2010Prop36
280
     0
102
RTVSPost2010PropOp36
 70
     1
102
RTVSPost2010Prop37
 90
       50
102
RTVSPost2010PropOp37
 70
     1
102
RTVSPost2010Prop38
140
0.0
102
RTVSPost2010PropOp38
 70
     1
102
RTVSPost2010Prop39
140
1.0
102
RTVSPost2010PropOp39
 70
     1
102
RTVSPost2010Prop40
 90
        0
102
RTVSPost2010PropOp40
 70
     1
102
RTVSPost2010Prop41ColorIndex
 90
       18
102
RTVSPost2010Prop41ColorRGB
 90
        0
102
RTVSPost2010PropOp41
 70
     1
102
RTVSPost2010Prop42
 90
       50
102
RTVSPost2010PropOp42
 70
     1
102
RTVSPost2010Prop43
 90
        3
102
RTVSPost2010PropOp43
 70
     1
102
RTVSPost2010Prop44ColorIndex
 90
        5
102
RTVSPost2010Prop44ColorRGB
 90
      255
102
RTVSPost2010PropOp44
 70
     1
102
RTVSPost2010Prop45
280
     0
102
RTVSPost2010PropOp45
 70
     1
102
RTVSPost2010Prop46
 90
       50
102
RTVSPost2010PropOp46
 70
     1
102
RTVSPost2010Prop47
 90
       50
102
RTVSPost2010PropOp47
 70
     1
102
RTVSPost2010Prop48
 90
       50
102
RTVSPost2010PropOp48
 70
     1
102
RTVSPost2010Prop49
280
     0
102
RTVSPost2010PropOp49
 70
     1
102
RTVSPost2010Prop50
 90
       50
102
RTVSPost2010PropOp50
 70
     1
102
RTVSPost2010Prop51ColorIndex
 90
      256
102
RTVSPost2010Prop51ColorRGB
 90
-16777216
102
RTVSPost2010PropOp51
 70
     0
102
RTVSPost2010Prop52
140
1.0
102
RTVSPost2010PropOp52
 70
     0
102
RTVSPost2010Prop53
 90
        2
102
RTVSPost2010PropOp53
 70
     1
102
RTVSPost2010Prop54
  1
strokes_ogs.tif
102
RTVSPost2010PropOp54
 70
     1
102
RTVSPost2010Prop55
280
     0
102
RTVSPost2010PropOp55
 70
     1
102
RTVSPost2010Prop56
140
1.0
102
RTVSPost2010PropOp56
 70
     1
102
RTVSPost2010Prop57
140
1.0
102
RTVSPost2010PropOp57
 70
     1
  0
XRECORD
  5
271
102
{ACAD_REACTORS
330
270
102
}
330
270
100
AcDbXrecord
280
     1
102
RTVSPropertyOp0
 70
     1
102
RTVSPropertyOp1
 70
     1
102
RTVSPropertyOp2
 70
     1
102
RTVSPropertyOp3
 70
     1
102
RTVSPropertyOp4
 70
     1
102
RTVSPropertyOp5
 70
     1
102
RTVSPropertyOp6
 70
     1
102
RTVSPropertyOp7
 70
     1
102
RTVSPropertyOp8
 70
     1
102
RTVSPropertyOp9
 70
     1
102
RTVSPropertyOp10
 70
     1
102
RTVSPropertyOp11
 70
     1
102
RTVSPropertyOp12
 70
     1
102
RTVSPropertyOp13
 70
     1
102
RTVSPropertyOp14
 70
     1
102
RTVSPropertyOp15
 70
     1
102
RTVSPropertyOp16
 70
     1
102
RTVSPropertyOp17
 70
     1
102
RTVSPropertyOp18
 70
     1
102
RTVSPropertyOp19
 70
     1
102
RTVSPropertyOp20
 70
     1
102
RTVSPropertyOp21
 70
     1
102
RTVSPropertyOp22
 70
     1
102
RTVSPropertyOp23
 70
     1
102
RTVSPropertyOp24
 70
     1
102
RTVSPropertyOp25
 70
     1
102
RTVSPropertyOp26
 70
     1
102
RTVSPropertyOp27
 70
     1
102
RTVSPropertyOp28
 70
     1
102
RTVSPropertyOp29
 70
     1
102
RTVSPropertyOp30
 70
     1
102
RTVSPropertyOp31
 70
     1
102
RTVSPropertyOp32
 70
     1
102
RTVSPropertyOp33
 70
     1
102
RTVSPropertyOp34
 70
     1
102
RTVSPropertyOp35
 70
     1
102
RTVSPropertyOp36
 70
     1
102
RTVSPropertyOp37
 70
     1
102
RTVSPropertyOp38
 70
     1
102
RTVSPropertyOp39
 70
     1
102
RTVSPropertyOp40
 70
     1
102
RTVSPropertyOp41
 70
     1
102
RTVSPropertyOp42
 70
     1
102
RTVSPropertyOp43
 70
     1
102
RTVSPropertyOp44
 70
     1
102
RTVSPropertyOp45
 70
     1
102
RTVSPropertyOp46
 70
     1
102
RTVSPropertyOp47
 70
     1
102
RTVSPropertyOp48
 70
     1
102
RTVSPropertyOp49
 70
     1
102
RTVSPropertyOp50
 70
     1
102
RTVSPropertyOp51
 70
     0
102
RTVSPropertyOp52
 70
     0
102
RTVSPropertyOp53
 70
     1
102
RTVSPropertyOp54
 70
     1
102
RTVSPropertyOp55
 70
     1
102
RTVSPropertyOp56
 70
     1
102
RTVSPropertyOp57
 70
     1
102
RTVSPost2010Prop28
280
     0
102
RTVSPost2010PropOp28
 70
     1
102
RTVSPost2010Prop29
280
     1
102
RTVSPost2010PropOp29
 70
     1
102
RTVSPost2010Prop30
280
     1
102
RTVSPost2010PropOp30
 70
     1
102
RTVSPost2010Prop31
280
     0
102
RTVSPost2010PropOp31
 70
     1
102
RTVSPost2010Prop32
280
     0
102
RTVSPost2010PropOp32
 70
     1
102
RTVSPost2010Prop33
280
     0
102
RTVSPost2010PropOp33
 70
     1
102
RTVSPost2010Prop34
280
     0
102
RTVSPost2010PropOp34
 70
     1
102
RTVSPost2010Prop35
280
     0
102
RTVSPost2010PropOp35
 70
     1
102
RTVSPost2010Prop36
280
     0
102
RTVSPost2010PropOp36
 70
     1
102
RTVSPost2010Prop37
 90
       50
102
RTVSPost2010PropOp37
 70
     1
102
RTVSPost2010Prop38
140
0.0
102
RTVSPost2010PropOp38
 70
     1
102
RTVSPost2010Prop39
140
1.0
102
RTVSPost2010PropOp39
 70
     1
102
RTVSPost2010Prop40
 90
        0
102
RTVSPost2010PropOp40
 70
     1
102
RTVSPost2010Prop41ColorIndex
 90
       18
102
RTVSPost2010Prop41ColorRGB
 90
        0
102
RTVSPost2010PropOp41
 70
     1
102
RTVSPost2010Prop42
 90
       50
102
RTVSPost2010PropOp42
 70
     1
102
RTVSPost2010Prop43
 90
        3
102
RTVSPost2010PropOp43
 70
     1
102
RTVSPost2010Prop44ColorIndex
 90
        5
102
RTVSPost2010Prop44ColorRGB
 90
      255
102
RTVSPost2010PropOp44
 70
     1
102
RTVSPost2010Prop45
280
     0
102
RTVSPost2010PropOp45
 70
     1
102
RTVSPost2010Prop46
 90
       50
102
RTVSPost2010PropOp46
 70
     1
102
RTVSPost2010Prop47
 90
       50
102
RTVSPost2010PropOp47
 70
     1
102
RTVSPost2010Prop48
 90
       50
102
RTVSPost2010PropOp48
 70
     1
102
RTVSPost2010Prop49
280
     0
102
RTVSPost2010PropOp49
 70
     1
102
RTVSPost2010Prop50
 90
       50
102
RTVSPost2010PropOp50
 70
     1
102
RTVSPost2010Prop51ColorIndex
 90
      256
102
RTVSPost2010Prop51ColorRGB
 90
-16777216
102
RTVSPost2010PropOp51
 70
     0
102
RTVSPost2010Prop52
140
1.0
102
RTVSPost2010PropOp52
 70
     0
102
RTVSPost2010Prop53
 90
        2
102
RTVSPost2010PropOp53
 70
     1
102
RTVSPost2010Prop54
  1
strokes_ogs.tif
102
RTVSPost2010PropOp54
 70
     1
102
RTVSPost2010Prop55
280
     0
102
RTVSPost2010PropOp55
 70
     1
102
RTVSPost2010Prop56
140
1.0
102
RTVSPost2010PropOp56
 70
     1
102
RTVSPost2010Prop57
140
1.0
102
RTVSPost2010PropOp57
 70
     1
  0
XRECORD
  5
285
102
{ACAD_REACTORS
330
284
102
}
330
284
100
AcDbXrecord
280
     1
102
RTVSPropertyOp0
 70
     0
102
RTVSPropertyOp1
 70
     0
102
RTVSPropertyOp2
 70
     0
102
RTVSPropertyOp3
 70
     0
102
RTVSPropertyOp4
 70
     0
102
RTVSPropertyOp5
 70
     0
102
RTVSPropertyOp6
 70
     0
102
RTVSPropertyOp7
 70
     0
102
RTVSPropertyOp8
 70
     0
102
RTVSPropertyOp9
 70
     0
102
RTVSPropertyOp10
 70
     0
102
RTVSPropertyOp11
 70
     0
102
RTVSPropertyOp12
 70
     0
102
RTVSPropertyOp13
 70
     0
102
RTVSPropertyOp14
 70
     2
102
RTVSPropertyOp15
 70
     0
102
RTVSPropertyOp16
 70
     0
102
RTVSPropertyOp17
 70
     0
102
RTVSPropertyOp18
 70
     0
102
RTVSPropertyOp19
 70
     0
102
RTVSPropertyOp20
 70
     0
102
RTVSPropertyOp21
 70
     0
102
RTVSPropertyOp22
 70
     0
102
RTVSPropertyOp23
 70
     0
102
RTVSPropertyOp24
 70
     0
102
RTVSPropertyOp25
 70
     0
102
RTVSPropertyOp26
 70
     0
102
RTVSPropertyOp27
 70
     0
102
RTVSPropertyOp28
 70
     0
102
RTVSPropertyOp29
 70
     0
102
RTVSPropertyOp30
 70
     0
102
RTVSPropertyOp31
 70
     0
102
RTVSPropertyOp32
 70
     0
102
RTVSPropertyOp33
 70
     0
102
RTVSPropertyOp34
 70
     0
102
RTVSPropertyOp35
 70
     0
102
RTVSPropertyOp36
 70
     0
102
RTVSPropertyOp37
 70
     0
102
RTVSPropertyOp38
 70
     0
102
RTVSPropertyOp39
 70
     0
102
RTVSPropertyOp40
 70
     0
102
RTVSPropertyOp41
 70
     0
102
RTVSPropertyOp42
 70
     0
102
RTVSPropertyOp43
 70
     0
102
RTVSPropertyOp44
 70
     0
102
RTVSPropertyOp45
 70
     0
102
RTVSPropertyOp46
 70
     0
102
RTVSPropertyOp47
 70
     0
102
RTVSPropertyOp48
 70
     0
102
RTVSPropertyOp49
 70
     0
102
RTVSPropertyOp50
 70
     0
102
RTVSPropertyOp51
 70
     0
102
RTVSPropertyOp52
 70
     0
102
RTVSPropertyOp53
 70
     0
102
RTVSPropertyOp54
 70
     0
102
RTVSPropertyOp55
 70
     0
102
RTVSPropertyOp56
 70
     0
102
RTVSPropertyOp57
 70
     0
102
RTVSPost2010Prop28
280
     0
102
RTVSPost2010PropOp28
 70
     0
102
RTVSPost2010Prop29
280
     1
102
RTVSPost2010PropOp29
 70
     0
102
RTVSPost2010Prop30
280
     1
102
RTVSPost2010PropOp30
 70
     0
102
RTVSPost2010Prop31
280
     0
102
RTVSPost2010PropOp31
 70
     0
102
RTVSPost2010Prop32
280
     0
102
RTVSPost2010PropOp32
 70
     0
102
RTVSPost2010Prop33
280
     0
102
RTVSPost2010PropOp33
 70
     0
102
RTVSPost2010Prop34
280
     0
102
RTVSPost2010PropOp34
 70
     0
102
RTVSPost2010Prop35
280
     0
102
RTVSPost2010PropOp35
 70
     0
102
RTVSPost2010Prop36
280
     0
102
RTVSPost2010PropOp36
 70
     0
102
RTVSPost2010Prop37
 90
       50
102
RTVSPost2010PropOp37
 70
     0
102
RTVSPost2010Prop38
140
0.0
102
RTVSPost2010PropOp38
 70
     0
102
RTVSPost2010Prop39
140
1.0
102
RTVSPost2010PropOp39
 70
     0
102
RTVSPost2010Prop40
 90
        0
102
RTVSPost2010PropOp40
 70
     0
102
RTVSPost2010Prop41ColorIndex
 90
       18
102
RTVSPost2010Prop41ColorRGB
 90
        0
102
RTVSPost2010PropOp41
 70
     0
102
RTVSPost2010Prop42
 90
       50
102
RTVSPost2010PropOp42
 70
     0
102
RTVSPost2010Prop43
 90
        3
102
RTVSPost2010PropOp43
 70
     0
102
RTVSPost2010Prop44ColorIndex
 90
        5
102
RTVSPost2010Prop44ColorRGB
 90
      255
102
RTVSPost2010PropOp44
 70
     0
102
RTVSPost2010Prop45
280
     0
102
RTVSPost2010PropOp45
 70
     0
102
RTVSPost2010Prop46
 90
       50
102
RTVSPost2010PropOp46
 70
     0
102
RTVSPost2010Prop47
 90
       50
102
RTVSPost2010PropOp47
 70
     0
102
RTVSPost2010Prop48
 90
       50
102
RTVSPost2010PropOp48
 70
     0
102
RTVSPost2010Prop49
280
     0
102
RTVSPost2010PropOp49
 70
     0
102
RTVSPost2010Prop50
 90
       50
102
RTVSPost2010PropOp50
 70
     0
102
RTVSPost2010Prop51ColorIndex
 90
      256
102
RTVSPost2010Prop51ColorRGB
 90
-16777216
102
RTVSPost2010PropOp51
 70
     0
102
RTVSPost2010Prop52
140
1.0
102
RTVSPost2010PropOp52
 70
     0
102
RTVSPost2010Prop53
 90
        2
102
RTVSPost2010PropOp53
 70
     0
102
RTVSPost2010Prop54
  1
strokes_ogs.tif
102
RTVSPost2010PropOp54
 70
     0
102
RTVSPost2010Prop55
280
     0
102
RTVSPost2010PropOp55
 70
     0
102
RTVSPost2010Prop56
140
1.0
102
RTVSPost2010PropOp56
 70
     0
102
RTVSPost2010Prop57
140
1.0
102
RTVSPost2010PropOp57
 70
     0
  0
XRECORD
  5
27F
102
{ACAD_REACTORS
330
27E
102
}
330
27E
100
AcDbXrecord
280
     1
102
RTVSPropertyOp0
 70
     1
102
RTVSPropertyOp1
 70
     1
102
RTVSPropertyOp2
 70
     1
102
RTVSPropertyOp3
 70
     1
102
RTVSPropertyOp4
 70
     1
102
RTVSPropertyOp5
 70
     1
102
RTVSPropertyOp6
 70
     1
102
RTVSPropertyOp7
 70
     1
102
RTVSPropertyOp8
 70
     1
102
RTVSPropertyOp9
 70
     1
102
RTVSPropertyOp10
 70
     1
102
RTVSPropertyOp11
 70
     1
102
RTVSPropertyOp12
 70
     1
102
RTVSPropertyOp13
 70
     1
102
RTVSPropertyOp14
 70
     1
102
RTVSPropertyOp15
 70
     1
102
RTVSPropertyOp16
 70
     1
102
RTVSPropertyOp17
 70
     1
102
RTVSPropertyOp18
 70
     1
102
RTVSPropertyOp19
 70
     1
102
RTVSPropertyOp20
 70
     1
102
RTVSPropertyOp21
 70
     1
102
RTVSPropertyOp22
 70
     1
102
RTVSPropertyOp23
 70
     1
102
RTVSPropertyOp24
 70
     1
102
RTVSPropertyOp25
 70
     1
102
RTVSPropertyOp26
 70
     1
102
RTVSPropertyOp27
 70
     1
102
RTVSPropertyOp28
 70
     1
102
RTVSPropertyOp29
 70
     1
102
RTVSPropertyOp30
 70
     1
102
RTVSPropertyOp31
 70
     1
102
RTVSPropertyOp32
 70
     1
102
RTVSPropertyOp33
 70
     1
102
RTVSPropertyOp34
 70
     1
102
RTVSPropertyOp35
 70
     1
102
RTVSPropertyOp36
 70
     1
102
RTVSPropertyOp37
 70
     1
102
RTVSPropertyOp38
 70
     1
102
RTVSPropertyOp39
 70
     1
102
RTVSPropertyOp40
 70
     1
102
RTVSPropertyOp41
 70
     1
102
RTVSPropertyOp42
 70
     1
102
RTVSPropertyOp43
 70
     1
102
RTVSPropertyOp44
 70
     1
102
RTVSPropertyOp45
 70
     1
102
RTVSPropertyOp46
 70
     1
102
RTVSPropertyOp47
 70
     1
102
RTVSPropertyOp48
 70
     1
102
RTVSPropertyOp49
 70
     1
102
RTVSPropertyOp50
 70
     1
102
RTVSPropertyOp51
 70
     0
102
RTVSPropertyOp52
 70
     0
102
RTVSPropertyOp53
 70
     1
102
RTVSPropertyOp54
 70
     1
102
RTVSPropertyOp55
 70
     1
102
RTVSPropertyOp56
 70
     1
102
RTVSPropertyOp57
 70
     1
102
RTVSPost2010Prop28
280
     0
102
RTVSPost2010PropOp28
 70
     1
102
RTVSPost2010Prop29
280
     1
102
RTVSPost2010PropOp29
 70
     1
102
RTVSPost2010Prop30
280
     1
102
RTVSPost2010PropOp30
 70
     1
102
RTVSPost2010Prop31
280
     0
102
RTVSPost2010PropOp31
 70
     1
102
RTVSPost2010Prop32
280
     0
102
RTVSPost2010PropOp32
 70
     1
102
RTVSPost2010Prop33
280
     0
102
RTVSPost2010PropOp33
 70
     1
102
RTVSPost2010Prop34
280
     0
102
RTVSPost2010PropOp34
 70
     1
102
RTVSPost2010Prop35
280
     0
102
RTVSPost2010PropOp35
 70
     1
102
RTVSPost2010Prop36
280
     0
102
RTVSPost2010PropOp36
 70
     1
102
RTVSPost2010Prop37
 90
       50
102
RTVSPost2010PropOp37
 70
     1
102
RTVSPost2010Prop38
140
0.0
102
RTVSPost2010PropOp38
 70
     1
102
RTVSPost2010Prop39
140
1.0
102
RTVSPost2010PropOp39
 70
     1
102
RTVSPost2010Prop40
 90
        0
102
RTVSPost2010PropOp40
 70
     1
102
RTVSPost2010Prop41ColorIndex
 90
       18
102
RTVSPost2010Prop41ColorRGB
 90
        0
102
RTVSPost2010PropOp41
 70
     1
102
RTVSPost2010Prop42
 90
       50
102
RTVSPost2010PropOp42
 70
     1
102
RTVSPost2010Prop43
 90
        3
102
RTVSPost2010PropOp43
 70
     1
102
RTVSPost2010Prop44ColorIndex
 90
        5
102
RTVSPost2010Prop44ColorRGB
 90
      255
102
RTVSPost2010PropOp44
 70
     1
102
RTVSPost2010Prop45
280
     0
102
RTVSPost2010PropOp45
 70
     1
102
RTVSPost2010Prop46
 90
       50
102
RTVSPost2010PropOp46
 70
     1
102
RTVSPost2010Prop47
 90
       50
102
RTVSPost2010PropOp47
 70
     1
102
RTVSPost2010Prop48
 90
       50
102
RTVSPost2010PropOp48
 70
     1
102
RTVSPost2010Prop49
280
     0
102
RTVSPost2010PropOp49
 70
     1
102
RTVSPost2010Prop50
 90
       50
102
RTVSPost2010PropOp50
 70
     1
102
RTVSPost2010Prop51ColorIndex
 90
      256
102
RTVSPost2010Prop51ColorRGB
 90
-16777216
102
RTVSPost2010PropOp51
 70
     0
102
RTVSPost2010Prop52
140
1.0
102
RTVSPost2010PropOp52
 70
     0
102
RTVSPost2010Prop53
 90
        2
102
RTVSPost2010PropOp53
 70
     1
102
RTVSPost2010Prop54
  1
strokes_ogs.tif
102
RTVSPost2010PropOp54
 70
     1
102
RTVSPost2010Prop55
280
     0
102
RTVSPost2010PropOp55
 70
     1
102
RTVSPost2010Prop56
140
1.0
102
RTVSPost2010PropOp56
 70
     1
102
RTVSPost2010Prop57
140
1.0
102
RTVSPost2010PropOp57
 70
     1
  0
XRECORD
  5
287
102
{ACAD_REACTORS
330
286
102
}
330
286
100
AcDbXrecord
280
     1
102
RTVSPropertyOp0
 70
     0
102
RTVSPropertyOp1
 70
     0
102
RTVSPropertyOp2
 70
     0
102
RTVSPropertyOp3
 70
     0
102
RTVSPropertyOp4
 70
     0
102
RTVSPropertyOp5
 70
     0
102
RTVSPropertyOp6
 70
     0
102
RTVSPropertyOp7
 70
     0
102
RTVSPropertyOp8
 70
     0
102
RTVSPropertyOp9
 70
     0
102
RTVSPropertyOp10
 70
     0
102
RTVSPropertyOp11
 70
     0
102
RTVSPropertyOp12
 70
     0
102
RTVSPropertyOp13
 70
     0
102
RTVSPropertyOp14
 70
     2
102
RTVSPropertyOp15
 70
     0
102
RTVSPropertyOp16
 70
     0
102
RTVSPropertyOp17
 70
     0
102
RTVSPropertyOp18
 70
     0
102
RTVSPropertyOp19
 70
     0
102
RTVSPropertyOp20
 70
     0
102
RTVSPropertyOp21
 70
     0
102
RTVSPropertyOp22
 70
     0
102
RTVSPropertyOp23
 70
     0
102
RTVSPropertyOp24
 70
     0
102
RTVSPropertyOp25
 70
     0
102
RTVSPropertyOp26
 70
     0
102
RTVSPropertyOp27
 70
     0
102
RTVSPropertyOp28
 70
     0
102
RTVSPropertyOp29
 70
     0
102
RTVSPropertyOp30
 70
     0
102
RTVSPropertyOp31
 70
     0
102
RTVSPropertyOp32
 70
     0
102
RTVSPropertyOp33
 70
     0
102
RTVSPropertyOp34
 70
     0
102
RTVSPropertyOp35
 70
     0
102
RTVSPropertyOp36
 70
     0
102
RTVSPropertyOp37
 70
     0
102
RTVSPropertyOp38
 70
     0
102
RTVSPropertyOp39
 70
     0
102
RTVSPropertyOp40
 70
     0
102
RTVSPropertyOp41
 70
     0
102
RTVSPropertyOp42
 70
     0
102
RTVSPropertyOp43
 70
     0
102
RTVSPropertyOp44
 70
     0
102
RTVSPropertyOp45
 70
     0
102
RTVSPropertyOp46
 70
     0
102
RTVSPropertyOp47
 70
     0
102
RTVSPropertyOp48
 70
     0
102
RTVSPropertyOp49
 70
     0
102
RTVSPropertyOp50
 70
     0
102
RTVSPropertyOp51
 70
     0
102
RTVSPropertyOp52
 70
     0
102
RTVSPropertyOp53
 70
     0
102
RTVSPropertyOp54
 70
     0
102
RTVSPropertyOp55
 70
     0
102
RTVSPropertyOp56
 70
     0
102
RTVSPropertyOp57
 70
     0
102
RTVSPost2010Prop28
280
     0
102
RTVSPost2010PropOp28
 70
     0
102
RTVSPost2010Prop29
280
     1
102
RTVSPost2010PropOp29
 70
     0
102
RTVSPost2010Prop30
280
     1
102
RTVSPost2010PropOp30
 70
     0
102
RTVSPost2010Prop31
280
     0
102
RTVSPost2010PropOp31
 70
     0
102
RTVSPost2010Prop32
280
     0
102
RTVSPost2010PropOp32
 70
     0
102
RTVSPost2010Prop33
280
     0
102
RTVSPost2010PropOp33
 70
     0
102
RTVSPost2010Prop34
280
     0
102
RTVSPost2010PropOp34
 70
     0
102
RTVSPost2010Prop35
280
     0
102
RTVSPost2010PropOp35
 70
     0
102
RTVSPost2010Prop36
280
     0
102
RTVSPost2010PropOp36
 70
     0
102
RTVSPost2010Prop37
 90
       50
102
RTVSPost2010PropOp37
 70
     0
102
RTVSPost2010Prop38
140
0.0
102
RTVSPost2010PropOp38
 70
     0
102
RTVSPost2010Prop39
140
1.0
102
RTVSPost2010PropOp39
 70
     0
102
RTVSPost2010Prop40
 90
        0
102
RTVSPost2010PropOp40
 70
     0
102
RTVSPost2010Prop41ColorIndex
 90
       18
102
RTVSPost2010Prop41ColorRGB
 90
        0
102
RTVSPost2010PropOp41
 70
     0
102
RTVSPost2010Prop42
 90
       50
102
RTVSPost2010PropOp42
 70
     0
102
RTVSPost2010Prop43
 90
        3
102
RTVSPost2010PropOp43
 70
     0
102
RTVSPost2010Prop44ColorIndex
 90
        5
102
RTVSPost2010Prop44ColorRGB
 90
      255
102
RTVSPost2010PropOp44
 70
     0
102
RTVSPost2010Prop45
280
     0
102
RTVSPost2010PropOp45
 70
     0
102
RTVSPost2010Prop46
 90
       50
102
RTVSPost2010PropOp46
 70
     0
102
RTVSPost2010Prop47
 90
       50
102
RTVSPost2010PropOp47
 70
     0
102
RTVSPost2010Prop48
 90
       50
102
RTVSPost2010PropOp48
 70
     0
102
RTVSPost2010Prop49
280
     0
102
RTVSPost2010PropOp49
 70
     0
102
RTVSPost2010Prop50
 90
       50
102
RTVSPost2010PropOp50
 70
     0
102
RTVSPost2010Prop51ColorIndex
 90
      256
102
RTVSPost2010Prop51ColorRGB
 90
-16777216
102
RTVSPost2010PropOp51
 70
     0
102
RTVSPost2010Prop52
140
1.0
102
RTVSPost2010PropOp52
 70
     0
102
RTVSPost2010Prop53
 90
        2
102
RTVSPost2010PropOp53
 70
     0
102
RTVSPost2010Prop54
  1
strokes_ogs.tif
102
RTVSPost2010PropOp54
 70
     0
102
RTVSPost2010Prop55
280
     0
102
RTVSPost2010PropOp55
 70
     0
102
RTVSPost2010Prop56
140
1.0
102
RTVSPost2010PropOp56
 70
     0
102
RTVSPost2010Prop57
140
1.0
102
RTVSPost2010PropOp57
 70
     0
  0
XRECORD
  5
275
102
{ACAD_REACTORS
330
274
102
}
330
274
100
AcDbXrecord
280
     1
102
RTVSPropertyOp0
 70
     1
102
RTVSPropertyOp1
 70
     1
102
RTVSPropertyOp2
 70
     1
102
RTVSPropertyOp3
 70
     1
102
RTVSPropertyOp4
 70
     1
102
RTVSPropertyOp5
 70
     1
102
RTVSPropertyOp6
 70
     1
102
RTVSPropertyOp7
 70
     1
102
RTVSPropertyOp8
 70
     1
102
RTVSPropertyOp9
 70
     1
102
RTVSPropertyOp10
 70
     1
102
RTVSPropertyOp11
 70
     1
102
RTVSPropertyOp12
 70
     1
102
RTVSPropertyOp13
 70
     1
102
RTVSPropertyOp14
 70
     1
102
RTVSPropertyOp15
 70
     1
102
RTVSPropertyOp16
 70
     1
102
RTVSPropertyOp17
 70
     1
102
RTVSPropertyOp18
 70
     1
102
RTVSPropertyOp19
 70
     1
102
RTVSPropertyOp20
 70
     1
102
RTVSPropertyOp21
 70
     1
102
RTVSPropertyOp22
 70
     1
102
RTVSPropertyOp23
 70
     1
102
RTVSPropertyOp24
 70
     1
102
RTVSPropertyOp25
 70
     1
102
RTVSPropertyOp26
 70
     1
102
RTVSPropertyOp27
 70
     1
102
RTVSPropertyOp28
 70
     1
102
RTVSPropertyOp29
 70
     1
102
RTVSPropertyOp30
 70
     1
102
RTVSPropertyOp31
 70
     1
102
RTVSPropertyOp32
 70
     1
102
RTVSPropertyOp33
 70
     1
102
RTVSPropertyOp34
 70
     1
102
RTVSPropertyOp35
 70
     1
102
RTVSPropertyOp36
 70
     1
102
RTVSPropertyOp37
 70
     1
102
RTVSPropertyOp38
 70
     1
102
RTVSPropertyOp39
 70
     1
102
RTVSPropertyOp40
 70
     1
102
RTVSPropertyOp41
 70
     1
102
RTVSPropertyOp42
 70
     1
102
RTVSPropertyOp43
 70
     1
102
RTVSPropertyOp44
 70
     1
102
RTVSPropertyOp45
 70
     1
102
RTVSPropertyOp46
 70
     1
102
RTVSPropertyOp47
 70
     1
102
RTVSPropertyOp48
 70
     1
102
RTVSPropertyOp49
 70
     1
102
RTVSPropertyOp50
 70
     1
102
RTVSPropertyOp51
 70
     0
102
RTVSPropertyOp52
 70
     0
102
RTVSPropertyOp53
 70
     1
102
RTVSPropertyOp54
 70
     1
102
RTVSPropertyOp55
 70
     1
102
RTVSPropertyOp56
 70
     1
102
RTVSPropertyOp57
 70
     1
102
RTVSPost2010Prop28
280
     0
102
RTVSPost2010PropOp28
 70
     1
102
RTVSPost2010Prop29
280
     1
102
RTVSPost2010PropOp29
 70
     1
102
RTVSPost2010Prop30
280
     1
102
RTVSPost2010PropOp30
 70
     1
102
RTVSPost2010Prop31
280
     0
102
RTVSPost2010PropOp31
 70
     1
102
RTVSPost2010Prop32
280
     0
102
RTVSPost2010PropOp32
 70
     1
102
RTVSPost2010Prop33
280
     0
102
RTVSPost2010PropOp33
 70
     1
102
RTVSPost2010Prop34
280
     0
102
RTVSPost2010PropOp34
 70
     1
102
RTVSPost2010Prop35
280
     0
102
RTVSPost2010PropOp35
 70
     1
102
RTVSPost2010Prop36
280
     0
102
RTVSPost2010PropOp36
 70
     1
102
RTVSPost2010Prop37
 90
       50
102
RTVSPost2010PropOp37
 70
     1
102
RTVSPost2010Prop38
140
0.0
102
RTVSPost2010PropOp38
 70
     1
102
RTVSPost2010Prop39
140
1.0
102
RTVSPost2010PropOp39
 70
     1
102
RTVSPost2010Prop40
 90
        0
102
RTVSPost2010PropOp40
 70
     1
102
RTVSPost2010Prop41ColorIndex
 90
       18
102
RTVSPost2010Prop41ColorRGB
 90
        0
102
RTVSPost2010PropOp41
 70
     1
102
RTVSPost2010Prop42
 90
       50
102
RTVSPost2010PropOp42
 70
     1
102
RTVSPost2010Prop43
 90
        3
102
RTVSPost2010PropOp43
 70
     1
102
RTVSPost2010Prop44ColorIndex
 90
        5
102
RTVSPost2010Prop44ColorRGB
 90
      255
102
RTVSPost2010PropOp44
 70
     1
102
RTVSPost2010Prop45
280
     0
102
RTVSPost2010PropOp45
 70
     1
102
RTVSPost2010Prop46
 90
       50
102
RTVSPost2010PropOp46
 70
     1
102
RTVSPost2010Prop47
 90
       50
102
RTVSPost2010PropOp47
 70
     1
102
RTVSPost2010Prop48
 90
       50
102
RTVSPost2010PropOp48
 70
     1
102
RTVSPost2010Prop49
280
     0
102
RTVSPost2010PropOp49
 70
     1
102
RTVSPost2010Prop50
 90
       50
102
RTVSPost2010PropOp50
 70
     1
102
RTVSPost2010Prop51ColorIndex
 90
      256
102
RTVSPost2010Prop51ColorRGB
 90
-16777216
102
RTVSPost2010PropOp51
 70
     0
102
RTVSPost2010Prop52
140
1.0
102
RTVSPost2010PropOp52
 70
     0
102
RTVSPost2010Prop53
 90
        2
102
RTVSPost2010PropOp53
 70
     1
102
RTVSPost2010Prop54
  1
strokes_ogs.tif
102
RTVSPost2010PropOp54
 70
     1
102
RTVSPost2010Prop55
280
     0
102
RTVSPost2010PropOp55
 70
     1
102
RTVSPost2010Prop56
140
1.0
102
RTVSPost2010PropOp56
 70
     1
102
RTVSPost2010Prop57
140
1.0
102
RTVSPost2010PropOp57
 70
     1
  0
XRECORD
  5
293
102
{ACAD_REACTORS
330
292
102
}
330
292
100
AcDbXrecord
280
     1
102
RTVSPropertyOp0
 70
     1
102
RTVSPropertyOp1
 70
     1
102
RTVSPropertyOp2
 70
     1
102
RTVSPropertyOp3
 70
     1
102
RTVSPropertyOp4
 70
     1
102
RTVSPropertyOp5
 70
     1
102
RTVSPropertyOp6
 70
     1
102
RTVSPropertyOp7
 70
     1
102
RTVSPropertyOp8
 70
     1
102
RTVSPropertyOp9
 70
     1
102
RTVSPropertyOp10
 70
     1
102
RTVSPropertyOp11
 70
     1
102
RTVSPropertyOp12
 70
     1
102
RTVSPropertyOp13
 70
     1
102
RTVSPropertyOp14
 70
     1
102
RTVSPropertyOp15
 70
     1
102
RTVSPropertyOp16
 70
     1
102
RTVSPropertyOp17
 70
     1
102
RTVSPropertyOp18
 70
     1
102
RTVSPropertyOp19
 70
     1
102
RTVSPropertyOp20
 70
     1
102
RTVSPropertyOp21
 70
     1
102
RTVSPropertyOp22
 70
     1
102
RTVSPropertyOp23
 70
     1
102
RTVSPropertyOp24
 70
     1
102
RTVSPropertyOp25
 70
     1
102
RTVSPropertyOp26
 70
     1
102
RTVSPropertyOp27
 70
     1
102
RTVSPropertyOp28
 70
     1
102
RTVSPropertyOp29
 70
     1
102
RTVSPropertyOp30
 70
     1
102
RTVSPropertyOp31
 70
     1
102
RTVSPropertyOp32
 70
     1
102
RTVSPropertyOp33
 70
     1
102
RTVSPropertyOp34
 70
     1
102
RTVSPropertyOp35
 70
     1
102
RTVSPropertyOp36
 70
     1
102
RTVSPropertyOp37
 70
     1
102
RTVSPropertyOp38
 70
     1
102
RTVSPropertyOp39
 70
     1
102
RTVSPropertyOp40
 70
     1
102
RTVSPropertyOp41
 70
     1
102
RTVSPropertyOp42
 70
     1
102
RTVSPropertyOp43
 70
     1
102
RTVSPropertyOp44
 70
     1
102
RTVSPropertyOp45
 70
     1
102
RTVSPropertyOp46
 70
     1
102
RTVSPropertyOp47
 70
     1
102
RTVSPropertyOp48
 70
     1
102
RTVSPropertyOp49
 70
     1
102
RTVSPropertyOp50
 70
     1
102
RTVSPropertyOp51
 70
     0
102
RTVSPropertyOp52
 70
     0
102
RTVSPropertyOp53
 70
     1
102
RTVSPropertyOp54
 70
     1
102
RTVSPropertyOp55
 70
     1
102
RTVSPropertyOp56
 70
     1
102
RTVSPropertyOp57
 70
     1
102
RTVSPost2010Prop28
280
     0
102
RTVSPost2010PropOp28
 70
     1
102
RTVSPost2010Prop29
280
     1
102
RTVSPost2010PropOp29
 70
     1
102
RTVSPost2010Prop30
280
     1
102
RTVSPost2010PropOp30
 70
     1
102
RTVSPost2010Prop31
280
     0
102
RTVSPost2010PropOp31
 70
     1
102
RTVSPost2010Prop32
280
     0
102
RTVSPost2010PropOp32
 70
     1
102
RTVSPost2010Prop33
280
     0
102
RTVSPost2010PropOp33
 70
     1
102
RTVSPost2010Prop34
280
     0
102
RTVSPost2010PropOp34
 70
     1
102
RTVSPost2010Prop35
280
     0
102
RTVSPost2010PropOp35
 70
     1
102
RTVSPost2010Prop36
280
     0
102
RTVSPost2010PropOp36
 70
     1
102
RTVSPost2010Prop37
 90
       50
102
RTVSPost2010PropOp37
 70
     1
102
RTVSPost2010Prop38
140
0.0
102
RTVSPost2010PropOp38
 70
     1
102
RTVSPost2010Prop39
140
1.0
102
RTVSPost2010PropOp39
 70
     1
102
RTVSPost2010Prop40
 90
        0
102
RTVSPost2010PropOp40
 70
     1
102
RTVSPost2010Prop41ColorIndex
 90
       18
102
RTVSPost2010Prop41ColorRGB
 90
        0
102
RTVSPost2010PropOp41
 70
     1
102
RTVSPost2010Prop42
 90
       50
102
RTVSPost2010PropOp42
 70
     1
102
RTVSPost2010Prop43
 90
        3
102
RTVSPost2010PropOp43
 70
     1
102
RTVSPost2010Prop44ColorIndex
 90
        5
102
RTVSPost2010Prop44ColorRGB
 90
      255
102
RTVSPost2010PropOp44
 70
     1
102
RTVSPost2010Prop45
280
     0
102
RTVSPost2010PropOp45
 70
     1
102
RTVSPost2010Prop46
 90
       50
102
RTVSPost2010PropOp46
 70
     1
102
RTVSPost2010Prop47
 90
       50
102
RTVSPost2010PropOp47
 70
     1
102
RTVSPost2010Prop48
 90
       50
102
RTVSPost2010PropOp48
 70
     1
102
RTVSPost2010Prop49
280
     0
102
RTVSPost2010PropOp49
 70
     1
102
RTVSPost2010Prop50
 90
       50
102
RTVSPost2010PropOp50
 70
     1
102
RTVSPost2010Prop51ColorIndex
 90
      256
102
RTVSPost2010Prop51ColorRGB
 90
-16777216
102
RTVSPost2010PropOp51
 70
     0
102
RTVSPost2010Prop52
140
1.0
102
RTVSPost2010PropOp52
 70
     0
102
RTVSPost2010Prop53
 90
        2
102
RTVSPost2010PropOp53
 70
     1
102
RTVSPost2010Prop54
  1
strokes_ogs.tif
102
RTVSPost2010PropOp54
 70
     1
102
RTVSPost2010Prop55
280
     0
102
RTVSPost2010PropOp55
 70
     1
102
RTVSPost2010Prop56
140
1.0
102
RTVSPost2010PropOp56
 70
     1
102
RTVSPost2010Prop57
140
1.0
102
RTVSPost2010PropOp57
 70
     1
  0
XRECORD
  5
291
102
{ACAD_REACTORS
330
290
102
}
330
290
100
AcDbXrecord
280
     1
102
RTVSPropertyOp0
 70
     1
102
RTVSPropertyOp1
 70
     1
102
RTVSPropertyOp2
 70
     1
102
RTVSPropertyOp3
 70
     1
102
RTVSPropertyOp4
 70
     1
102
RTVSPropertyOp5
 70
     1
102
RTVSPropertyOp6
 70
     1
102
RTVSPropertyOp7
 70
     1
102
RTVSPropertyOp8
 70
     1
102
RTVSPropertyOp9
 70
     1
102
RTVSPropertyOp10
 70
     1
102
RTVSPropertyOp11
 70
     1
102
RTVSPropertyOp12
 70
     1
102
RTVSPropertyOp13
 70
     1
102
RTVSPropertyOp14
 70
     1
102
RTVSPropertyOp15
 70
     1
102
RTVSPropertyOp16
 70
     1
102
RTVSPropertyOp17
 70
     1
102
RTVSPropertyOp18
 70
     1
102
RTVSPropertyOp19
 70
     1
102
RTVSPropertyOp20
 70
     1
102
RTVSPropertyOp21
 70
     1
102
RTVSPropertyOp22
 70
     1
102
RTVSPropertyOp23
 70
     1
102
RTVSPropertyOp24
 70
     1
102
RTVSPropertyOp25
 70
     1
102
RTVSPropertyOp26
 70
     1
102
RTVSPropertyOp27
 70
     1
102
RTVSPropertyOp28
 70
     1
102
RTVSPropertyOp29
 70
     1
102
RTVSPropertyOp30
 70
     1
102
RTVSPropertyOp31
 70
     1
102
RTVSPropertyOp32
 70
     1
102
RTVSPropertyOp33
 70
     1
102
RTVSPropertyOp34
 70
     1
102
RTVSPropertyOp35
 70
     1
102
RTVSPropertyOp36
 70
     1
102
RTVSPropertyOp37
 70
     1
102
RTVSPropertyOp38
 70
     1
102
RTVSPropertyOp39
 70
     1
102
RTVSPropertyOp40
 70
     1
102
RTVSPropertyOp41
 70
     1
102
RTVSPropertyOp42
 70
     1
102
RTVSPropertyOp43
 70
     1
102
RTVSPropertyOp44
 70
     1
102
RTVSPropertyOp45
 70
     1
102
RTVSPropertyOp46
 70
     1
102
RTVSPropertyOp47
 70
     1
102
RTVSPropertyOp48
 70
     1
102
RTVSPropertyOp49
 70
     1
102
RTVSPropertyOp50
 70
     1
102
RTVSPropertyOp51
 70
     0
102
RTVSPropertyOp52
 70
     0
102
RTVSPropertyOp53
 70
     1
102
RTVSPropertyOp54
 70
     1
102
RTVSPropertyOp55
 70
     1
102
RTVSPropertyOp56
 70
     1
102
RTVSPropertyOp57
 70
     1
102
RTVSPost2010Prop28
280
     0
102
RTVSPost2010PropOp28
 70
     1
102
RTVSPost2010Prop29
280
     1
102
RTVSPost2010PropOp29
 70
     1
102
RTVSPost2010Prop30
280
     1
102
RTVSPost2010PropOp30
 70
     1
102
RTVSPost2010Prop31
280
     0
102
RTVSPost2010PropOp31
 70
     1
102
RTVSPost2010Prop32
280
     0
102
RTVSPost2010PropOp32
 70
     1
102
RTVSPost2010Prop33
280
     0
102
RTVSPost2010PropOp33
 70
     1
102
RTVSPost2010Prop34
280
     0
102
RTVSPost2010PropOp34
 70
     1
102
RTVSPost2010Prop35
280
     0
102
RTVSPost2010PropOp35
 70
     1
102
RTVSPost2010Prop36
280
     0
102
RTVSPost2010PropOp36
 70
     1
102
RTVSPost2010Prop37
 90
       50
102
RTVSPost2010PropOp37
 70
     1
102
RTVSPost2010Prop38
140
0.0
102
RTVSPost2010PropOp38
 70
     1
102
RTVSPost2010Prop39
140
1.0
102
RTVSPost2010PropOp39
 70
     1
102
RTVSPost2010Prop40
 90
        0
102
RTVSPost2010PropOp40
 70
     1
102
RTVSPost2010Prop41ColorIndex
 90
       18
102
RTVSPost2010Prop41ColorRGB
 90
        0
102
RTVSPost2010PropOp41
 70
     1
102
RTVSPost2010Prop42
 90
       50
102
RTVSPost2010PropOp42
 70
     1
102
RTVSPost2010Prop43
 90
        3
102
RTVSPost2010PropOp43
 70
     1
102
RTVSPost2010Prop44ColorIndex
 90
        5
102
RTVSPost2010Prop44ColorRGB
 90
      255
102
RTVSPost2010PropOp44
 70
     1
102
RTVSPost2010Prop45
280
     0
102
RTVSPost2010PropOp45
 70
     1
102
RTVSPost2010Prop46
 90
       50
102
RTVSPost2010PropOp46
 70
     1
102
RTVSPost2010Prop47
 90
       50
102
RTVSPost2010PropOp47
 70
     1
102
RTVSPost2010Prop48
 90
       50
102
RTVSPost2010PropOp48
 70
     1
102
RTVSPost2010Prop49
280
     0
102
RTVSPost2010PropOp49
 70
     1
102
RTVSPost2010Prop50
 90
       50
102
RTVSPost2010PropOp50
 70
     1
102
RTVSPost2010Prop51ColorIndex
 90
      256
102
RTVSPost2010Prop51ColorRGB
 90
-16777216
102
RTVSPost2010PropOp51
 70
     0
102
RTVSPost2010Prop52
140
1.0
102
RTVSPost2010PropOp52
 70
     0
102
RTVSPost2010Prop53
 90
        2
102
RTVSPost2010PropOp53
 70
     1
102
RTVSPost2010Prop54
  1
strokes_ogs.tif
102
RTVSPost2010PropOp54
 70
     1
102
RTVSPost2010Prop55
280
     0
102
RTVSPost2010PropOp55
 70
     1
102
RTVSPost2010Prop56
140
1.0
102
RTVSPost2010PropOp56
 70
     1
102
RTVSPost2010Prop57
140
1.0
102
RTVSPost2010PropOp57
 70
     1
  0
XRECORD
  5
28B
102
{ACAD_REACTORS
330
28A
102
}
330
28A
100
AcDbXrecord
280
     1
102
RTVSPropertyOp0
 70
     1
102
RTVSPropertyOp1
 70
     1
102
RTVSPropertyOp2
 70
     1
102
RTVSPropertyOp3
 70
     1
102
RTVSPropertyOp4
 70
     1
102
RTVSPropertyOp5
 70
     1
102
RTVSPropertyOp6
 70
     1
102
RTVSPropertyOp7
 70
     1
102
RTVSPropertyOp8
 70
     1
102
RTVSPropertyOp9
 70
     1
102
RTVSPropertyOp10
 70
     1
102
RTVSPropertyOp11
 70
     1
102
RTVSPropertyOp12
 70
     1
102
RTVSPropertyOp13
 70
     1
102
RTVSPropertyOp14
 70
     1
102
RTVSPropertyOp15
 70
     1
102
RTVSPropertyOp16
 70
     1
102
RTVSPropertyOp17
 70
     1
102
RTVSPropertyOp18
 70
     1
102
RTVSPropertyOp19
 70
     1
102
RTVSPropertyOp20
 70
     1
102
RTVSPropertyOp21
 70
     1
102
RTVSPropertyOp22
 70
     1
102
RTVSPropertyOp23
 70
     1
102
RTVSPropertyOp24
 70
     1
102
RTVSPropertyOp25
 70
     1
102
RTVSPropertyOp26
 70
     1
102
RTVSPropertyOp27
 70
     1
102
RTVSPropertyOp28
 70
     1
102
RTVSPropertyOp29
 70
     1
102
RTVSPropertyOp30
 70
     1
102
RTVSPropertyOp31
 70
     1
102
RTVSPropertyOp32
 70
     1
102
RTVSPropertyOp33
 70
     1
102
RTVSPropertyOp34
 70
     1
102
RTVSPropertyOp35
 70
     1
102
RTVSPropertyOp36
 70
     1
102
RTVSPropertyOp37
 70
     1
102
RTVSPropertyOp38
 70
     1
102
RTVSPropertyOp39
 70
     1
102
RTVSPropertyOp40
 70
     1
102
RTVSPropertyOp41
 70
     1
102
RTVSPropertyOp42
 70
     1
102
RTVSPropertyOp43
 70
     1
102
RTVSPropertyOp44
 70
     1
102
RTVSPropertyOp45
 70
     1
102
RTVSPropertyOp46
 70
     1
102
RTVSPropertyOp47
 70
     1
102
RTVSPropertyOp48
 70
     1
102
RTVSPropertyOp49
 70
     1
102
RTVSPropertyOp50
 70
     1
102
RTVSPropertyOp51
 70
     0
102
RTVSPropertyOp52
 70
     0
102
RTVSPropertyOp53
 70
     1
102
RTVSPropertyOp54
 70
     1
102
RTVSPropertyOp55
 70
     1
102
RTVSPropertyOp56
 70
     1
102
RTVSPropertyOp57
 70
     1
102
RTVSPost2010Prop28
280
     0
102
RTVSPost2010PropOp28
 70
     1
102
RTVSPost2010Prop29
280
     1
102
RTVSPost2010PropOp29
 70
     1
102
RTVSPost2010Prop30
280
     1
102
RTVSPost2010PropOp30
 70
     1
102
RTVSPost2010Prop31
280
     0
102
RTVSPost2010PropOp31
 70
     1
102
RTVSPost2010Prop32
280
     0
102
RTVSPost2010PropOp32
 70
     1
102
RTVSPost2010Prop33
280
     0
102
RTVSPost2010PropOp33
 70
     1
102
RTVSPost2010Prop34
280
     0
102
RTVSPost2010PropOp34
 70
     1
102
RTVSPost2010Prop35
280
     0
102
RTVSPost2010PropOp35
 70
     1
102
RTVSPost2010Prop36
280
     0
102
RTVSPost2010PropOp36
 70
     1
102
RTVSPost2010Prop37
 90
       50
102
RTVSPost2010PropOp37
 70
     1
102
RTVSPost2010Prop38
140
0.0
102
RTVSPost2010PropOp38
 70
     1
102
RTVSPost2010Prop39
140
1.0
102
RTVSPost2010PropOp39
 70
     1
102
RTVSPost2010Prop40
 90
        0
102
RTVSPost2010PropOp40
 70
     1
102
RTVSPost2010Prop41ColorIndex
 90
       18
102
RTVSPost2010Prop41ColorRGB
 90
        0
102
RTVSPost2010PropOp41
 70
     1
102
RTVSPost2010Prop42
 90
       50
102
RTVSPost2010PropOp42
 70
     1
102
RTVSPost2010Prop43
 90
        3
102
RTVSPost2010PropOp43
 70
     1
102
RTVSPost2010Prop44ColorIndex
 90
        5
102
RTVSPost2010Prop44ColorRGB
 90
      255
102
RTVSPost2010PropOp44
 70
     1
102
RTVSPost2010Prop45
280
     0
102
RTVSPost2010PropOp45
 70
     1
102
RTVSPost2010Prop46
 90
       50
102
RTVSPost2010PropOp46
 70
     1
102
RTVSPost2010Prop47
 90
       50
102
RTVSPost2010PropOp47
 70
     1
102
RTVSPost2010Prop48
 90
       50
102
RTVSPost2010PropOp48
 70
     1
102
RTVSPost2010Prop49
280
     0
102
RTVSPost2010PropOp49
 70
     1
102
RTVSPost2010Prop50
 90
       50
102
RTVSPost2010PropOp50
 70
     1
102
RTVSPost2010Prop51ColorIndex
 90
      256
102
RTVSPost2010Prop51ColorRGB
 90
-16777216
102
RTVSPost2010PropOp51
 70
     0
102
RTVSPost2010Prop52
140
1.0
102
RTVSPost2010PropOp52
 70
     0
102
RTVSPost2010Prop53
 90
        2
102
RTVSPost2010PropOp53
 70
     1
102
RTVSPost2010Prop54
  1
strokes_ogs.tif
102
RTVSPost2010PropOp54
 70
     1
102
RTVSPost2010Prop55
280
     0
102
RTVSPost2010PropOp55
 70
     1
102
RTVSPost2010Prop56
140
1.0
102
RTVSPost2010PropOp56
 70
     1
102
RTVSPost2010Prop57
140
1.0
102
RTVSPost2010PropOp57
 70
     1
  0
XRECORD
  5
28D
102
{ACAD_REACTORS
330
28C
102
}
330
28C
100
AcDbXrecord
280
     1
102
RTVSPropertyOp0
 70
     1
102
RTVSPropertyOp1
 70
     1
102
RTVSPropertyOp2
 70
     1
102
RTVSPropertyOp3
 70
     1
102
RTVSPropertyOp4
 70
     1
102
RTVSPropertyOp5
 70
     1
102
RTVSPropertyOp6
 70
     1
102
RTVSPropertyOp7
 70
     1
102
RTVSPropertyOp8
 70
     1
102
RTVSPropertyOp9
 70
     1
102
RTVSPropertyOp10
 70
     1
102
RTVSPropertyOp11
 70
     1
102
RTVSPropertyOp12
 70
     1
102
RTVSPropertyOp13
 70
     1
102
RTVSPropertyOp14
 70
     1
102
RTVSPropertyOp15
 70
     1
102
RTVSPropertyOp16
 70
     1
102
RTVSPropertyOp17
 70
     1
102
RTVSPropertyOp18
 70
     1
102
RTVSPropertyOp19
 70
     1
102
RTVSPropertyOp20
 70
     1
102
RTVSPropertyOp21
 70
     1
102
RTVSPropertyOp22
 70
     1
102
RTVSPropertyOp23
 70
     1
102
RTVSPropertyOp24
 70
     1
102
RTVSPropertyOp25
 70
     1
102
RTVSPropertyOp26
 70
     1
102
RTVSPropertyOp27
 70
     1
102
RTVSPropertyOp28
 70
     1
102
RTVSPropertyOp29
 70
     1
102
RTVSPropertyOp30
 70
     1
102
RTVSPropertyOp31
 70
     1
102
RTVSPropertyOp32
 70
     1
102
RTVSPropertyOp33
 70
     1
102
RTVSPropertyOp34
 70
     1
102
RTVSPropertyOp35
 70
     1
102
RTVSPropertyOp36
 70
     1
102
RTVSPropertyOp37
 70
     1
102
RTVSPropertyOp38
 70
     1
102
RTVSPropertyOp39
 70
     1
102
RTVSPropertyOp40
 70
     1
102
RTVSPropertyOp41
 70
     1
102
RTVSPropertyOp42
 70
     1
102
RTVSPropertyOp43
 70
     1
102
RTVSPropertyOp44
 70
     1
102
RTVSPropertyOp45
 70
     1
102
RTVSPropertyOp46
 70
     1
102
RTVSPropertyOp47
 70
     1
102
RTVSPropertyOp48
 70
     1
102
RTVSPropertyOp49
 70
     1
102
RTVSPropertyOp50
 70
     1
102
RTVSPropertyOp51
 70
     0
102
RTVSPropertyOp52
 70
     0
102
RTVSPropertyOp53
 70
     1
102
RTVSPropertyOp54
 70
     1
102
RTVSPropertyOp55
 70
     1
102
RTVSPropertyOp56
 70
     1
102
RTVSPropertyOp57
 70
     1
102
RTVSPost2010Prop28
280
     0
102
RTVSPost2010PropOp28
 70
     1
102
RTVSPost2010Prop29
280
     1
102
RTVSPost2010PropOp29
 70
     1
102
RTVSPost2010Prop30
280
     1
102
RTVSPost2010PropOp30
 70
     1
102
RTVSPost2010Prop31
280
     0
102
RTVSPost2010PropOp31
 70
     1
102
RTVSPost2010Prop32
280
     0
102
RTVSPost2010PropOp32
 70
     1
102
RTVSPost2010Prop33
280
     0
102
RTVSPost2010PropOp33
 70
     1
102
RTVSPost2010Prop34
280
     0
102
RTVSPost2010PropOp34
 70
     1
102
RTVSPost2010Prop35
280
     0
102
RTVSPost2010PropOp35
 70
     1
102
RTVSPost2010Prop36
280
     0
102
RTVSPost2010PropOp36
 70
     1
102
RTVSPost2010Prop37
 90
       50
102
RTVSPost2010PropOp37
 70
     1
102
RTVSPost2010Prop38
140
0.0
102
RTVSPost2010PropOp38
 70
     1
102
RTVSPost2010Prop39
140
1.0
102
RTVSPost2010PropOp39
 70
     1
102
RTVSPost2010Prop40
 90
        0
102
RTVSPost2010PropOp40
 70
     1
102
RTVSPost2010Prop41ColorIndex
 90
       18
102
RTVSPost2010Prop41ColorRGB
 90
        0
102
RTVSPost2010PropOp41
 70
     1
102
RTVSPost2010Prop42
 90
       50
102
RTVSPost2010PropOp42
 70
     1
102
RTVSPost2010Prop43
 90
        3
102
RTVSPost2010PropOp43
 70
     1
102
RTVSPost2010Prop44ColorIndex
 90
        5
102
RTVSPost2010Prop44ColorRGB
 90
      255
102
RTVSPost2010PropOp44
 70
     1
102
RTVSPost2010Prop45
280
     0
102
RTVSPost2010PropOp45
 70
     1
102
RTVSPost2010Prop46
 90
       50
102
RTVSPost2010PropOp46
 70
     1
102
RTVSPost2010Prop47
 90
       50
102
RTVSPost2010PropOp47
 70
     1
102
RTVSPost2010Prop48
 90
       50
102
RTVSPost2010PropOp48
 70
     1
102
RTVSPost2010Prop49
280
     0
102
RTVSPost2010PropOp49
 70
     1
102
RTVSPost2010Prop50
 90
       50
102
RTVSPost2010PropOp50
 70
     1
102
RTVSPost2010Prop51ColorIndex
 90
      256
102
RTVSPost2010Prop51ColorRGB
 90
-16777216
102
RTVSPost2010PropOp51
 70
     0
102
RTVSPost2010Prop52
140
1.0
102
RTVSPost2010PropOp52
 70
     0
102
RTVSPost2010Prop53
 90
        2
102
RTVSPost2010PropOp53
 70
     1
102
RTVSPost2010Prop54
  1
strokes_ogs.tif
102
RTVSPost2010PropOp54
 70
     1
102
RTVSPost2010Prop55
280
     0
102
RTVSPost2010PropOp55
 70
     1
102
RTVSPost2010Prop56
140
1.0
102
RTVSPost2010PropOp56
 70
     1
102
RTVSPost2010Prop57
140
1.0
102
RTVSPost2010PropOp57
 70
     1
  0
XRECORD
  5
27D
102
{ACAD_REACTORS
330
27C
102
}
330
27C
100
AcDbXrecord
280
     1
102
RTVSPropertyOp0
 70
     1
102
RTVSPropertyOp1
 70
     1
102
RTVSPropertyOp2
 70
     1
102
RTVSPropertyOp3
 70
     1
102
RTVSPropertyOp4
 70
     1
102
RTVSPropertyOp5
 70
     1
102
RTVSPropertyOp6
 70
     1
102
RTVSPropertyOp7
 70
     1
102
RTVSPropertyOp8
 70
     1
102
RTVSPropertyOp9
 70
     1
102
RTVSPropertyOp10
 70
     1
102
RTVSPropertyOp11
 70
     1
102
RTVSPropertyOp12
 70
     1
102
RTVSPropertyOp13
 70
     1
102
RTVSPropertyOp14
 70
     1
102
RTVSPropertyOp15
 70
     1
102
RTVSPropertyOp16
 70
     1
102
RTVSPropertyOp17
 70
     1
102
RTVSPropertyOp18
 70
     1
102
RTVSPropertyOp19
 70
     1
102
RTVSPropertyOp20
 70
     1
102
RTVSPropertyOp21
 70
     1
102
RTVSPropertyOp22
 70
     1
102
RTVSPropertyOp23
 70
     1
102
RTVSPropertyOp24
 70
     1
102
RTVSPropertyOp25
 70
     1
102
RTVSPropertyOp26
 70
     1
102
RTVSPropertyOp27
 70
     1
102
RTVSPropertyOp28
 70
     1
102
RTVSPropertyOp29
 70
     1
102
RTVSPropertyOp30
 70
     1
102
RTVSPropertyOp31
 70
     1
102
RTVSPropertyOp32
 70
     1
102
RTVSPropertyOp33
 70
     1
102
RTVSPropertyOp34
 70
     1
102
RTVSPropertyOp35
 70
     1
102
RTVSPropertyOp36
 70
     1
102
RTVSPropertyOp37
 70
     1
102
RTVSPropertyOp38
 70
     1
102
RTVSPropertyOp39
 70
     1
102
RTVSPropertyOp40
 70
     1
102
RTVSPropertyOp41
 70
     1
102
RTVSPropertyOp42
 70
     1
102
RTVSPropertyOp43
 70
     1
102
RTVSPropertyOp44
 70
     1
102
RTVSPropertyOp45
 70
     1
102
RTVSPropertyOp46
 70
     1
102
RTVSPropertyOp47
 70
     1
102
RTVSPropertyOp48
 70
     1
102
RTVSPropertyOp49
 70
     1
102
RTVSPropertyOp50
 70
     1
102
RTVSPropertyOp51
 70
     0
102
RTVSPropertyOp52
 70
     0
102
RTVSPropertyOp53
 70
     1
102
RTVSPropertyOp54
 70
     1
102
RTVSPropertyOp55
 70
     1
102
RTVSPropertyOp56
 70
     1
102
RTVSPropertyOp57
 70
     1
102
RTVSPost2010Prop28
280
     0
102
RTVSPost2010PropOp28
 70
     1
102
RTVSPost2010Prop29
280
     1
102
RTVSPost2010PropOp29
 70
     1
102
RTVSPost2010Prop30
280
     1
102
RTVSPost2010PropOp30
 70
     1
102
RTVSPost2010Prop31
280
     0
102
RTVSPost2010PropOp31
 70
     1
102
RTVSPost2010Prop32
280
     0
102
RTVSPost2010PropOp32
 70
     1
102
RTVSPost2010Prop33
280
     0
102
RTVSPost2010PropOp33
 70
     1
102
RTVSPost2010Prop34
280
     0
102
RTVSPost2010PropOp34
 70
     1
102
RTVSPost2010Prop35
280
     0
102
RTVSPost2010PropOp35
 70
     1
102
RTVSPost2010Prop36
280
     0
102
RTVSPost2010PropOp36
 70
     1
102
RTVSPost2010Prop37
 90
       50
102
RTVSPost2010PropOp37
 70
     1
102
RTVSPost2010Prop38
140
0.0
102
RTVSPost2010PropOp38
 70
     1
102
RTVSPost2010Prop39
140
1.0
102
RTVSPost2010PropOp39
 70
     1
102
RTVSPost2010Prop40
 90
        0
102
RTVSPost2010PropOp40
 70
     1
102
RTVSPost2010Prop41ColorIndex
 90
       18
102
RTVSPost2010Prop41ColorRGB
 90
        0
102
RTVSPost2010PropOp41
 70
     1
102
RTVSPost2010Prop42
 90
       50
102
RTVSPost2010PropOp42
 70
     1
102
RTVSPost2010Prop43
 90
        3
102
RTVSPost2010PropOp43
 70
     1
102
RTVSPost2010Prop44ColorIndex
 90
        5
102
RTVSPost2010Prop44ColorRGB
 90
      255
102
RTVSPost2010PropOp44
 70
     1
102
RTVSPost2010Prop45
280
     0
102
RTVSPost2010PropOp45
 70
     1
102
RTVSPost2010Prop46
 90
       50
102
RTVSPost2010PropOp46
 70
     1
102
RTVSPost2010Prop47
 90
       50
102
RTVSPost2010PropOp47
 70
     1
102
RTVSPost2010Prop48
 90
       50
102
RTVSPost2010PropOp48
 70
     1
102
RTVSPost2010Prop49
280
     0
102
RTVSPost2010PropOp49
 70
     1
102
RTVSPost2010Prop50
 90
       50
102
RTVSPost2010PropOp50
 70
     1
102
RTVSPost2010Prop51ColorIndex
 90
      256
102
RTVSPost2010Prop51ColorRGB
 90
-16777216
102
RTVSPost2010PropOp51
 70
     0
102
RTVSPost2010Prop52
140
1.0
102
RTVSPost2010PropOp52
 70
     0
102
RTVSPost2010Prop53
 90
        2
102
RTVSPost2010PropOp53
 70
     1
102
RTVSPost2010Prop54
  1
strokes_ogs.tif
102
RTVSPost2010PropOp54
 70
     1
102
RTVSPost2010Prop55
280
     0
102
RTVSPost2010PropOp55
 70
     1
102
RTVSPost2010Prop56
140
1.0
102
RTVSPost2010PropOp56
 70
     1
102
RTVSPost2010Prop57
140
1.0
102
RTVSPost2010PropOp57
 70
     1
  0
XRECORD
  5
26F
102
{ACAD_REACTORS
330
26E
102
}
330
26E
100
AcDbXrecord
280
     1
102
RTVSPropertyOp0
 70
     1
102
RTVSPropertyOp1
 70
     1
102
RTVSPropertyOp2
 70
     1
102
RTVSPropertyOp3
 70
     1
102
RTVSPropertyOp4
 70
     1
102
RTVSPropertyOp5
 70
     1
102
RTVSPropertyOp6
 70
     1
102
RTVSPropertyOp7
 70
     1
102
RTVSPropertyOp8
 70
     1
102
RTVSPropertyOp9
 70
     1
102
RTVSPropertyOp10
 70
     1
102
RTVSPropertyOp11
 70
     1
102
RTVSPropertyOp12
 70
     1
102
RTVSPropertyOp13
 70
     1
102
RTVSPropertyOp14
 70
     1
102
RTVSPropertyOp15
 70
     1
102
RTVSPropertyOp16
 70
     1
102
RTVSPropertyOp17
 70
     1
102
RTVSPropertyOp18
 70
     1
102
RTVSPropertyOp19
 70
     1
102
RTVSPropertyOp20
 70
     1
102
RTVSPropertyOp21
 70
     1
102
RTVSPropertyOp22
 70
     1
102
RTVSPropertyOp23
 70
     1
102
RTVSPropertyOp24
 70
     1
102
RTVSPropertyOp25
 70
     1
102
RTVSPropertyOp26
 70
     1
102
RTVSPropertyOp27
 70
     1
102
RTVSPropertyOp28
 70
     1
102
RTVSPropertyOp29
 70
     1
102
RTVSPropertyOp30
 70
     1
102
RTVSPropertyOp31
 70
     1
102
RTVSPropertyOp32
 70
     1
102
RTVSPropertyOp33
 70
     1
102
RTVSPropertyOp34
 70
     1
102
RTVSPropertyOp35
 70
     1
102
RTVSPropertyOp36
 70
     1
102
RTVSPropertyOp37
 70
     1
102
RTVSPropertyOp38
 70
     1
102
RTVSPropertyOp39
 70
     1
102
RTVSPropertyOp40
 70
     1
102
RTVSPropertyOp41
 70
     1
102
RTVSPropertyOp42
 70
     1
102
RTVSPropertyOp43
 70
     1
102
RTVSPropertyOp44
 70
     1
102
RTVSPropertyOp45
 70
     1
102
RTVSPropertyOp46
 70
     1
102
RTVSPropertyOp47
 70
     1
102
RTVSPropertyOp48
 70
     1
102
RTVSPropertyOp49
 70
     1
102
RTVSPropertyOp50
 70
     1
102
RTVSPropertyOp51
 70
     0
102
RTVSPropertyOp52
 70
     0
102
RTVSPropertyOp53
 70
     1
102
RTVSPropertyOp54
 70
     1
102
RTVSPropertyOp55
 70
     1
102
RTVSPropertyOp56
 70
     1
102
RTVSPropertyOp57
 70
     1
102
RTVSPost2010Prop28
280
     0
102
RTVSPost2010PropOp28
 70
     1
102
RTVSPost2010Prop29
280
     1
102
RTVSPost2010PropOp29
 70
     1
102
RTVSPost2010Prop30
280
     1
102
RTVSPost2010PropOp30
 70
     1
102
RTVSPost2010Prop31
280
     0
102
RTVSPost2010PropOp31
 70
     1
102
RTVSPost2010Prop32
280
     0
102
RTVSPost2010PropOp32
 70
     1
102
RTVSPost2010Prop33
280
     0
102
RTVSPost2010PropOp33
 70
     1
102
RTVSPost2010Prop34
280
     0
102
RTVSPost2010PropOp34
 70
     1
102
RTVSPost2010Prop35
280
     0
102
RTVSPost2010PropOp35
 70
     1
102
RTVSPost2010Prop36
280
     0
102
RTVSPost2010PropOp36
 70
     1
102
RTVSPost2010Prop37
 90
       50
102
RTVSPost2010PropOp37
 70
     1
102
RTVSPost2010Prop38
140
0.0
102
RTVSPost2010PropOp38
 70
     1
102
RTVSPost2010Prop39
140
1.0
102
RTVSPost2010PropOp39
 70
     1
102
RTVSPost2010Prop40
 90
        0
102
RTVSPost2010PropOp40
 70
     1
102
RTVSPost2010Prop41ColorIndex
 90
       18
102
RTVSPost2010Prop41ColorRGB
 90
        0
102
RTVSPost2010PropOp41
 70
     1
102
RTVSPost2010Prop42
 90
       50
102
RTVSPost2010PropOp42
 70
     1
102
RTVSPost2010Prop43
 90
        3
102
RTVSPost2010PropOp43
 70
     1
102
RTVSPost2010Prop44ColorIndex
 90
        5
102
RTVSPost2010Prop44ColorRGB
 90
      255
102
RTVSPost2010PropOp44
 70
     1
102
RTVSPost2010Prop45
280
     0
102
RTVSPost2010PropOp45
 70
     1
102
RTVSPost2010Prop46
 90
       50
102
RTVSPost2010PropOp46
 70
     1
102
RTVSPost2010Prop47
 90
       50
102
RTVSPost2010PropOp47
 70
     1
102
RTVSPost2010Prop48
 90
       50
102
RTVSPost2010PropOp48
 70
     1
102
RTVSPost2010Prop49
280
     0
102
RTVSPost2010PropOp49
 70
     1
102
RTVSPost2010Prop50
 90
       50
102
RTVSPost2010PropOp50
 70
     1
102
RTVSPost2010Prop51ColorIndex
 90
      256
102
RTVSPost2010Prop51ColorRGB
 90
-16777216
102
RTVSPost2010PropOp51
 70
     0
102
RTVSPost2010Prop52
140
1.0
102
RTVSPost2010PropOp52
 70
     0
102
RTVSPost2010Prop53
 90
        2
102
RTVSPost2010PropOp53
 70
     1
102
RTVSPost2010Prop54
  1
strokes_ogs.tif
102
RTVSPost2010PropOp54
 70
     1
102
RTVSPost2010Prop55
280
     0
102
RTVSPost2010PropOp55
 70
     1
102
RTVSPost2010Prop56
140
1.0
102
RTVSPost2010PropOp56
 70
     1
102
RTVSPost2010Prop57
140
1.0
102
RTVSPost2010PropOp57
 70
     1
  0
XRECORD
  5
28F
102
{ACAD_REACTORS
330
28E
102
}
330
28E
100
AcDbXrecord
280
     1
102
RTVSPropertyOp0
 70
     1
102
RTVSPropertyOp1
 70
     1
102
RTVSPropertyOp2
 70
     1
102
RTVSPropertyOp3
 70
     1
102
RTVSPropertyOp4
 70
     1
102
RTVSPropertyOp5
 70
     1
102
RTVSPropertyOp6
 70
     1
102
RTVSPropertyOp7
 70
     1
102
RTVSPropertyOp8
 70
     1
102
RTVSPropertyOp9
 70
     1
102
RTVSPropertyOp10
 70
     1
102
RTVSPropertyOp11
 70
     1
102
RTVSPropertyOp12
 70
     1
102
RTVSPropertyOp13
 70
     1
102
RTVSPropertyOp14
 70
     1
102
RTVSPropertyOp15
 70
     1
102
RTVSPropertyOp16
 70
     1
102
RTVSPropertyOp17
 70
     1
102
RTVSPropertyOp18
 70
     1
102
RTVSPropertyOp19
 70
     1
102
RTVSPropertyOp20
 70
     1
102
RTVSPropertyOp21
 70
     1
102
RTVSPropertyOp22
 70
     1
102
RTVSPropertyOp23
 70
     1
102
RTVSPropertyOp24
 70
     1
102
RTVSPropertyOp25
 70
     1
102
RTVSPropertyOp26
 70
     1
102
RTVSPropertyOp27
 70
     1
102
RTVSPropertyOp28
 70
     1
102
RTVSPropertyOp29
 70
     1
102
RTVSPropertyOp30
 70
     1
102
RTVSPropertyOp31
 70
     1
102
RTVSPropertyOp32
 70
     1
102
RTVSPropertyOp33
 70
     1
102
RTVSPropertyOp34
 70
     1
102
RTVSPropertyOp35
 70
     1
102
RTVSPropertyOp36
 70
     1
102
RTVSPropertyOp37
 70
     1
102
RTVSPropertyOp38
 70
     1
102
RTVSPropertyOp39
 70
     1
102
RTVSPropertyOp40
 70
     1
102
RTVSPropertyOp41
 70
     1
102
RTVSPropertyOp42
 70
     1
102
RTVSPropertyOp43
 70
     1
102
RTVSPropertyOp44
 70
     1
102
RTVSPropertyOp45
 70
     1
102
RTVSPropertyOp46
 70
     1
102
RTVSPropertyOp47
 70
     1
102
RTVSPropertyOp48
 70
     1
102
RTVSPropertyOp49
 70
     1
102
RTVSPropertyOp50
 70
     1
102
RTVSPropertyOp51
 70
     0
102
RTVSPropertyOp52
 70
     0
102
RTVSPropertyOp53
 70
     1
102
RTVSPropertyOp54
 70
     1
102
RTVSPropertyOp55
 70
     1
102
RTVSPropertyOp56
 70
     1
102
RTVSPropertyOp57
 70
     1
102
RTVSPost2010Prop28
280
     0
102
RTVSPost2010PropOp28
 70
     1
102
RTVSPost2010Prop29
280
     1
102
RTVSPost2010PropOp29
 70
     1
102
RTVSPost2010Prop30
280
     1
102
RTVSPost2010PropOp30
 70
     1
102
RTVSPost2010Prop31
280
     0
102
RTVSPost2010PropOp31
 70
     1
102
RTVSPost2010Prop32
280
     0
102
RTVSPost2010PropOp32
 70
     1
102
RTVSPost2010Prop33
280
     0
102
RTVSPost2010PropOp33
 70
     1
102
RTVSPost2010Prop34
280
     0
102
RTVSPost2010PropOp34
 70
     1
102
RTVSPost2010Prop35
280
     0
102
RTVSPost2010PropOp35
 70
     1
102
RTVSPost2010Prop36
280
     0
102
RTVSPost2010PropOp36
 70
     1
102
RTVSPost2010Prop37
 90
       50
102
RTVSPost2010PropOp37
 70
     1
102
RTVSPost2010Prop38
140
0.0
102
RTVSPost2010PropOp38
 70
     1
102
RTVSPost2010Prop39
140
1.0
102
RTVSPost2010PropOp39
 70
     1
102
RTVSPost2010Prop40
 90
        0
102
RTVSPost2010PropOp40
 70
     1
102
RTVSPost2010Prop41ColorIndex
 90
       18
102
RTVSPost2010Prop41ColorRGB
 90
        0
102
RTVSPost2010PropOp41
 70
     1
102
RTVSPost2010Prop42
 90
       50
102
RTVSPost2010PropOp42
 70
     1
102
RTVSPost2010Prop43
 90
        3
102
RTVSPost2010PropOp43
 70
     1
102
RTVSPost2010Prop44ColorIndex
 90
        5
102
RTVSPost2010Prop44ColorRGB
 90
      255
102
RTVSPost2010PropOp44
 70
     1
102
RTVSPost2010Prop45
280
     0
102
RTVSPost2010PropOp45
 70
     1
102
RTVSPost2010Prop46
 90
       50
102
RTVSPost2010PropOp46
 70
     1
102
RTVSPost2010Prop47
 90
       50
102
RTVSPost2010PropOp47
 70
     1
102
RTVSPost2010Prop48
 90
       50
102
RTVSPost2010PropOp48
 70
     1
102
RTVSPost2010Prop49
280
     0
102
RTVSPost2010PropOp49
 70
     1
102
RTVSPost2010Prop50
 90
       50
102
RTVSPost2010PropOp50
 70
     1
102
RTVSPost2010Prop51ColorIndex
 90
      256
102
RTVSPost2010Prop51ColorRGB
 90
-16777216
102
RTVSPost2010PropOp51
 70
     0
102
RTVSPost2010Prop52
140
1.0
102
RTVSPost2010PropOp52
 70
     0
102
RTVSPost2010Prop53
 90
        2
102
RTVSPost2010PropOp53
 70
     1
102
RTVSPost2010Prop54
  1
strokes_ogs.tif
102
RTVSPost2010PropOp54
 70
     1
102
RTVSPost2010Prop55
280
     0
102
RTVSPost2010PropOp55
 70
     1
102
RTVSPost2010Prop56
140
1.0
102
RTVSPost2010PropOp56
 70
     1
102
RTVSPost2010Prop57
140
1.0
102
RTVSPost2010PropOp57
 70
     1
  0
ENDSEC
  0
EOF
