  0
SECTION
  2
HEADER
  9
$ACADVER
  1
AC1015
  9
$ACADMAINTVER
 70
     6
  9
$DWGCODEPAGE
  3
ANSI_932
  9
$INSBASE
 10
0.0
 20
0.0
 30
0.0
  9
$EXTMIN
 10
-420.0
 20
0.0
 30
0.0
  9
$EXTMAX
 10
0.0
 20
297.0
 30
0.0
  9
$LIMMIN
 10
-420.0
 20
0.0
  9
$LIMMAX
 10
0.0
 20
297.0
  9
$ORTHOMODE
 70
     0
  9
$REGENMODE
 70
     1
  9
$FILLMODE
 70
     1
  9
$QTEXTMODE
 70
     0
  9
$MIRRTEXT
 70
     1
  9
$LTSCALE
 40
1.0
  9
$ATTMODE
 70
     1
  9
$TEXTSIZE
 40
2.5
  9
$TRACEWID
 40
1.0
  9
$TEXTSTYLE
  7
Standard
  9
$CLAYER
  8
0
  9
$CELTYPE
  6
ByLayer
  9
$CECOLOR
 62
   256
  9
$CELTSCALE
 40
1.0
  9
$DISPSILH
 70
     0
  9
$DIMSCALE
 40
1.0
  9
$DIMASZ
 40
2.5
  9
$DIMEXO
 40
0.625
  9
$DIMDLI
 40
3.75
  9
$DIMRND
 40
0.0
  9
$DIMDLE
 40
0.0
  9
$DIMEXE
 40
1.25
  9
$DIMTP
 40
0.0
  9
$DIMTM
 40
0.0
  9
$DIMTXT
 40
2.5
  9
$DIMCEN
 40
2.5
  9
$DIMTSZ
 40
0.0
  9
$DIMTOL
 70
     0
  9
$DIMLIM
 70
     0
  9
$DIMTIH
 70
     0
  9
$DIMTOH
 70
     0
  9
$DIMSE1
 70
     0
  9
$DIMSE2
 70
     0
  9
$DIMTAD
 70
     1
  9
$DIMZIN
 70
     8
  9
$DIMBLK
  1

  9
$DIMASO
 70
     1
  9
$DIMSHO
 70
     1
  9
$DIMPOST
  1

  9
$DIMAPOST
  1

  9
$DIMALT
 70
     0
  9
$DIMALTD
 70
     3
  9
$DIMALTF
 40
0.03937007874016
  9
$DIMLFAC
 40
1.0
  9
$DIMTOFL
 70
     1
  9
$DIMTVP
 40
0.0
  9
$DIMTIX
 70
     0
  9
$DIMSOXD
 70
     0
  9
$DIMSAH
 70
     0
  9
$DIMBLK1
  1

  9
$DIMBLK2
  1

  9
$DIMSTYLE
  2
ISO-25
  9
$DIMCLRD
 70
     0
  9
$DIMCLRE
 70
     0
  9
$DIMCLRT
 70
     0
  9
$DIMTFAC
 40
1.0
  9
$DIMGAP
 40
0.625
  9
$DIMJUST
 70
     0
  9
$DIMSD1
 70
     0
  9
$DIMSD2
 70
     0
  9
$DIMTOLJ
 70
     0
  9
$DIMTZIN
 70
     8
  9
$DIMALTZ
 70
     0
  9
$DIMALTTZ
 70
     0
  9
$DIMUPT
 70
     0
  9
$DIMDEC
 70
     2
  9
$DIMTDEC
 70
     2
  9
$DIMALTU
 70
     2
  9
$DIMALTTD
 70
     3
  9
$DIMTXSTY
  7
Standard
  9
$DIMAUNIT
 70
     0
  9
$DIMADEC
 70
     0
  9
$DIMALTRND
 40
0.0
  9
$DIMAZIN
 70
     0
  9
$DIMDSEP
 70
    44
  9
$DIMATFIT
 70
     3
  9
$DIMFRAC
 70
     0
  9
$DIMLDRBLK
  1

  9
$DIMLUNIT
 70
     2
  9
$DIMLWD
 70
    -2
  9
$DIMLWE
 70
    -2
  9
$DIMTMOVE
 70
     0
  9
$LUNITS
 70
     2
  9
$LUPREC
 70
     4
  9
$SKETCHINC
 40
1.0
  9
$FILLETRAD
 40
10.0
  9
$AUNITS
 70
     0
  9
$AUPREC
 70
     0
  9
$MENU
  1
.
  9
$ELEVATION
 40
0.0
  9
$PELEVATION
 40
0.0
  9
$THICKNESS
 40
0.0
  9
$LIMCHECK
 70
     0
  9
$CHAMFERA
 40
10.0
  9
$CHAMFERB
 40
10.0
  9
$CHAMFERC
 40
20.0
  9
$CHAMFERD
 40
0.0
  9
$SKPOLY
 70
     0
  9
$TDCREATE
 40
2458817.405939387
  9
$TDUCREATE
 40
2458817.030939387
  9
$TDUPDATE
 40
2458817.405939398
  9
$TDUUPDATE
 40
2458817.030939398
  9
$TDINDWG
 40
0.0000000116
  9
$TDUSRTIMER
 40
0.0000000116
  9
$USRTIMER
 70
     1
  9
$ANGBASE
 50
0.0
  9
$ANGDIR
 70
     0
  9
$PDMODE
 70
     0
  9
$PDSIZE
 40
0.0
  9
$PLINEWID
 40
0.0
  9
$SPLFRAME
 70
     0
  9
$SPLINETYPE
 70
     6
  9
$SPLINESEGS
 70
     8
  9
$HANDSEED
  5
5C6
  9
$SURFTAB1
 70
     6
  9
$SURFTAB2
 70
     6
  9
$SURFTYPE
 70
     6
  9
$SURFU
 70
     6
  9
$SURFV
 70
     6
  9
$UCSBASE
  2

  9
$UCSNAME
  2

  9
$UCSORG
 10
0.0
 20
0.0
 30
0.0
  9
$UCSXDIR
 10
1.0
 20
0.0
 30
0.0
  9
$UCSYDIR
 10
0.0
 20
1.0
 30
0.0
  9
$UCSORTHOREF
  2

  9
$UCSORTHOVIEW
 70
     0
  9
$UCSORGTOP
 10
0.0
 20
0.0
 30
0.0
  9
$UCSORGBOTTOM
 10
0.0
 20
0.0
 30
0.0
  9
$UCSORGLEFT
 10
0.0
 20
0.0
 30
0.0
  9
$UCSORGRIGHT
 10
0.0
 20
0.0
 30
0.0
  9
$UCSORGFRONT
 10
0.0
 20
0.0
 30
0.0
  9
$UCSORGBACK
 10
0.0
 20
0.0
 30
0.0
  9
$PUCSBASE
  2

  9
$PUCSNAME
  2

  9
$PUCSORG
 10
0.0
 20
0.0
 30
0.0
  9
$PUCSXDIR
 10
1.0
 20
0.0
 30
0.0
  9
$PUCSYDIR
 10
0.0
 20
1.0
 30
0.0
  9
$PUCSORTHOREF
  2

  9
$PUCSORTHOVIEW
 70
     0
  9
$PUCSORGTOP
 10
0.0
 20
0.0
 30
0.0
  9
$PUCSORGBOTTOM
 10
0.0
 20
0.0
 30
0.0
  9
$PUCSORGLEFT
 10
0.0
 20
0.0
 30
0.0
  9
$PUCSORGRIGHT
 10
0.0
 20
0.0
 30
0.0
  9
$PUCSORGFRONT
 10
0.0
 20
0.0
 30
0.0
  9
$PUCSORGBACK
 10
0.0
 20
0.0
 30
0.0
  9
$USERI1
 70
     0
  9
$USERI2
 70
     0
  9
$USERI3
 70
     0
  9
$USERI4
 70
     0
  9
$USERI5
 70
     0
  9
$USERR1
 40
0.0
  9
$USERR2
 40
0.0
  9
$USERR3
 40
0.0
  9
$USERR4
 40
0.0
  9
$USERR5
 40
0.0
  9
$WORLDVIEW
 70
     1
  9
$SHADEDGE
 70
     3
  9
$SHADEDIF
 70
    70
  9
$TILEMODE
 70
     1
  9
$MAXACTVP
 70
    64
  9
$PINSBASE
 10
0.0
 20
0.0
 30
0.0
  9
$PLIMCHECK
 70
     0
  9
$PEXTMIN
 10
1.000000000000000E+20
 20
1.000000000000000E+20
 30
1.000000000000000E+20
  9
$PEXTMAX
 10
-1.000000000000000E+20
 20
-1.000000000000000E+20
 30
-1.000000000000000E+20
  9
$PLIMMIN
 10
-420.0
 20
0.0
  9
$PLIMMAX
 10
0.0
 20
297.0
  9
$UNITMODE
 70
     0
  9
$VISRETAIN
 70
     1
  9
$PLINEGEN
 70
     0
  9
$PSLTSCALE
 70
     1
  9
$TREEDEPTH
 70
  3020
  9
$CMLSTYLE
  2
Standard
  9
$CMLJUST
 70
     0
  9
$CMLSCALE
 40
20.0
  9
$PROXYGRAPHICS
 70
     1
  9
$MEASUREMENT
 70
     1
  9
$CELWEIGHT
370
    -1
  9
$ENDCAPS
280
     0
  9
$JOINSTYLE
280
     0
  9
$LWDISPLAY
290
     0
  9
$INSUNITS
 70
     4
  9
$HYPERLINKBASE
  1

  9
$STYLESHEET
  1

  9
$XEDIT
290
     1
  9
$CEPSNTYPE
380
     0
  9
$PSTYLEMODE
290
     1
  9
$FINGERPRINTGUID
  2
{25D4E951-A02C-41F6-B299-3BA617102F6C}
  9
$VERSIONGUID
  2
{FAEB1C32-E019-11D5-929B-00C0DF256EC4}
  9
$EXTNAMES
290
     1
  9
$PSVPSCALE
 40
0.0
  9
$OLESTARTUP
290
     0
  0
ENDSEC
  0
SECTION
  2
CLASSES
  0
CLASS
  1
ACDBDICTIONARYWDFLT
  2
AcDbDictionaryWithDefault
  3
ObjectDBX Classes
 90
        0
280
     0
281
     0
  0
CLASS
  1
VISUALSTYLE
  2
AcDbVisualStyle
  3
ObjectDBX Classes
 90
     4095
280
     0
281
     0
  0
CLASS
  1
SCALE
  2
AcDbScale
  3
ObjectDBX Classes
 90
     1153
280
     0
281
     0
  0
CLASS
  1
DICTIONARYVAR
  2
AcDbDictionaryVar
  3
ObjectDBX Classes
 90
        0
280
     0
281
     0
  0
CLASS
  1
ACDBPLACEHOLDER
  2
AcDbPlaceHolder
  3
ObjectDBX Classes
 90
        0
280
     0
281
     0
  0
CLASS
  1
LAYOUT
  2
AcDbLayout
  3
ObjectDBX Classes
 90
        0
280
     0
281
     0
  0
ENDSEC
  0
SECTION
  2
TABLES
  0
TABLE
  2
VPORT
  5
8
330
0
100
AcDbSymbolTable
 70
     1
  0
VPORT
  5
29
330
8
100
AcDbSymbolTableRecord
100
AcDbViewportTableRecord
  2
*Active
 70
     0
 10
0.0
 20
0.0
 11
1.0
 21
1.0
 12
344.1869158878504
 22
148.5
 13
0.0
 23
0.0
 14
10.0
 24
10.0
 15
10.0
 25
10.0
 16
0.0
 26
0.0
 36
1.0
 17
0.0
 27
0.0
 37
0.0
 40
297.0
 41
1.972972972850329
 42
50.0
 43
0.0
 44
0.0
 50
0.0
 51
0.0
 71
     0
 72
   100
 73
     1
 74
     3
 75
     0
 76
     0
 77
     0
 78
     0
281
     0
 65
     1
110
0.0
120
0.0
130
0.0
111
1.0
121
0.0
131
0.0
112
0.0
122
1.0
132
0.0
 79
     0
146
0.0
  0
ENDTAB
  0
TABLE
  2
LTYPE
  5
5
330
0
100
AcDbSymbolTable
 70
     5
  0
LTYPE
  5
14
330
5
100
AcDbSymbolTableRecord
100
AcDbLinetypeTableRecord
  2
ByBlock
 70
     0
  3

 72
    65
 73
     0
 40
0.0
  0
LTYPE
  5
15
330
5
100
AcDbSymbolTableRecord
100
AcDbLinetypeTableRecord
  2
ByLayer
 70
     0
  3

 72
    65
 73
     0
 40
0.0
  0
LTYPE
  5
16
330
5
100
AcDbSymbolTableRecord
100
AcDbLinetypeTableRecord
  2
Continuous
 70
     0
  3
Solid line
 72
    65
 73
     0
 40
0.0
  0
LTYPE
  5
3B
330
5
100
AcDbSymbolTableRecord
100
AcDbLinetypeTableRecord
  2
CONTINOUS
 70
     0
  3
______________________________
 72
    65
 73
     0
 40
0.0
  0
LTYPE
  5
3C
330
5
100
AcDbSymbolTableRecord
100
AcDbLinetypeTableRecord
  2
DASHED
 70
     0
  3
__ __ __ __ __ __ __ __ __ __ __ __ __ __ __ __
 72
    65
 73
     2
 40
4.5
 49
3.0
 74
     0
 49
-1.5
 74
     0
  0
LTYPE
  5
3D
330
5
100
AcDbSymbolTableRecord
100
AcDbLinetypeTableRecord
  2
PHANTOM
 70
     0
  3
______  __  __  ______  __  __  _____
 72
    65
 73
     6
 40
15.0
 49
7.5
 74
     0
 49
-1.5
 74
     0
 49
1.5
 74
     0
 49
-1.5
 74
     0
 49
1.5
 74
     0
 49
-1.5
 74
     0
  0
LTYPE
  5
3E
330
5
100
AcDbSymbolTableRecord
100
AcDbLinetypeTableRecord
  2
CENTER
 70
     0
  3
____ _ ____ _ ____ _ ____ _ ____ _ ____
 72
    65
 73
     4
 40
12.0
 49
7.5
 74
     0
 49
-1.5
 74
     0
 49
1.5
 74
     0
 49
-1.5
 74
     0
  0
ENDTAB
  0
TABLE
  2
LAYER
  5
2
330
0
100
AcDbSymbolTable
 70
     3
  0
LAYER
  5
10
330
2
100
AcDbSymbolTableRecord
100
AcDbLayerTableRecord
  2
0
 70
     0
 62
     7
  6
Continuous
370
    -3
390
F
  0
LAYER
  5
403
330
2
100
AcDbSymbolTableRecord
100
AcDbLayerTableRecord
  2
Defpoints
 70
     0
 62
     7
  6
Continuous
290
     0
370
    -3
390
F
  0
LAYER
  5
5B0
330
2
100
AcDbSymbolTableRecord
100
AcDbLayerTableRecord
  2
AV
 70
     0
 62
     7
  6
Continuous
370
    -3
390
F
  0
ENDTAB
  0
TABLE
  2
STYLE
  5
3
330
0
100
AcDbSymbolTable
 70
     1
  0
STYLE
  5
11
330
3
100
AcDbSymbolTableRecord
100
AcDbTextStyleTableRecord
  2
Standard
 70
     0
 40
0.0
 41
1.0
 50
0.0
 71
     0
 42
2.5
  3
ROMANS
  4
BIGFONT
  0
ENDTAB
  0
TABLE
  2
VIEW
  5
6
330
0
100
AcDbSymbolTable
 70
     0
  0
ENDTAB
  0
TABLE
  2
UCS
  5
7
330
0
100
AcDbSymbolTable
 70
     0
  0
ENDTAB
  0
TABLE
  2
APPID
  5
9
330
0
100
AcDbSymbolTable
 70
     1
  0
APPID
  5
12
330
9
100
AcDbSymbolTableRecord
100
AcDbRegAppTableRecord
  2
ACAD
 70
     0
  0
ENDTAB
  0
TABLE
  2
DIMSTYLE
  5
A
330
0
100
AcDbSymbolTable
 70
     1
100
AcDbDimStyleTable
  0
DIMSTYLE
105
27
102
{ACAD_REACTORS
330
3FA
330
410
330
41F
330
42B
330
43A
330
44E
330
45C
330
469
330
477
330
484
330
492
330
4A0
330
4AE
330
4BE
330
4CA
330
4D8
330
4E6
330
4F3
330
50B
330
51A
330
530
330
546
330
555
330
562
330
578
330
58C
330
59E
102
}
330
A
100
AcDbSymbolTableRecord
100
AcDbDimStyleTableRecord
  2
ISO-25
 70
     0
 41
2.5
 42
0.625
 43
3.75
 44
1.25
 73
     0
 74
     0
 77
     1
 78
     8
140
2.5
141
2.5
143
0.03937007874016
147
0.625
171
     3
172
     1
271
     2
272
     2
274
     3
278
    44
283
     0
284
     8
340
11
  0
ENDTAB
  0
TABLE
  2
BLOCK_RECORD
  5
1
330
0
100
AcDbSymbolTable
 70
    48
  0
BLOCK_RECORD
  5
1F
330
1
100
AcDbSymbolTableRecord
100
AcDbBlockTableRecord
  2
*Model_Space
340
22
  0
BLOCK_RECORD
  5
1B
330
1
100
AcDbSymbolTableRecord
100
AcDbBlockTableRecord
  2
*Paper_Space
340
1E
  0
BLOCK_RECORD
  5
23
330
1
100
AcDbSymbolTableRecord
100
AcDbBlockTableRecord
  2
*Paper_Space0
340
26
  0
BLOCK_RECORD
  5
3F
330
1
100
AcDbSymbolTableRecord
100
AcDbBlockTableRecord
  2
VIS-ULNS3CRN0000
340
0
102
{BLKREFS
331
5BE
102
}
  0
BLOCK_RECORD
  5
42
330
1
100
AcDbSymbolTableRecord
100
AcDbBlockTableRecord
  2
VIS-ULNS3CRN0001
340
0
102
{BLKREFS
331
5BF
102
}
  0
BLOCK_RECORD
  5
45
330
1
100
AcDbSymbolTableRecord
100
AcDbBlockTableRecord
  2
VIS-ULNS3CRN0002
340
0
102
{BLKREFS
331
3EB
102
}
  0
BLOCK_RECORD
  5
48
330
1
100
AcDbSymbolTableRecord
100
AcDbBlockTableRecord
  2
VIS-ULNS3CRN0003
340
0
102
{BLKREFS
331
3EC
102
}
  0
BLOCK_RECORD
  5
4B
330
1
100
AcDbSymbolTableRecord
100
AcDbBlockTableRecord
  2
VIS-ULNS3CRN0004
340
0
102
{BLKREFS
331
3ED
102
}
  0
BLOCK_RECORD
  5
4E
330
1
100
AcDbSymbolTableRecord
100
AcDbBlockTableRecord
  2
VIS-ULNS3CRN0005
340
0
102
{BLKREFS
331
3EE
102
}
  0
BLOCK_RECORD
  5
51
330
1
100
AcDbSymbolTableRecord
100
AcDbBlockTableRecord
  2
VIS-ULNS3CRN0006
340
0
102
{BLKREFS
331
3EF
102
}
  0
BLOCK_RECORD
  5
54
330
1
100
AcDbSymbolTableRecord
100
AcDbBlockTableRecord
  2
VIS-ULNS3CRN0007
340
0
102
{BLKREFS
331
3F0
102
}
  0
BLOCK_RECORD
  5
57
330
1
100
AcDbSymbolTableRecord
100
AcDbBlockTableRecord
  2
VIS-ULNS3CRN0008
340
0
102
{BLKREFS
331
3F1
102
}
  0
BLOCK_RECORD
  5
5A
330
1
100
AcDbSymbolTableRecord
100
AcDbBlockTableRecord
  2
VIS-ULNS3CRN0009
340
0
102
{BLKREFS
331
3F2
102
}
  0
BLOCK_RECORD
  5
5D
330
1
100
AcDbSymbolTableRecord
100
AcDbBlockTableRecord
  2
VIS-ULNS3CRN0010
340
0
102
{BLKREFS
331
3F3
102
}
  0
BLOCK_RECORD
  5
60
330
1
100
AcDbSymbolTableRecord
100
AcDbBlockTableRecord
  2
VIS-ULNS3CRN0011
340
0
102
{BLKREFS
331
3F4
102
}
  0
BLOCK_RECORD
  5
63
330
1
100
AcDbSymbolTableRecord
100
AcDbBlockTableRecord
  2
VIS-ULNS3CRN0012
340
0
102
{BLKREFS
331
3F5
102
}
  0
BLOCK_RECORD
  5
66
330
1
100
AcDbSymbolTableRecord
100
AcDbBlockTableRecord
  2
VIS-ULNS3CRN0013
340
0
102
{BLKREFS
331
3F6
102
}
  0
BLOCK_RECORD
  5
69
330
1
100
AcDbSymbolTableRecord
100
AcDbBlockTableRecord
  2
VIS-ULNS3CRN0014
340
0
102
{BLKREFS
331
3F7
102
}
  0
BLOCK_RECORD
  5
6C
330
1
100
AcDbSymbolTableRecord
100
AcDbBlockTableRecord
  2
VIS-ULNS3CRN0015
340
0
102
{BLKREFS
331
3F8
102
}
  0
BLOCK_RECORD
  5
6F
330
1
100
AcDbSymbolTableRecord
100
AcDbBlockTableRecord
  2
VIS-ULNS3CRN0016
340
0
102
{BLKREFS
331
3F9
102
}
  0
BLOCK_RECORD
  5
3FB
330
1
100
AcDbSymbolTableRecord
100
AcDbBlockTableRecord
  2
_DOT
340
0
102
{BLKREFS
331
409
331
408
331
418
331
417
331
424
331
423
331
433
331
432
331
445
331
455
331
462
331
461
331
470
331
47D
331
47C
331
48B
331
48A
331
499
331
4A7
331
4A6
331
4B7
331
4B6
331
4C3
331
4D1
331
4DF
331
4DE
331
4EC
331
4EB
331
4F9
331
4F8
331
511
331
510
331
523
331
522
331
539
331
538
331
54B
331
558
331
56B
331
56A
331
580
331
57F
331
592
331
591
331
5A4
331
5A3
102
}
  0
BLOCK_RECORD
  5
404
330
1
100
AcDbSymbolTableRecord
100
AcDbBlockTableRecord
  2
*D19
340
0
  0
BLOCK_RECORD
  5
411
330
1
100
AcDbSymbolTableRecord
100
AcDbBlockTableRecord
  2
*D20
340
0
  0
BLOCK_RECORD
  5
420
330
1
100
AcDbSymbolTableRecord
100
AcDbBlockTableRecord
  2
*D21
340
0
  0
BLOCK_RECORD
  5
42C
330
1
100
AcDbSymbolTableRecord
100
AcDbBlockTableRecord
  2
*D22
340
0
  0
BLOCK_RECORD
  5
43B
330
1
100
AcDbSymbolTableRecord
100
AcDbBlockTableRecord
  2
_NONE
340
0
102
{BLKREFS
331
444
331
454
331
46F
331
498
331
4C2
331
4D0
331
54A
331
559
102
}
  0
BLOCK_RECORD
  5
43E
330
1
100
AcDbSymbolTableRecord
100
AcDbBlockTableRecord
  2
*D24
340
0
  0
BLOCK_RECORD
  5
44F
330
1
100
AcDbSymbolTableRecord
100
AcDbBlockTableRecord
  2
*D25
340
0
  0
BLOCK_RECORD
  5
45D
330
1
100
AcDbSymbolTableRecord
100
AcDbBlockTableRecord
  2
*D26
340
0
  0
BLOCK_RECORD
  5
46A
330
1
100
AcDbSymbolTableRecord
100
AcDbBlockTableRecord
  2
*D27
340
0
  0
BLOCK_RECORD
  5
478
330
1
100
AcDbSymbolTableRecord
100
AcDbBlockTableRecord
  2
*D28
340
0
  0
BLOCK_RECORD
  5
485
330
1
100
AcDbSymbolTableRecord
100
AcDbBlockTableRecord
  2
*D29
340
0
  0
BLOCK_RECORD
  5
493
330
1
100
AcDbSymbolTableRecord
100
AcDbBlockTableRecord
  2
*D30
340
0
  0
BLOCK_RECORD
  5
4A1
330
1
100
AcDbSymbolTableRecord
100
AcDbBlockTableRecord
  2
*D31
340
0
  0
BLOCK_RECORD
  5
4AF
330
1
100
AcDbSymbolTableRecord
100
AcDbBlockTableRecord
  2
*D32
340
0
  0
BLOCK_RECORD
  5
4BF
330
1
100
AcDbSymbolTableRecord
100
AcDbBlockTableRecord
  2
*D33
340
0
  0
BLOCK_RECORD
  5
4CB
330
1
100
AcDbSymbolTableRecord
100
AcDbBlockTableRecord
  2
*D34
340
0
  0
BLOCK_RECORD
  5
4D9
330
1
100
AcDbSymbolTableRecord
100
AcDbBlockTableRecord
  2
*D35
340
0
  0
BLOCK_RECORD
  5
4E7
330
1
100
AcDbSymbolTableRecord
100
AcDbBlockTableRecord
  2
*D36
340
0
  0
BLOCK_RECORD
  5
4F4
330
1
100
AcDbSymbolTableRecord
100
AcDbBlockTableRecord
  2
*D37
340
0
  0
BLOCK_RECORD
  5
500
330
1
100
AcDbSymbolTableRecord
100
AcDbBlockTableRecord
  2
VIS-ULNS3CRN0017
340
0
102
{BLKREFS
331
508
102
}
  0
BLOCK_RECORD
  5
50C
330
1
100
AcDbSymbolTableRecord
100
AcDbBlockTableRecord
  2
*D39
340
0
  0
BLOCK_RECORD
  5
51B
330
1
100
AcDbSymbolTableRecord
100
AcDbBlockTableRecord
  2
*D40
340
0
  0
BLOCK_RECORD
  5
531
330
1
100
AcDbSymbolTableRecord
100
AcDbBlockTableRecord
  2
*D41
340
0
  0
BLOCK_RECORD
  5
547
330
1
100
AcDbSymbolTableRecord
100
AcDbBlockTableRecord
  2
*D42
340
0
  0
BLOCK_RECORD
  5
556
330
1
100
AcDbSymbolTableRecord
100
AcDbBlockTableRecord
  2
*D43
340
0
  0
BLOCK_RECORD
  5
563
330
1
100
AcDbSymbolTableRecord
100
AcDbBlockTableRecord
  2
*D44
340
0
  0
BLOCK_RECORD
  5
579
330
1
100
AcDbSymbolTableRecord
100
AcDbBlockTableRecord
  2
*D45
340
0
  0
BLOCK_RECORD
  5
58D
330
1
100
AcDbSymbolTableRecord
100
AcDbBlockTableRecord
  2
*D46
340
0
  0
BLOCK_RECORD
  5
59F
330
1
100
AcDbSymbolTableRecord
100
AcDbBlockTableRecord
  2
*D47
340
0
  0
ENDTAB
  0
ENDSEC
  0
SECTION
  2
BLOCKS
  0
BLOCK
  5
20
330
1F
100
AcDbEntity
  8
0
100
AcDbBlockBegin
  2
*Model_Space
 70
     0
 10
0.0
 20
0.0
 30
0.0
  3
*Model_Space
  1

  0
ENDBLK
  5
21
330
1F
100
AcDbEntity
  8
0
100
AcDbBlockEnd
  0
BLOCK
  5
1C
330
1B
100
AcDbEntity
 67
     1
  8
0
100
AcDbBlockBegin
  2
*Paper_Space
 70
     0
 10
0.0
 20
0.0
 30
0.0
  3
*Paper_Space
  1

  0
ENDBLK
  5
1D
330
1B
100
AcDbEntity
 67
     1
  8
0
100
AcDbBlockEnd
  0
BLOCK
  5
24
330
23
100
AcDbEntity
  8
0
100
AcDbBlockBegin
  2
*Paper_Space0
 70
     0
 10
0.0
 20
0.0
 30
0.0
  3
*Paper_Space0
  1

  0
ENDBLK
  5
25
330
23
100
AcDbEntity
  8
0
100
AcDbBlockEnd
  0
BLOCK
  5
40
330
3F
100
AcDbEntity
  8
0
100
AcDbBlockBegin
  2
VIS-ULNS3CRN0000
 70
     0
 10
0.0
 20
0.0
 30
0.0
  3
VIS-ULNS3CRN0000
  1

  0
LINE
  5
72
330
3F
100
AcDbEntity
  8
0
  6
Continuous
 62
     0
100
AcDbLine
 10
-145.5263158099998
 20
37.57017807403395
 30
0.0
 11
-144.9122718411737
 21
37.57017807403395
 31
0.0
  0
LINE
  5
73
330
3F
100
AcDbEntity
  8
0
  6
Continuous
 62
     0
100
AcDbLine
 10
-144.2140351159998
 20
36.60526579903396
 30
0.0
 11
-144.2140351159998
 21
36.41228334403397
 31
0.0
  0
LINE
  5
74
330
3F
100
AcDbEntity
  8
0
  6
Continuous
 62
     0
100
AcDbLine
 10
-144.5614035350001
 20
34.09649388403395
 30
0.0
 11
-144.5614035350001
 21
33.51754651903397
 31
0.0
  0
LINE
  5
75
330
3F
100
AcDbEntity
  8
0
  6
Continuous
 62
     0
100
AcDbLine
 10
-145.5263158099999
 20
37.57017807403392
 30
0.0
 11
-145.5263158099999
 21
34.40526581203395
 31
0.0
  0
LINE
  5
76
330
3F
100
AcDbEntity
  8
0
  6
Continuous
 62
     0
100
AcDbLine
 10
-143.5964912599999
 20
38.14912543903395
 30
0.0
 11
-143.5964912599999
 21
36.41228334403397
 31
0.0
  0
LINE
  5
77
330
3F
100
AcDbEntity
  8
0
  6
Continuous
 62
     0
100
AcDbLine
 10
-144.5614035350001
 20
34.09649388403398
 30
0.0
 11
-145.2175438820001
 21
34.09649388403398
 31
0.0
  0
LINE
  5
78
330
3F
100
AcDbEntity
  8
0
  6
Continuous
 62
     0
100
AcDbLine
 10
-143.5964912599999
 20
36.41228334403399
 30
0.0
 11
-144.2140351159998
 21
36.41228334403399
 31
0.0
  0
LINE
  5
79
330
3F
100
AcDbEntity
  8
0
  6
Continuous
 62
     0
100
AcDbLine
 10
-147.2982545088263
 20
37.57017807403395
 30
0.0
 11
-146.6842105399998
 21
37.57017807403395
 31
0.0
  0
LINE
  5
7A
330
3F
100
AcDbEntity
  8
0
  6
Continuous
 62
     0
100
AcDbLine
 10
-147.6491228149999
 20
34.09649388403398
 30
0.0
 11
-146.9929824679999
 21
34.09649388403398
 31
0.0
  0
LINE
  5
7B
330
3F
100
AcDbEntity
  8
0
  6
Continuous
 62
     0
100
AcDbLine
 10
-146.6842105399998
 20
37.57017807403392
 30
0.0
 11
-146.6842105399998
 21
34.40526581203395
 31
0.0
  0
LINE
  5
7C
330
3F
100
AcDbEntity
  8
0
  6
Continuous
 62
     0
100
AcDbLine
 10
-147.6491228149999
 20
33.517546519034
 30
0.0
 11
-144.5614035350001
 21
33.517546519034
 31
0.0
  0
LINE
  5
7D
330
3F
100
AcDbEntity
  8
0
  6
Continuous
 62
     0
100
AcDbLine
 10
-148.6140350900001
 20
38.14912543903404
 30
0.0
 11
-143.5964912599999
 21
38.14912543903404
 31
0.0
  0
LINE
  5
7E
330
3F
100
AcDbEntity
  8
0
  6
Continuous
 62
     0
100
AcDbLine
 10
-147.9964912339998
 20
36.60526579903396
 30
0.0
 11
-147.9964912339998
 21
36.41228334403397
 31
0.0
  0
LINE
  5
7F
330
3F
100
AcDbEntity
  8
0
  6
Continuous
 62
     0
100
AcDbLine
 10
-148.6140350899997
 20
38.14912543903395
 30
0.0
 11
-148.6140350899997
 21
36.41228334403397
 31
0.0
  0
LINE
  5
80
330
3F
100
AcDbEntity
  8
0
  6
Continuous
 62
     0
100
AcDbLine
 10
-147.649122815
 20
34.09649388403395
 30
0.0
 11
-147.649122815
 21
33.51754651903397
 31
0.0
  0
LINE
  5
81
330
3F
100
AcDbEntity
  8
0
  6
Continuous
 62
     0
100
AcDbLine
 10
-148.6140350900001
 20
36.41228334403399
 30
0.0
 11
-147.9964912339998
 21
36.41228334403399
 31
0.0
  0
LINE
  5
82
330
3F
100
AcDbEntity
  8
0
  6
Continuous
 62
     0
100
AcDbLine
 10
-156.7192981999998
 20
37.57017807403395
 30
0.0
 11
-156.1052542311737
 21
37.57017807403395
 31
0.0
  0
LINE
  5
83
330
3F
100
AcDbEntity
  8
0
  6
Continuous
 62
     0
100
AcDbLine
 10
-155.4070175059998
 20
36.60526579903396
 30
0.0
 11
-155.4070175059998
 21
36.41228334403397
 31
0.0
  0
LINE
  5
84
330
3F
100
AcDbEntity
  8
0
  6
Continuous
 62
     0
100
AcDbLine
 10
-155.7543859250001
 20
34.09649388403395
 30
0.0
 11
-155.7543859250001
 21
33.51754651903397
 31
0.0
  0
LINE
  5
85
330
3F
100
AcDbEntity
  8
0
  6
Continuous
 62
     0
100
AcDbLine
 10
-156.7192981999999
 20
37.57017807403392
 30
0.0
 11
-156.7192981999999
 21
34.40526581203395
 31
0.0
  0
LINE
  5
86
330
3F
100
AcDbEntity
  8
0
  6
Continuous
 62
     0
100
AcDbLine
 10
-154.7894736499999
 20
38.14912543903395
 30
0.0
 11
-154.7894736499999
 21
36.41228334403397
 31
0.0
  0
LINE
  5
87
330
3F
100
AcDbEntity
  8
0
  6
Continuous
 62
     0
100
AcDbLine
 10
-155.7543859250001
 20
34.09649388403398
 30
0.0
 11
-156.4105262720001
 21
34.09649388403398
 31
0.0
  0
LINE
  5
88
330
3F
100
AcDbEntity
  8
0
  6
Continuous
 62
     0
100
AcDbLine
 10
-154.7894736499999
 20
36.41228334403399
 30
0.0
 11
-155.4070175059998
 21
36.41228334403399
 31
0.0
  0
LINE
  5
89
330
3F
100
AcDbEntity
  8
0
  6
Continuous
 62
     0
100
AcDbLine
 10
-158.4912368988263
 20
37.57017807403395
 30
0.0
 11
-157.8771929299998
 21
37.57017807403395
 31
0.0
  0
LINE
  5
8A
330
3F
100
AcDbEntity
  8
0
  6
Continuous
 62
     0
100
AcDbLine
 10
-158.8421052049999
 20
34.09649388403398
 30
0.0
 11
-158.1859648579999
 21
34.09649388403398
 31
0.0
  0
LINE
  5
8B
330
3F
100
AcDbEntity
  8
0
  6
Continuous
 62
     0
100
AcDbLine
 10
-157.8771929299998
 20
37.57017807403392
 30
0.0
 11
-157.8771929299998
 21
34.40526581203395
 31
0.0
  0
LINE
  5
8C
330
3F
100
AcDbEntity
  8
0
  6
Continuous
 62
     0
100
AcDbLine
 10
-158.8421052049999
 20
33.517546519034
 30
0.0
 11
-155.7543859250001
 21
33.517546519034
 31
0.0
  0
LINE
  5
8D
330
3F
100
AcDbEntity
  8
0
  6
Continuous
 62
     0
100
AcDbLine
 10
-159.8070174800001
 20
38.14912543903404
 30
0.0
 11
-154.7894736499999
 21
38.14912543903404
 31
0.0
  0
LINE
  5
8E
330
3F
100
AcDbEntity
  8
0
  6
Continuous
 62
     0
100
AcDbLine
 10
-159.1894736239998
 20
36.60526579903396
 30
0.0
 11
-159.1894736239998
 21
36.41228334403397
 31
0.0
  0
LINE
  5
8F
330
3F
100
AcDbEntity
  8
0
  6
Continuous
 62
     0
100
AcDbLine
 10
-159.8070174799997
 20
38.14912543903395
 30
0.0
 11
-159.8070174799997
 21
36.41228334403397
 31
0.0
  0
LINE
  5
90
330
3F
100
AcDbEntity
  8
0
  6
Continuous
 62
     0
100
AcDbLine
 10
-158.842105205
 20
34.09649388403395
 30
0.0
 11
-158.842105205
 21
33.51754651903397
 31
0.0
  0
LINE
  5
91
330
3F
100
AcDbEntity
  8
0
  6
Continuous
 62
     0
100
AcDbLine
 10
-159.8070174800001
 20
36.41228334403399
 30
0.0
 11
-159.1894736239998
 21
36.41228334403399
 31
0.0
  0
ARC
  5
92
330
3F
100
AcDbEntity
  8
0
  6
Continuous
 62
     0
100
AcDbCircle
 10
-140.4122807524997
 20
35.32000264873398
 30
0.0
 40
1.428070167
100
AcDbArc
 50
192.0827302854394
 51
233.9554528511133
  0
ARC
  5
93
330
3F
100
AcDbEntity
  8
0
  6
Continuous
 62
     0
100
AcDbCircle
 10
-140.6052632074999
 20
35.32000264873398
 30
0.0
 40
1.428070167
100
AcDbArc
 50
306.0445471488867
 51
347.9172697145606
  0
ARC
  5
94
330
3F
100
AcDbEntity
  8
0
  6
Continuous
 62
     0
100
AcDbCircle
 10
-140.1035088245
 20
35.69052896233404
 30
0.0
 40
2.2964912145
100
AcDbArc
 50
288.7954866020262
 51
350.1090987889145
  0
ARC
  5
95
330
3F
100
AcDbEntity
  8
0
  6
Continuous
 62
     0
100
AcDbCircle
 10
-142.3421053025001
 20
35.77544124253404
 30
0.0
 40
3.2228069985
100
AcDbArc
 50
346.4630945364886
 51
1.029320866956506
  0
ARC
  5
96
330
3F
100
AcDbEntity
  8
0
  6
Continuous
 62
     0
100
AcDbCircle
 10
-138.6754386575
 20
35.89123071553399
 30
0.0
 40
3.2228069985
100
AcDbArc
 50
164.150078722529
 51
181.0293208669565
  0
ARC
  5
97
330
3F
100
AcDbEntity
  8
0
  6
Continuous
 62
     0
100
AcDbCircle
 10
-138.6754386575
 20
35.77544124253404
 30
0.0
 40
3.2228069985
100
AcDbArc
 50
178.9706791330434
 51
193.5369054635114
  0
ARC
  5
98
330
3F
100
AcDbEntity
  8
0
  6
Continuous
 62
     0
100
AcDbCircle
 10
-140.5087719800001
 20
36.37368685303397
 30
0.0
 40
1.350877185
100
AcDbArc
 50
56.59118530601407
 51
123.4088146939859
  0
ARC
  5
99
330
3F
100
AcDbEntity
  8
0
  6
Continuous
 62
     0
100
AcDbCircle
 10
-140.9140351355001
 20
35.69052896233404
 30
0.0
 40
2.2964912145
100
AcDbArc
 50
189.8909012110854
 51
251.2045133979737
  0
ARC
  5
9A
330
3F
100
AcDbEntity
  8
0
  6
Continuous
 62
     0
100
AcDbCircle
 10
-140.4122807524997
 20
36.34666930933406
 30
0.0
 40
1.428070167
100
AcDbArc
 50
126.0445471488867
 51
162.6959035444569
  0
ARC
  5
9B
330
3F
100
AcDbEntity
  8
0
  6
Continuous
 62
     0
100
AcDbCircle
 10
-142.05263162
 20
35.83333597903402
 30
0.0
 40
4.245614010000001
100
AcDbArc
 50
352.7297389265646
 51
7.270261073435491
  0
ARC
  5
9C
330
3F
100
AcDbEntity
  8
0
  6
Continuous
 62
     0
100
AcDbCircle
 10
-140.9140351355001
 20
35.97614299573399
 30
0.0
 40
2.2964912145
100
AcDbArc
 50
108.7954866020263
 51
170.1090987889146
  0
ARC
  5
9D
330
3F
100
AcDbEntity
  8
0
  6
Continuous
 62
     0
100
AcDbCircle
 10
-140.1035088245
 20
35.97614299573399
 30
0.0
 40
2.2964912145
100
AcDbArc
 50
9.890901211085497
 51
71.20451339797377
  0
ARC
  5
9E
330
3F
100
AcDbEntity
  8
0
  6
Continuous
 62
     0
100
AcDbCircle
 10
-140.6052632074999
 20
36.34666930933406
 30
0.0
 40
1.428070167
100
AcDbArc
 50
17.30409645554312
 51
53.95545285111331
  0
ARC
  5
9F
330
3F
100
AcDbEntity
  8
0
  6
Continuous
 62
     0
100
AcDbCircle
 10
-138.9649123400001
 20
35.83333597903402
 30
0.0
 40
4.245614010000001
100
AcDbArc
 50
172.7297389265646
 51
187.2702610734354
  0
ARC
  5
A0
330
3F
100
AcDbEntity
  8
0
  6
Continuous
 62
     0
100
AcDbCircle
 10
-140.5087719800001
 20
34.82982721303404
 30
0.0
 40
3.512280681
100
AcDbArc
 50
70.08847837174153
 51
109.9115216282585
  0
ARC
  5
A1
330
3F
100
AcDbEntity
  8
0
  6
Continuous
 62
     0
100
AcDbCircle
 10
-140.5087719800001
 20
36.836844745034
 30
0.0
 40
3.512280681
100
AcDbArc
 50
250.0884783717415
 51
289.9115216282585
  0
ARC
  5
A2
330
3F
100
AcDbEntity
  8
0
  6
Continuous
 62
     0
100
AcDbCircle
 10
-142.3421053025001
 20
35.89123071553399
 30
0.0
 40
3.2228069985
100
AcDbArc
 50
358.9706791330435
 51
15.84992127747103
  0
ARC
  5
A3
330
3F
100
AcDbEntity
  8
0
  6
Continuous
 62
     0
100
AcDbCircle
 10
-140.5087719800001
 20
35.29298510503395
 30
0.0
 40
1.350877185
100
AcDbArc
 50
236.5911853060141
 51
303.408814693986
  0
ARC
  5
A4
330
3F
100
AcDbEntity
  8
0
  6
Continuous
 62
     0
100
AcDbCircle
 10
-145.5842105465001
 20
36.60526579903399
 30
0.0
 40
1.3701754305
100
AcDbArc
 50
0.000000000000051
 51
15.47863944165359
  0
ARC
  5
A5
330
3F
100
AcDbEntity
  8
0
  6
Continuous
 62
     0
100
AcDbCircle
 10
-145.0824561635001
 20
36.74421316663404
 30
0.0
 40
0.8495375219467715
100
AcDbArc
 50
15.47863610704422
 51
66.2505055071333
  0
ARC
  5
A6
330
3F
100
AcDbEntity
  8
0
  6
Continuous
 62
     0
100
AcDbCircle
 10
-144.9975438833
 20
36.93719562163403
 30
0.0
 40
0.6387003258295056
100
AcDbArc
 50
66.2505055071333
 51
82.32760665635566
  0
ARC
  5
A7
330
3F
100
AcDbEntity
  8
0
  6
Continuous
 62
     0
100
AcDbCircle
 10
-145.2175438820001
 20
34.40526581203403
 30
0.0
 40
0.308771928
100
AcDbArc
 50
180.0000000000001
 51
270.0000000000001
  0
ARC
  5
A8
330
3F
100
AcDbEntity
  8
0
  6
Continuous
 62
     0
100
AcDbCircle
 10
-146.6263158035001
 20
36.60526579903399
 30
0.0
 40
1.3701754305
100
AcDbArc
 50
164.5213605583465
 51
180.0
  0
ARC
  5
A9
330
3F
100
AcDbEntity
  8
0
  6
Continuous
 62
     0
100
AcDbCircle
 10
-147.1280701865
 20
36.74421316663404
 30
0.0
 40
0.8495375219467715
100
AcDbArc
 50
113.7494944928667
 51
164.5213638929558
  0
ARC
  5
AA
330
3F
100
AcDbEntity
  8
0
  6
Continuous
 62
     0
100
AcDbCircle
 10
-147.2129824667001
 20
36.93719562163403
 30
0.0
 40
0.6387003258295056
100
AcDbArc
 50
97.6723933436444
 51
113.7494944928667
  0
ARC
  5
AB
330
3F
100
AcDbEntity
  8
0
  6
Continuous
 62
     0
100
AcDbCircle
 10
-146.992982468
 20
34.40526581203403
 30
0.0
 40
0.308771928
100
AcDbArc
 50
270.0
 51
0.0
  0
ARC
  5
AC
330
3F
100
AcDbEntity
  8
0
  6
Continuous
 62
     0
100
AcDbCircle
 10
-151.6052631425002
 20
35.32000264873398
 30
0.0
 40
1.428070167
100
AcDbArc
 50
192.0827302854394
 51
233.9554528511133
  0
ARC
  5
AD
330
3F
100
AcDbEntity
  8
0
  6
Continuous
 62
     0
100
AcDbCircle
 10
-151.7982455974999
 20
35.32000264873398
 30
0.0
 40
1.428070167
100
AcDbArc
 50
306.0445471488867
 51
347.9172697145606
  0
ARC
  5
AE
330
3F
100
AcDbEntity
  8
0
  6
Continuous
 62
     0
100
AcDbCircle
 10
-151.2964912145
 20
35.69052896233404
 30
0.0
 40
2.2964912145
100
AcDbArc
 50
288.7954866020262
 51
350.1090987889145
  0
ARC
  5
AF
330
3F
100
AcDbEntity
  8
0
  6
Continuous
 62
     0
100
AcDbCircle
 10
-153.5350876925001
 20
35.77544124253404
 30
0.0
 40
3.2228069985
100
AcDbArc
 50
346.4630945364886
 51
1.029320866956506
  0
ARC
  5
B0
330
3F
100
AcDbEntity
  8
0
  6
Continuous
 62
     0
100
AcDbCircle
 10
-149.8684210475
 20
35.89123071553399
 30
0.0
 40
3.2228069985
100
AcDbArc
 50
164.150078722529
 51
181.0293208669565
  0
ARC
  5
B1
330
3F
100
AcDbEntity
  8
0
  6
Continuous
 62
     0
100
AcDbCircle
 10
-149.8684210475
 20
35.77544124253404
 30
0.0
 40
3.2228069985
100
AcDbArc
 50
178.9706791330434
 51
193.5369054635114
  0
ARC
  5
B2
330
3F
100
AcDbEntity
  8
0
  6
Continuous
 62
     0
100
AcDbCircle
 10
-151.7017543700001
 20
36.37368685303397
 30
0.0
 40
1.350877185
100
AcDbArc
 50
56.59118530601407
 51
123.4088146939859
  0
ARC
  5
B3
330
3F
100
AcDbEntity
  8
0
  6
Continuous
 62
     0
100
AcDbCircle
 10
-152.1070175255001
 20
35.69052896233404
 30
0.0
 40
2.2964912145
100
AcDbArc
 50
189.8909012110854
 51
251.2045133979737
  0
ARC
  5
B4
330
3F
100
AcDbEntity
  8
0
  6
Continuous
 62
     0
100
AcDbCircle
 10
-151.6052631425002
 20
36.34666930933406
 30
0.0
 40
1.428070167
100
AcDbArc
 50
126.0445471488867
 51
162.6959035444569
  0
ARC
  5
B5
330
3F
100
AcDbEntity
  8
0
  6
Continuous
 62
     0
100
AcDbCircle
 10
-153.24561401
 20
35.83333597903402
 30
0.0
 40
4.245614010000001
100
AcDbArc
 50
352.7297389265646
 51
7.270261073435491
  0
ARC
  5
B6
330
3F
100
AcDbEntity
  8
0
  6
Continuous
 62
     0
100
AcDbCircle
 10
-152.1070175255001
 20
35.97614299573399
 30
0.0
 40
2.2964912145
100
AcDbArc
 50
108.7954866020263
 51
170.1090987889146
  0
ARC
  5
B7
330
3F
100
AcDbEntity
  8
0
  6
Continuous
 62
     0
100
AcDbCircle
 10
-151.2964912145
 20
35.97614299573399
 30
0.0
 40
2.2964912145
100
AcDbArc
 50
9.890901211085497
 51
71.20451339797377
  0
ARC
  5
B8
330
3F
100
AcDbEntity
  8
0
  6
Continuous
 62
     0
100
AcDbCircle
 10
-151.7982455974999
 20
36.34666930933406
 30
0.0
 40
1.428070167
100
AcDbArc
 50
17.30409645554312
 51
53.95545285111331
  0
ARC
  5
B9
330
3F
100
AcDbEntity
  8
0
  6
Continuous
 62
     0
100
AcDbCircle
 10
-150.1578947300001
 20
35.83333597903402
 30
0.0
 40
4.245614010000001
100
AcDbArc
 50
172.7297389265646
 51
187.2702610734354
  0
ARC
  5
BA
330
3F
100
AcDbEntity
  8
0
  6
Continuous
 62
     0
100
AcDbCircle
 10
-151.7017543700001
 20
34.82982721303404
 30
0.0
 40
3.512280681
100
AcDbArc
 50
70.08847837174153
 51
109.9115216282585
  0
ARC
  5
BB
330
3F
100
AcDbEntity
  8
0
  6
Continuous
 62
     0
100
AcDbCircle
 10
-151.7017543700001
 20
36.836844745034
 30
0.0
 40
3.512280681
100
AcDbArc
 50
250.0884783717415
 51
289.9115216282585
  0
ARC
  5
BC
330
3F
100
AcDbEntity
  8
0
  6
Continuous
 62
     0
100
AcDbCircle
 10
-153.5350876925001
 20
35.89123071553399
 30
0.0
 40
3.2228069985
100
AcDbArc
 50
358.9706791330435
 51
15.84992127747103
  0
ARC
  5
BD
330
3F
100
AcDbEntity
  8
0
  6
Continuous
 62
     0
100
AcDbCircle
 10
-151.7017543700001
 20
35.29298510503395
 30
0.0
 40
1.350877185
100
AcDbArc
 50
236.5911853060141
 51
303.408814693986
  0
ARC
  5
BE
330
3F
100
AcDbEntity
  8
0
  6
Continuous
 62
     0
100
AcDbCircle
 10
-156.7771929365001
 20
36.60526579903399
 30
0.0
 40
1.3701754305
100
AcDbArc
 50
0.000000000000051
 51
15.47863944165359
  0
ARC
  5
BF
330
3F
100
AcDbEntity
  8
0
  6
Continuous
 62
     0
100
AcDbCircle
 10
-156.2754385535001
 20
36.74421316663404
 30
0.0
 40
0.8495375219467715
100
AcDbArc
 50
15.47863610704422
 51
66.2505055071333
  0
ARC
  5
C0
330
3F
100
AcDbEntity
  8
0
  6
Continuous
 62
     0
100
AcDbCircle
 10
-156.1905262733
 20
36.93719562163403
 30
0.0
 40
0.6387003258295056
100
AcDbArc
 50
66.2505055071333
 51
82.32760665635566
  0
ARC
  5
C1
330
3F
100
AcDbEntity
  8
0
  6
Continuous
 62
     0
100
AcDbCircle
 10
-156.4105262720001
 20
34.40526581203403
 30
0.0
 40
0.308771928
100
AcDbArc
 50
180.0000000000001
 51
270.0000000000001
  0
ARC
  5
C2
330
3F
100
AcDbEntity
  8
0
  6
Continuous
 62
     0
100
AcDbCircle
 10
-157.8192981935001
 20
36.60526579903399
 30
0.0
 40
1.3701754305
100
AcDbArc
 50
164.5213605583465
 51
180.0
  0
ARC
  5
C3
330
3F
100
AcDbEntity
  8
0
  6
Continuous
 62
     0
100
AcDbCircle
 10
-158.3210525765
 20
36.74421316663404
 30
0.0
 40
0.8495375219467715
100
AcDbArc
 50
113.7494944928667
 51
164.5213638929558
  0
ARC
  5
C4
330
3F
100
AcDbEntity
  8
0
  6
Continuous
 62
     0
100
AcDbCircle
 10
-158.4059648567001
 20
36.93719562163403
 30
0.0
 40
0.6387003258295056
100
AcDbArc
 50
97.6723933436444
 51
113.7494944928667
  0
ARC
  5
C5
330
3F
100
AcDbEntity
  8
0
  6
Continuous
 62
     0
100
AcDbCircle
 10
-158.185964858
 20
34.40526581203403
 30
0.0
 40
0.308771928
100
AcDbArc
 50
270.0
 51
0.0
  0
HATCH
  5
C6
330
3F
100
AcDbEntity
  8
0
 62
     0
100
AcDbHatch
 10
0.0
 20
0.0
 30
0.0
210
0.0
220
0.0
230
1.0
  2
SOLID
 70
     1
 71
     0
 91
        1
 92
        3
 72
     1
 73
     1
 93
       24
 10
-159.8070174799997
 20
38.14912543903395
 42
0.0
 10
-159.8070174799997
 20
36.41228334403399
 42
0.0
 10
-159.1894736239998
 20
36.41228334403397
 42
0.0
 10
-159.1894736239998
 20
36.60526503064828
 42
-0.0676413187077701
 10
-159.1397773911111
 20
36.97093696144946
 42
-0.2252307504847608
 10
-158.6631941408562
 20
37.52180763107899
 42
-0.0702648821362087
 10
-158.4912368988265
 20
37.57017807403395
 42
0.0
 10
-157.8771929299998
 20
37.57017807403392
 42
0.0
 10
-157.87719293
 20
34.40526581203403
 42
-0.4142135890519601
 10
-158.1859648861251
 20
34.09649388403398
 42
0.0
 10
-158.842105205
 20
34.09649388403395
 42
0.0
 10
-158.8421052049999
 20
33.517546519034
 42
0.0
 10
-155.7543859250001
 20
33.51754651903397
 42
0.0
 10
-155.7543859250001
 20
34.09649388403398
 42
0.0
 10
-156.4105262438749
 20
34.09649388403403
 42
-0.4142139873442889
 10
-156.7192981999999
 20
34.405266231919
 42
0.0
 10
-156.7192981999998
 20
37.57017807403395
 42
0.0
 10
-156.1052542311735
 20
37.57017807403402
 42
-0.0702648821362087
 10
-155.933296989144
 20
37.52180763107896
 42
-0.2252307504847608
 10
-155.456713738889
 20
36.97093696144942
 42
-0.0676411778678971
 10
-155.4070175059998
 20
36.60526579903396
 42
0.0
 10
-155.4070175059998
 20
36.41228334403399
 42
0.0
 10
-154.7894736499999
 20
36.41228334403397
 42
0.0
 10
-154.7894736499999
 20
38.14912543903404
 42
0.0
 97
        0
 75
     0
 76
     1
 98
        0
  0
HATCH
  5
C7
330
3F
100
AcDbEntity
  8
0
 62
     0
100
AcDbHatch
 10
0.0
 20
0.0
 30
0.0
210
0.0
220
0.0
230
1.0
  2
SOLID
 70
     1
 71
     0
 91
        2
 92
        3
 72
     1
 73
     1
 93
       10
 10
-153.0016963773777
 20
35.0210735226776
 42
0.1847646747456769
 10
-152.4455597370917
 20
34.16532259131845
 42
0.3000982261761373
 10
-150.9579490029083
 20
34.16532259131847
 42
0.1847646747456769
 10
-150.4018123626225
 20
35.02107352267767
 42
0.0636428707226487
 10
-150.3128007485632
 20
35.83333597903399
 42
0.0737830421103821
 10
-150.4348105492269
 20
36.77143897752607
 42
0.1612991339525331
 10
-150.9579490029084
 20
37.50134936674947
 42
0.3000982261761372
 10
-152.4455597370918
 20
37.50134936674957
 42
0.1612991339525331
 10
-152.9686981907731
 20
36.77143897752601
 42
0.073783042110382
 10
-153.0907079914369
 20
35.83333597903405
 42
0.0636428707226491
 97
        0
 92
        3
 72
     1
 73
     1
 93
        8
 10
-152.8724798829412
 20
38.14130794963854
 42
0.2709388272086841
 10
-154.3693751109069
 20
36.37061739798095
 42
0.063530261590154
 10
-154.3693751109069
 20
35.29605456008711
 42
0.2709388272086841
 10
-152.8724615049099
 20
33.52541599200353
 42
0.1715646227653607
 10
-150.5310288570589
 20
33.5253640084295
 42
0.270938827208684
 10
-149.0341336290932
 20
35.29605456008709
 42
0.063530261590154
 10
-149.0341336290932
 20
36.37061739798092
 42
0.2709388272086841
 10
-150.5310472350902
 20
38.14125596606451
 42
0.1715646227653607
 97
        0
 75
     0
 76
     1
 98
        0
  0
HATCH
  5
C8
330
3F
100
AcDbEntity
  8
0
 62
     0
100
AcDbHatch
 10
0.0
 20
0.0
 30
0.0
210
0.0
220
0.0
230
1.0
  2
SOLID
 70
     1
 71
     0
 91
        1
 92
        3
 72
     1
 73
     1
 93
       24
 10
-148.6140350899997
 20
38.14912543903395
 42
0.0
 10
-148.6140350899997
 20
36.41228334403399
 42
0.0
 10
-147.9964912339998
 20
36.41228334403397
 42
0.0
 10
-147.9964912339998
 20
36.60526503064828
 42
-0.0676413187077701
 10
-147.9467950011111
 20
36.97093696144946
 42
-0.2252307504847608
 10
-147.4702117508562
 20
37.52180763107899
 42
-0.0702648821362087
 10
-147.2982545088265
 20
37.57017807403395
 42
0.0
 10
-146.6842105399998
 20
37.57017807403392
 42
0.0
 10
-146.68421054
 20
34.40526581203403
 42
-0.4142135890519601
 10
-146.9929824961251
 20
34.09649388403398
 42
0.0
 10
-147.649122815
 20
34.09649388403395
 42
0.0
 10
-147.6491228149999
 20
33.517546519034
 42
0.0
 10
-144.5614035350001
 20
33.51754651903397
 42
0.0
 10
-144.5614035350001
 20
34.09649388403398
 42
0.0
 10
-145.2175438538749
 20
34.09649388403403
 42
-0.4142139873442889
 10
-145.5263158099999
 20
34.405266231919
 42
0.0
 10
-145.5263158099998
 20
37.57017807403395
 42
0.0
 10
-144.9122718411735
 20
37.57017807403402
 42
-0.0702648821362087
 10
-144.740314599144
 20
37.52180763107896
 42
-0.2252307504847608
 10
-144.263731348889
 20
36.97093696144942
 42
-0.0676411778678971
 10
-144.2140351159998
 20
36.60526579903396
 42
0.0
 10
-144.2140351159998
 20
36.41228334403399
 42
0.0
 10
-143.5964912599999
 20
36.41228334403397
 42
0.0
 10
-143.5964912599999
 20
38.14912543903404
 42
0.0
 97
        0
 75
     0
 76
     1
 98
        0
  0
HATCH
  5
C9
330
3F
100
AcDbEntity
  8
0
 62
     0
100
AcDbHatch
 10
0.0
 20
0.0
 30
0.0
210
0.0
220
0.0
230
1.0
  2
SOLID
 70
     1
 71
     0
 91
        2
 92
        3
 72
     1
 73
     1
 93
       10
 10
-141.8087139873773
 20
35.0210735226776
 42
0.1847646747456769
 10
-141.2525773470917
 20
34.16532259131845
 42
0.3000982261761373
 10
-139.7649666129083
 20
34.16532259131847
 42
0.1847646747456769
 10
-139.2088299726225
 20
35.02107352267767
 42
0.0636428707226487
 10
-139.1198183585632
 20
35.83333597903399
 42
0.0737830421103821
 10
-139.2418281592269
 20
36.77143897752607
 42
0.1612991339525331
 10
-139.7649666129084
 20
37.50134936674947
 42
0.3000982261761372
 10
-141.2525773470914
 20
37.50134936674957
 42
0.1612991339525331
 10
-141.7757158007731
 20
36.77143897752601
 42
0.073783042110382
 10
-141.8977256014369
 20
35.83333597903405
 42
0.0636428707226491
 97
        0
 92
        3
 72
     1
 73
     1
 93
        8
 10
-137.8411512390932
 20
35.29605456008709
 42
0.063530261590154
 10
-137.8411512390932
 20
36.37061739798092
 42
0.2709388272086841
 10
-139.3380648450902
 20
38.14125596606451
 42
0.1715646227653607
 10
-141.6794974929412
 20
38.14130794963854
 42
0.2709388272086841
 10
-143.1763927209069
 20
36.37061739798095
 42
0.063530261590154
 10
-143.1763927209069
 20
35.29605456008711
 42
0.2709388272086841
 10
-141.6794791149099
 20
33.52541599200353
 42
0.1715646227653607
 10
-139.3380464670589
 20
33.5253640084295
 42
0.270938827208684
 97
        0
 75
     0
 76
     1
 98
        0
  0
ENDBLK
  5
41
330
3F
100
AcDbEntity
  8
0
100
AcDbBlockEnd
  0
BLOCK
  5
43
330
42
100
AcDbEntity
  8
0
100
AcDbBlockBegin
  2
VIS-ULNS3CRN0001
 70
     0
 10
0.0
 20
0.0
 30
0.0
  3
VIS-ULNS3CRN0001
  1

  0
LINE
  5
CA
330
42
100
AcDbEntity
  8
0
  6
Continuous
 62
     0
370
    50
100
AcDbLine
 10
-395.0
 20
287.0000001025692
 30
0.0
 11
-395.0
 21
9.999999148894858
 31
0.0
  0
LINE
  5
CB
330
42
100
AcDbEntity
  8
0
  6
Continuous
 62
     0
370
    50
100
AcDbLine
 10
-10.0
 20
9.999999148894858
 30
0.0
 11
-10.0
 21
287.0000001025692
 31
0.0
  0
LINE
  5
CC
330
42
100
AcDbEntity
  8
0
  6
Continuous
 62
     0
370
    50
100
AcDbLine
 10
-395.0
 20
9.999999148894858
 30
0.0
 11
-10.0
 21
9.999999148894858
 31
0.0
  0
LINE
  5
CD
330
42
100
AcDbEntity
  8
0
  6
Continuous
 62
     0
370
    50
100
AcDbLine
 10
-169.0
 20
41.00000010256917
 30
0.0
 11
-10.0
 21
41.00000010256917
 31
0.0
  0
LINE
  5
CE
330
42
100
AcDbEntity
  8
0
  6
Continuous
 62
     0
370
    50
100
AcDbLine
 10
-169.0
 20
9.999999148894858
 30
0.0
 11
-169.0
 21
41.00000010256917
 31
0.0
  0
LINE
  5
CF
330
42
100
AcDbEntity
  8
0
  6
Continuous
 62
     0
370
    50
100
AcDbLine
 10
-395.0
 20
287.0000001025692
 30
0.0
 11
-10.0
 21
287.0000001025692
 31
0.0
  0
LINE
  5
D0
330
42
100
AcDbEntity
  8
0
  6
Continuous
 62
     0
100
AcDbLine
 10
-10.0
 20
20.33332834963949
 30
0.0
 11
-169.0
 21
20.33332834963949
 31
0.0
  0
LINE
  5
D1
330
42
100
AcDbEntity
  8
0
  6
Continuous
 62
     0
100
AcDbLine
 10
-95.0
 20
9.999999148894858
 30
0.0
 11
-95.0
 21
41.00000010256917
 31
0.0
  0
LINE
  5
D2
330
42
100
AcDbEntity
  8
0
  6
Continuous
 62
     0
100
AcDbLine
 10
-112.0
 20
20.33332834963949
 30
0.0
 11
-112.0
 21
41.00000010256917
 31
0.0
  0
LINE
  5
D3
330
42
100
AcDbEntity
  8
0
  6
Continuous
 62
     0
100
AcDbLine
 10
-129.0
 20
20.33332834963949
 30
0.0
 11
-129.0
 21
41.00000010256917
 31
0.0
  0
LINE
  5
D4
330
42
100
AcDbEntity
  8
0
  6
Continuous
 62
     0
100
AcDbLine
 10
-10.0
 20
30.66667185549886
 30
0.0
 11
-169.0
 21
30.66667185549886
 31
0.0
  0
LINE
  5
D5
330
42
100
AcDbEntity
  8
0
  6
Continuous
 62
     0
100
AcDbLine
 10
-152.0
 20
20.33332834963949
 30
0.0
 11
-152.0
 21
30.66667185549886
 31
0.0
  0
MTEXT
  5
D6
330
42
100
AcDbEntity
  8
0
 62
     0
100
AcDbMText
 10
-126.0700000524521
 20
34.33333597903402
 30
0.0
 40
3.0
 41
0.0
 71
     7
 72
     1
  1
{\W0.833333;第三角法}
 73
     1
 44
1.0
  0
MTEXT
  5
F9
330
42
100
AcDbEntity
  8
0
 62
     0
100
AcDbMText
 10
-105.8130000531673
 20
32.816671831657
 30
0.0
 40
2.700000047683716
 41
0.0
 71
     7
 72
     1
  1
{\W0.833333;mm}
 73
     1
 44
1.0
  0
MTEXT
  5
FA
330
42
100
AcDbEntity
  8
0
 62
     0
100
AcDbMText
 10
-166.9815000295639
 20
26.816671831657
 30
0.0
 40
2.700000047683716
 41
0.0
 71
     7
 72
     1
  1
{\W0.833333;製図}
 73
     1
 44
1.0
  0
MTEXT
  5
FB
330
42
100
AcDbEntity
  8
0
 62
     0
100
AcDbMText
 10
-149.9815000295639
 20
26.816671831657
 30
0.0
 40
2.700000047683716
 41
0.0
 71
     7
 72
     1
  1
{\W0.833333;検図}
 73
     1
 44
1.0
  0
MTEXT
  5
FC
330
42
100
AcDbEntity
  8
0
 62
     0
100
AcDbMText
 10
-126.9815000295639
 20
26.816671831657
 30
0.0
 40
2.700000047683716
 41
0.0
 71
     7
 72
     1
  1
{\W0.833333;日付}
 73
     1
 44
1.0
  0
MTEXT
  5
FD
330
42
100
AcDbEntity
  8
0
 62
     0
100
AcDbMText
 10
-109.9815000295639
 20
26.816671831657
 30
0.0
 40
2.700000047683716
 41
0.0
 71
     7
 72
     1
  1
{\W0.833333;尺度}
 73
     1
 44
1.0
  0
MTEXT
  5
FE
330
42
100
AcDbEntity
  8
0
 62
     0
100
AcDbMText
 10
-109.9815000295639
 20
37.15000007872732
 30
0.0
 40
2.700000047683716
 41
0.0
 71
     7
 72
     1
  1
{\W0.833333;単位}
 73
     1
 44
1.0
  0
MTEXT
  5
FF
330
42
100
AcDbEntity
  8
0
 62
     0
100
AcDbMText
 10
-92.9815000295639
 20
37.15000007872732
 30
0.0
 40
2.700000047683716
 41
0.0
 71
     7
 72
     1
  1
{\W0.833333;名称}
 73
     1
 44
1.0
  0
MTEXT
  5
100
330
42
100
AcDbEntity
  8
0
 62
     0
100
AcDbMText
 10
-92.9815000295639
 20
26.816671831657
 30
0.0
 40
2.700000047683716
 41
0.0
 71
     7
 72
     1
  1
{\W0.833333;品番}
 73
     1
 44
1.0
  0
MTEXT
  5
101
330
42
100
AcDbEntity
  8
0
 62
     0
100
AcDbMText
 10
-92.9815000295639
 20
16.48332832579763
 30
0.0
 40
2.700000047683716
 41
0.0
 71
     7
 72
     1
  1
{\W0.833333;図番}
 73
     1
 44
1.0
  0
MTEXT
  5
102
330
42
100
AcDbEntity
  8
0
 62
     0
100
AcDbMText
 10
-166.9815000295639
 20
16.48332832579763
 30
0.0
 40
2.700000047683716
 41
0.0
 71
     7
 72
     1
  1
{\W0.833333;備考}
 73
     1
 44
1.0
  0
MTEXT
  5
103
330
42
100
AcDbEntity
  8
0
 62
     0
100
AcDbMText
 10
-13.71333342790604
 20
7.499999046325683
 30
0.0
 40
2.0
 41
0.0
 71
     7
 72
     1
  1
{\W0.833333;A3}
 73
     1
 44
1.0
  0
ENDBLK
  5
44
330
42
100
AcDbEntity
  8
0
100
AcDbBlockEnd
  0
BLOCK
  5
46
330
45
100
AcDbEntity
  8
0
100
AcDbBlockBegin
  2
VIS-ULNS3CRN0002
 70
     0
 10
0.0
 20
0.0
 30
0.0
  3
VIS-ULNS3CRN0002
  1

  0
LINE
  5
104
330
45
100
AcDbEntity
  8
0
  6
Continuous
 62
    20
100
AcDbLine
 10
-252.622326870285
 20
193.194608383386
 30
0.0
 11
-252.722326870285
 21
193.194608383386
 31
0.0
  0
LINE
  5
105
330
45
100
AcDbEntity
  8
0
  6
Continuous
 62
    20
100
AcDbLine
 10
-252.612326870285
 20
179.1946083833861
 30
0.0
 11
-252.612326870285
 21
193.1946083833861
 31
0.0
  0
LINE
  5
106
330
45
100
AcDbEntity
  8
0
  6
Continuous
 62
    20
100
AcDbLine
 10
-327.1123268702849
 20
179.1946083833861
 30
0.0
 11
-279.9123948705772
 21
179.194608383386
 31
0.0
  0
LINE
  5
107
330
45
100
AcDbEntity
  8
0
  6
Continuous
 62
    20
100
AcDbLine
 10
-301.5415108645606
 20
193.194608383386
 30
0.0
 11
-252.612326870285
 21
193.194608383386
 31
0.0
  0
LINE
  5
108
330
45
100
AcDbEntity
  8
0
  6
Continuous
 62
    20
100
AcDbLine
 10
-252.6223268702853
 20
193.1946083833861
 30
0.0
 11
-327.112326870285
 21
193.1946083833861
 31
0.0
  0
LINE
  5
109
330
45
100
AcDbEntity
  8
0
  6
Continuous
 62
    20
100
AcDbLine
 10
-327.1123268702849
 20
179.1946083833861
 30
0.0
 11
-327.1123268702849
 21
193.1946083833861
 31
0.0
  0
LINE
  5
10A
330
45
100
AcDbEntity
  8
0
  6
Continuous
 62
    20
100
AcDbLine
 10
-260.6775157564954
 20
179.1946083833861
 30
0.0
 11
-252.612326870285
 21
179.1946083833861
 31
0.0
  0
ENDBLK
  5
47
330
45
100
AcDbEntity
  8
0
100
AcDbBlockEnd
  0
BLOCK
  5
49
330
48
100
AcDbEntity
  8
0
100
AcDbBlockBegin
  2
VIS-ULNS3CRN0003
 70
     0
 10
0.0
 20
0.0
 30
0.0
  3
VIS-ULNS3CRN0003
  1

  0
LINE
  5
10B
330
48
100
AcDbEntity
  8
0
  6
Continuous
 62
    20
100
AcDbLine
 10
-375.3623268702848
 20
92.69460838338584
 30
0.0
 11
-361.9623268702849
 21
92.69460838338584
 31
0.0
  0
LINE
  5
10C
330
48
100
AcDbEntity
  8
0
  6
Continuous
 62
    20
100
AcDbLine
 10
-361.9623268702849
 20
92.69460838338584
 30
0.0
 11
-361.4623268702849
 21
92.69460838338584
 31
0.0
  0
LINE
  5
10D
330
48
100
AcDbEntity
  8
0
  6
Continuous
 62
    20
100
AcDbLine
 10
-375.3742940702849
 20
92.69460838338584
 30
0.0
 11
-375.3623268702848
 21
92.69460838338584
 31
0.0
  0
LINE
  5
10E
330
48
100
AcDbEntity
  8
0
  6
Continuous
 62
    20
100
AcDbLine
 10
-375.3623268702847
 20
92.69460838338586
 30
0.0
 11
-375.3623268702847
 21
91.49460838338587
 31
0.0
  0
LINE
  5
10F
330
48
100
AcDbEntity
  8
0
  6
Continuous
 62
    20
100
AcDbLine
 10
-361.3623268702848
 20
92.59460838338586
 30
0.0
 11
-361.3623268702848
 21
91.49460838338587
 31
0.0
  0
LINE
  5
110
330
48
100
AcDbEntity
  8
0
  6
Continuous
 62
    20
100
AcDbLine
 10
-375.3623268702848
 20
92.59460838338586
 30
0.0
 11
-375.3623268702848
 21
92.69460838338586
 31
0.0
  0
LINE
  5
111
330
48
100
AcDbEntity
  8
0
  6
Continuous
 62
    20
100
AcDbLine
 10
-375.3623268702848
 20
91.49460838338587
 30
0.0
 11
-361.3623268702848
 21
91.49460838338587
 31
0.0
  0
ARC
  5
112
330
48
100
AcDbEntity
  8
0
  6
Continuous
 62
    20
100
AcDbCircle
 10
-361.4623268702849
 20
92.59460838338586
 30
0.0
 40
0.1
100
AcDbArc
 50
0.000000000000102
 51
90.0000000000001
  0
ENDBLK
  5
4A
330
48
100
AcDbEntity
  8
0
100
AcDbBlockEnd
  0
BLOCK
  5
4C
330
4B
100
AcDbEntity
  8
0
100
AcDbBlockBegin
  2
VIS-ULNS3CRN0004
 70
     0
 10
0.0
 20
0.0
 30
0.0
  3
VIS-ULNS3CRN0004
  1

  0
LINE
  5
113
330
4B
100
AcDbEntity
  8
0
  6
Continuous
 62
    20
100
AcDbLine
 10
-191.8623268702849
 20
92.59460838338615
 30
0.0
 11
-191.8623268702849
 21
92.69460838338614
 31
0.0
  0
LINE
  5
114
330
4B
100
AcDbEntity
  8
0
  6
Continuous
 62
    20
100
AcDbLine
 10
-205.2623268702849
 20
92.69460838338617
 30
0.0
 11
-205.7623268702849
 21
92.69460838338617
 31
0.0
  0
LINE
  5
115
330
4B
100
AcDbEntity
  8
0
  6
Continuous
 62
    20
100
AcDbLine
 10
-191.8623268702849
 20
92.59460838338615
 30
0.0
 11
-191.8623268702849
 21
91.49460838338612
 31
0.0
  0
LINE
  5
116
330
4B
100
AcDbEntity
  8
0
  6
Continuous
 62
    20
100
AcDbLine
 10
-191.8623268702849
 20
92.69460838338617
 30
0.0
 11
-205.2623268702849
 21
92.69460838338617
 31
0.0
  0
LINE
  5
117
330
4B
100
AcDbEntity
  8
0
  6
Continuous
 62
    20
100
AcDbLine
 10
-205.862326870285
 20
92.59460838338615
 30
0.0
 11
-205.862326870285
 21
91.49460838338612
 31
0.0
  0
LINE
  5
118
330
4B
100
AcDbEntity
  8
0
  6
Continuous
 62
    20
100
AcDbLine
 10
-191.8623268702849
 20
91.49460838338612
 30
0.0
 11
-205.8623268702849
 21
91.49460838338612
 31
0.0
  0
ARC
  5
119
330
4B
100
AcDbEntity
  8
0
  6
Continuous
 62
    20
100
AcDbCircle
 10
-205.7623268702849
 20
92.59460838338615
 30
0.0
 40
0.1
100
AcDbArc
 50
90.00000000000026
 51
180.0000000000003
  0
ENDBLK
  5
4D
330
4B
100
AcDbEntity
  8
0
100
AcDbBlockEnd
  0
BLOCK
  5
4F
330
4E
100
AcDbEntity
  8
0
100
AcDbBlockBegin
  2
VIS-ULNS3CRN0005
 70
     0
 10
0.0
 20
0.0
 30
0.0
  3
VIS-ULNS3CRN0005
  1

  0
POINT
  5
11A
330
4E
100
AcDbEntity
  8
0
 62
     0
100
AcDbPoint
 10
-270.3123268702851
 20
193.1946083833863
 30
0.0
  0
LINE
  5
11B
330
4E
100
AcDbEntity
  8
0
  6
Continuous
 62
    20
100
AcDbLine
 10
-265.2884935080914
 20
185.1836192985949
 30
0.0
 11
-265.2521265333779
 21
185.2916365796395
 31
0.0
  0
LINE
  5
11C
330
4E
100
AcDbEntity
  8
0
  6
Continuous
 62
    20
100
AcDbLine
 10
-265.3107784074255
 20
185.0666972641628
 30
0.0
 11
-265.2884935080929
 21
185.183619298595
 31
0.0
  0
LINE
  5
11D
330
4E
100
AcDbEntity
  8
0
  6
Continuous
 62
    20
100
AcDbLine
 10
-265.1433480836335
 20
185.4644872472683
 30
0.0
 11
-265.0753706060863
 21
185.5222749421067
 31
0.0
  0
LINE
  5
11E
330
4E
100
AcDbEntity
  8
0
  6
Continuous
 62
    20
100
AcDbLine
 10
-265.2884935080931
 20
184.7055974681771
 30
0.0
 11
-265.3107784074257
 21
184.8225195026093
 31
0.0
  0
LINE
  5
11F
330
4E
100
AcDbEntity
  8
0
  6
Continuous
 62
    20
100
AcDbLine
 10
-265.2521265333792
 20
184.5975801871324
 30
0.0
 11
-265.2884935080927
 21
184.7055974681771
 31
0.0
  0
LINE
  5
120
330
4E
100
AcDbEntity
  8
0
  6
Continuous
 62
    20
100
AcDbLine
 10
-265.2030774467603
 20
184.5026692896363
 30
0.0
 11
-265.2521265333781
 21
184.5975801871324
 31
0.0
  0
LINE
  5
121
330
4E
100
AcDbEntity
  8
0
  6
Continuous
 62
    20
100
AcDbLine
 10
-265.1433480836331
 20
184.4247295195041
 30
0.0
 11
-265.2030774467603
 21
184.5026692896362
 31
0.0
  0
LINE
  5
122
330
4E
100
AcDbEntity
  8
0
  6
Continuous
 62
    20
100
AcDbLine
 10
-265.0753706060868
 20
184.366941824665
 30
0.0
 11
-265.1433480836341
 21
184.4247295195035
 31
0.0
  0
LINE
  5
123
330
4E
100
AcDbEntity
  8
0
  6
Continuous
 62
    20
100
AcDbLine
 10
-265.001789185655
 20
184.3315307691058
 30
0.0
 11
-265.0753706060861
 21
184.3669418246659
 31
0.0
  0
LINE
  5
124
330
4E
100
AcDbEntity
  8
0
  6
Continuous
 62
    20
100
AcDbLine
 10
-264.9249561634622
 20
184.3196121232629
 30
0.0
 11
-265.0017891856552
 21
184.3315307691062
 31
0.0
  0
LINE
  5
125
330
4E
100
AcDbEntity
  8
0
  6
Continuous
 62
    20
100
AcDbLine
 10
-264.9249561500552
 20
185.5696046435099
 30
0.0
 11
-258.5623268702851
 21
185.5696046435099
 31
0.0
  0
LINE
  5
126
330
4E
100
AcDbEntity
  8
0
  6
Continuous
 62
    20
100
AcDbLine
 10
-264.9249561634624
 20
184.3196121232623
 30
0.0
 11
-258.5623268702851
 21
184.3196121232623
 31
0.0
  0
LINE
  5
127
330
4E
100
AcDbEntity
  8
0
  6
Continuous
 62
    20
100
AcDbLine
 10
-265.3182790542878
 20
184.9446083833862
 30
0.0
 11
-265.3107784074249
 21
185.0666972641628
 31
0.0
  0
LINE
  5
128
330
4E
100
AcDbEntity
  8
0
  6
Continuous
 62
    20
100
AcDbLine
 10
-265.3107784074253
 20
184.8225195026096
 30
0.0
 11
-265.3182790542882
 21
184.9446083833861
 31
0.0
  0
LINE
  5
129
330
4E
100
AcDbEntity
  8
0
  6
Continuous
 62
    20
100
AcDbLine
 10
-265.0017891856553
 20
185.557685997668
 30
0.0
 11
-264.9249561634624
 21
185.5696046435114
 31
0.0
  0
LINE
  5
12A
330
4E
100
AcDbEntity
  8
0
  6
Continuous
 62
    20
100
AcDbLine
 10
-265.0753706060866
 20
185.5222749421076
 30
0.0
 11
-265.0017891856554
 21
185.5576859976677
 31
0.0
  0
LINE
  5
12B
330
4E
100
AcDbEntity
  8
0
  6
Continuous
 62
    20
100
AcDbLine
 10
-265.2030774467623
 20
185.3865474771374
 30
0.0
 11
-265.143348083635
 21
185.4644872472695
 31
0.0
  0
LINE
  5
12C
330
4E
100
AcDbEntity
  8
0
  6
Continuous
 62
    20
100
AcDbLine
 10
-265.2521265333786
 20
185.2916365796399
 30
0.0
 11
-265.2030774467607
 21
185.3865474771363
 31
0.0
  0
ARC
  5
12D
330
4E
100
AcDbEntity
  8
0
  6
Continuous
 62
     0
100
AcDbCircle
 10
-261.9025963998549
 20
179.8761692405481
 30
0.0
 40
1.401908622111065
100
AcDbArc
 50
277.0226447406405
 51
314.434794789218
  0
ARC
  5
12E
330
4E
100
AcDbEntity
  8
0
  6
Continuous
 62
     0
100
AcDbCircle
 10
-264.0222395869751
 20
179.9368368821252
 30
0.0
 40
3.430131000854582
100
AcDbArc
 50
351.9778334481795
 51
359.9999999999999
  0
ARC
  5
12F
330
4E
100
AcDbEntity
  8
0
  6
Continuous
 62
     0
100
AcDbCircle
 10
-278.7624711556883
 20
179.7184053673985
 30
0.0
 40
1.263601135851209
100
AcDbArc
 50
191.8863167124807
 51
221.8629541136208
  0
ARC
  5
130
330
4E
100
AcDbEntity
  8
0
  6
Continuous
 62
     0
100
AcDbCircle
 10
-276.6024141535947
 20
179.9368368821252
 30
0.0
 40
3.430131000854582
100
AcDbArc
 50
179.9999999999999
 51
188.0221665518202
  0
ARC
  5
131
330
4E
100
AcDbEntity
  8
0
  6
Continuous
 62
     0
100
AcDbCircle
 10
-278.7220573407149
 20
179.8761692405481
 30
0.0
 40
1.401908622111065
100
AcDbArc
 50
225.5652052107817
 51
262.9773552593592
  0
ARC
  5
132
330
4E
100
AcDbEntity
  8
0
  6
Continuous
 62
     0
100
AcDbCircle
 10
141.7495026009892
 20
184.9454367209881
 30
0.0
 40
421.8116470833774
100
AcDbArc
 50
179.3075075343319
 51
180.6796799067017
  0
ARC
  5
133
330
4E
100
AcDbEntity
  8
0
  6
Continuous
 62
     0
100
AcDbCircle
 10
-278.7624711556883
 20
190.1708113993742
 30
0.0
 40
1.263601135851209
100
AcDbArc
 50
138.1370458863789
 51
168.1136832875191
  0
ARC
  5
134
330
4E
100
AcDbEntity
  8
0
  6
Continuous
 62
     0
100
AcDbCircle
 10
-278.7220573407149
 20
190.0130475262246
 30
0.0
 40
1.401908622111065
100
AcDbArc
 50
97.02264474064054
 51
134.4347947892181
  0
ARC
  5
135
330
4E
100
AcDbEntity
  8
0
  6
Continuous
 62
     0
100
AcDbCircle
 10
-276.6024141535947
 20
189.9523798846473
 30
0.0
 40
3.430131000854582
100
AcDbArc
 50
171.9778334481796
 51
179.9999999999999
  0
ARC
  5
136
330
4E
100
AcDbEntity
  8
0
  6
Continuous
 62
     0
100
AcDbCircle
 10
-682.3741563415588
 20
184.9454367209881
 30
0.0
 40
421.8116470833774
100
AcDbArc
 50
359.3203200932981
 51
359.9149925765015
  0
ARC
  5
137
330
4E
100
AcDbEntity
  8
0
  6
Continuous
 62
     0
100
AcDbCircle
 10
-264.0222395869751
 20
189.9523798846473
 30
0.0
 40
3.430131000854582
100
AcDbArc
 50
359.9999999999999
 51
8.022166551820257
  0
ARC
  5
138
330
4E
100
AcDbEntity
  8
0
  6
Continuous
 62
     0
100
AcDbCircle
 10
-261.8621825848815
 20
190.1708113993742
 30
0.0
 40
1.263601135851209
100
AcDbArc
 50
11.8863167124808
 51
41.86295411362096
  0
ARC
  5
139
330
4E
100
AcDbEntity
  8
0
  6
Continuous
 62
     0
100
AcDbCircle
 10
-261.8621825848815
 20
179.7184053673985
 30
0.0
 40
1.263601135851209
100
AcDbArc
 50
318.1370458863789
 51
348.113683287519
  0
ARC
  5
13A
330
4E
100
AcDbEntity
  8
0
  6
Continuous
 62
     0
100
AcDbCircle
 10
-270.3123269519423
 20
1139.02051593772
 30
0.0
 40
960.5755340790107
100
AcDbArc
 50
269.4881507959519
 51
270.5118492137889
  0
ARC
  5
13B
330
4E
100
AcDbEntity
  8
0
  6
Continuous
 62
     0
100
AcDbCircle
 10
-261.9025963998549
 20
190.0130475262246
 30
0.0
 40
1.401908622111065
100
AcDbArc
 50
45.56520521078178
 51
82.9773552593593
  0
ARC
  5
13C
330
4E
100
AcDbEntity
  8
0
  6
Continuous
 62
     0
100
AcDbCircle
 10
-270.3123269519423
 20
-769.1312991709473
 30
0.0
 40
960.5755340790107
100
AcDbArc
 50
89.48815078621098
 51
90.51184920404795
  0
ARC
  5
13D
330
4E
100
AcDbEntity
  8
0
  6
Continuous
 62
     0
100
AcDbCircle
 10
-682.3741563415588
 20
184.9454367209881
 30
0.0
 40
421.8116470833774
100
AcDbArc
 50
0.084782392724483
 51
0.6924924656679
  0
ARC
  5
13E
330
4E
100
AcDbEntity
  8
0
  6
Continuous
 62
    20
100
AcDbCircle
 10
-258.5623268702851
 20
184.9446083833861
 30
0.0
 40
0.9999940161980648
100
AcDbArc
 50
359.9999999999999
 51
141.3178125465103
  0
ARC
  5
13F
330
4E
100
AcDbEntity
  8
0
  6
Continuous
 62
    20
100
AcDbCircle
 10
-258.5623268702851
 20
184.9446083833861
 30
0.0
 40
0.9999940161980648
100
AcDbArc
 50
218.6821874534893
 51
359.9999999999999
  0
ARC
  5
140
330
4E
100
AcDbEntity
  8
0
  6
Continuous
 62
    20
100
AcDbCircle
 10
-258.5623268702851
 20
184.9446083833861
 30
0.0
 40
0.6249962601237906
100
AcDbArc
 50
269.9999999999999
 51
89.99999999999994
  0
CIRCLE
  5
141
330
4E
100
AcDbEntity
  8
0
  6
Continuous
 62
     0
100
AcDbCircle
 10
-270.3123268702851
 20
184.9446083833861
 30
0.0
 40
1.25
  0
ENDBLK
  5
50
330
4E
100
AcDbEntity
  8
0
100
AcDbBlockEnd
  0
BLOCK
  5
52
330
51
100
AcDbEntity
  8
0
100
AcDbBlockBegin
  2
VIS-ULNS3CRN0006
 70
     0
 10
0.0
 20
0.0
 30
0.0
  3
VIS-ULNS3CRN0006
  1

  0
LINE
  5
142
330
51
100
AcDbEntity
  8
0
  6
Continuous
 62
   160
100
AcDbLine
 10
-373.4098508702849
 20
96.94460830587222
 30
0.0
 11
-373.4101583702848
 21
96.94460830587222
 31
0.0
  0
LINE
  5
143
330
51
100
AcDbEntity
  8
0
  6
Continuous
 62
     0
100
AcDbLine
 10
-360.6225624501449
 20
96.6814489786208
 30
0.0
 11
-362.2537116201057
 21
92.89460838363848
 31
0.0
  0
LINE
  5
144
330
51
100
AcDbEntity
  8
0
  6
Continuous
 62
     0
100
AcDbLine
 10
-362.4623153138742
 20
92.69460838338551
 30
0.0
 11
-362.2537116201061
 21
92.89460838363843
 31
0.0
  0
LINE
  5
145
330
51
100
AcDbEntity
  8
0
  6
Continuous
 62
     0
100
AcDbLine
 10
-371.9709372610615
 20
92.89459710215628
 30
0.0
 11
-362.2537164795083
 21
92.89459710215628
 31
0.0
  0
LINE
  5
146
330
51
100
AcDbEntity
  8
0
  6
Continuous
 62
     0
100
AcDbLine
 10
-371.7623384266952
 20
92.6946083833858
 30
0.0
 11
-362.4623153138746
 21
92.6946083833858
 31
0.0
  0
LINE
  5
147
330
51
100
AcDbEntity
  8
0
  6
Continuous
 62
     0
100
AcDbLine
 10
-371.7623384266952
 20
92.69460838338603
 30
0.0
 11
-371.9709421204635
 21
92.894608383639
 31
0.0
  0
LINE
  5
148
330
51
100
AcDbEntity
  8
0
  6
Continuous
 62
     0
100
AcDbLine
 10
-373.6020912904238
 20
96.68144897862085
 30
0.0
 11
-371.9709421204631
 21
92.89460838363861
 31
0.0
  0
LINE
  5
149
330
51
100
AcDbEntity
  8
0
  6
Continuous
 62
     0
100
AcDbLine
 10
-373.4123272930861
 20
96.9446083833858
 30
0.0
 11
-360.8123264474837
 21
96.9446083833858
 31
0.0
  0
LINE
  5
14A
330
51
100
AcDbEntity
  8
0
  6
Continuous
 62
    20
100
AcDbLine
 10
-367.4823246562786
 20
101.3392769240828
 30
0.0
 11
-367.4756236918012
 21
101.2782562571384
 31
0.0
  0
LINE
  5
14B
330
51
100
AcDbEntity
  8
0
  6
Continuous
 62
    20
100
AcDbLine
 10
-367.4752688179393
 20
101.401870310868
 30
0.0
 11
-367.4823246562785
 21
101.3392769240828
 31
0.0
  0
LINE
  5
14C
330
51
100
AcDbEntity
  8
0
  6
Continuous
 62
    20
100
AcDbLine
 10
-367.4543054730476
 20
101.4618147224995
 30
0.0
 11
-367.4752688179391
 21
101.4018703108679
 31
0.0
  0
LINE
  5
14D
330
51
100
AcDbEntity
  8
0
  6
Continuous
 62
    20
100
AcDbLine
 10
-367.4200951577041
 20
101.517193782484
 30
0.0
 11
-367.4543054730484
 21
101.4618147225
 31
0.0
  0
LINE
  5
14E
330
51
100
AcDbEntity
  8
0
  6
Continuous
 62
    20
100
AcDbLine
 10
-367.3739548137864
 20
101.5658533694949
 30
0.0
 11
-367.4200951577046
 21
101.5171937824849
 31
0.0
  0
LINE
  5
14F
330
51
100
AcDbEntity
  8
0
  6
Continuous
 62
    20
100
AcDbLine
 10
-367.3177675624672
 20
101.6058120794665
 30
0.0
 11
-367.3739548137851
 21
101.5658533694939
 31
0.0
  0
LINE
  5
150
330
51
100
AcDbEntity
  8
0
  6
Continuous
 62
    20
100
AcDbLine
 10
-367.7373231304087
 20
100.9093958837652
 30
0.0
 11
-367.7373231304087
 21
101.5093922743065
 31
0.0
  0
LINE
  5
151
330
51
100
AcDbEntity
  8
0
  6
Continuous
 62
    20
100
AcDbLine
 10
-366.4873306101611
 20
96.9446083833858
 30
0.0
 11
-366.4873306101611
 21
100.9093958837652
 31
0.0
  0
LINE
  5
152
330
51
100
AcDbEntity
  8
0
  6
Continuous
 62
    20
100
AcDbLine
 10
-366.613616021151
 20
101.2165912839369
 30
0.0
 11
-366.681181921639
 21
101.1577513277247
 31
0.0
  0
LINE
  5
153
330
51
100
AcDbEntity
  8
0
  6
Continuous
 62
    20
100
AcDbLine
 10
-366.6811819216388
 20
101.1577513277252
 30
0.0
 11
-366.7600243773064
 21
101.1081423243999
 31
0.0
  0
LINE
  5
154
330
51
100
AcDbEntity
  8
0
  6
Continuous
 62
    20
100
AcDbLine
 10
-366.7600243773051
 20
101.1081423243985
 30
0.0
 11
-366.8479211254047
 21
101.0691570918083
 31
0.0
  0
LINE
  5
155
330
51
100
AcDbEntity
  8
0
  6
Continuous
 62
    20
100
AcDbLine
 10
-366.8479211254046
 20
101.0691570918085
 30
0.0
 11
-366.942592281464
 21
101.0418046635512
 31
0.0
  0
LINE
  5
156
330
51
100
AcDbEntity
  8
0
  6
Continuous
 62
    20
100
AcDbLine
 10
-367.2820614591728
 20
101.0418046635652
 30
0.0
 11
-367.3767326152204
 21
101.0691570918278
 31
0.0
  0
LINE
  5
157
330
51
100
AcDbEntity
  8
0
  6
Continuous
 62
    20
100
AcDbLine
 10
-367.3767326152208
 20
101.0691570918279
 30
0.0
 11
-367.4646293633086
 21
101.1081423244211
 31
0.0
  0
LINE
  5
158
330
51
100
AcDbEntity
  8
0
  6
Continuous
 62
    20
100
AcDbLine
 10
-367.4756236918018
 20
101.2782562571382
 30
0.0
 11
-367.4557041998996
 21
101.219705684139
 31
0.0
  0
LINE
  5
159
330
51
100
AcDbEntity
  8
0
  6
Continuous
 62
    20
100
AcDbLine
 10
-367.4557041999005
 20
101.2197056841385
 30
0.0
 11
-367.4231584754118
 21
101.1653917448924
 31
0.0
  0
LINE
  5
15A
330
51
100
AcDbEntity
  8
0
  6
Continuous
 62
    20
100
AcDbLine
 10
-367.4231584754107
 20
101.1653917448926
 30
0.0
 11
-367.3791682118412
 21
101.117306645906
 31
0.0
  0
LINE
  5
15B
330
51
100
AcDbEntity
  8
0
  6
Continuous
 62
    20
100
AcDbLine
 10
-367.3337806268589
 20
101.3114181069371
 30
0.0
 11
-367.3235547709992
 21
101.344053013652
 31
0.0
  0
LINE
  5
15C
330
51
100
AcDbEntity
  8
0
  6
Continuous
 62
    20
100
AcDbLine
 10
-367.3235547709993
 20
101.3440530136519
 30
0.0
 11
-367.3069084444958
 21
101.3746765267413
 31
0.0
  0
LINE
  5
15D
330
51
100
AcDbEntity
  8
0
  6
Continuous
 62
    20
100
AcDbLine
 10
-367.3069084444948
 20
101.3746765267413
 30
0.0
 11
-367.2843126625382
 21
101.4024181282498
 31
0.0
  0
LINE
  5
15E
330
51
100
AcDbEntity
  8
0
  6
Continuous
 62
    20
100
AcDbLine
 10
-367.2843126625381
 20
101.4024181282495
 30
0.0
 11
-367.2564882491902
 21
101.4263877389255
 31
0.0
  0
LINE
  5
15F
330
51
100
AcDbEntity
  8
0
  6
Continuous
 62
    20
100
AcDbLine
 10
-367.2564882491907
 20
101.4263877389263
 30
0.0
 11
-367.224394035093
 21
101.4457797240539
 31
0.0
  0
LINE
  5
160
330
51
100
AcDbEntity
  8
0
  6
Continuous
 62
    20
100
AcDbLine
 10
-367.2243940350944
 20
101.445779724056
 30
0.0
 11
-367.1889935668404
 21
101.4600274977032
 31
0.0
  0
LINE
  5
161
330
51
100
AcDbEntity
  8
0
  6
Continuous
 62
    20
100
AcDbLine
 10
-367.1889935668393
 20
101.4600274977018
 30
0.0
 11
-367.1123268702858
 21
101.4716318479452
 31
0.0
  0
LINE
  5
162
330
51
100
AcDbEntity
  8
0
  6
Continuous
 62
    20
100
AcDbLine
 10
-367.1123268702851
 20
101.0819227481978
 30
0.0
 11
-367.1889935668385
 21
101.0935270984413
 31
0.0
  0
LINE
  5
163
330
51
100
AcDbEntity
  8
0
  6
Continuous
 62
    20
100
AcDbLine
 10
-367.188993566838
 20
101.0935270984402
 30
0.0
 11
-367.2243940350919
 21
101.1077748720874
 31
0.0
  0
LINE
  5
164
330
51
100
AcDbEntity
  8
0
  6
Continuous
 62
    20
100
AcDbLine
 10
-367.2243940350929
 20
101.1077748720877
 30
0.0
 11
-367.2564882491906
 21
101.1271668572153
 31
0.0
  0
LINE
  5
165
330
51
100
AcDbEntity
  8
0
  6
Continuous
 62
    20
100
AcDbLine
 10
-367.256488249191
 20
101.127166857215
 30
0.0
 11
-367.2843126625387
 21
101.1511364678908
 31
0.0
  0
LINE
  5
166
330
51
100
AcDbEntity
  8
0
  6
Continuous
 62
    20
100
AcDbLine
 10
-366.5195975444534
 20
101.3549289209628
 30
0.0
 11
-366.5593194236031
 21
101.2828701728654
 31
0.0
  0
LINE
  5
167
330
51
100
AcDbEntity
  8
0
  6
Continuous
 62
    20
100
AcDbLine
 10
-367.2538213320886
 20
101.6354390816256
 30
0.0
 11
-367.3177675624668
 21
101.6058120794661
 31
0.0
  0
LINE
  5
168
330
51
100
AcDbEntity
  8
0
  6
Continuous
 62
    20
100
AcDbLine
 10
-367.1846034877052
 20
101.6535938708512
 30
0.0
 11
-367.253821332089
 21
101.6354390816268
 31
0.0
  0
LINE
  5
169
330
51
100
AcDbEntity
  8
0
  6
Continuous
 62
    20
100
AcDbLine
 10
-367.1123268702844
 20
101.659704406097
 30
0.0
 11
-367.1846034877044
 21
101.6535938708501
 31
0.0
  0
LINE
  5
16A
330
51
100
AcDbEntity
  8
0
  6
Continuous
 62
    20
100
AcDbLine
 10
-367.4823246562782
 20
101.3392769168502
 30
0.0
 11
-367.4823246562782
 21
101.5677919843391
 31
0.0
  0
LINE
  5
16B
330
51
100
AcDbEntity
  8
0
  6
Continuous
 62
    20
100
AcDbLine
 10
-366.7423290842916
 20
101.3392769192611
 30
0.0
 11
-366.7423290842916
 21
101.5677919843391
 31
0.0
  0
LINE
  5
16C
330
51
100
AcDbEntity
  8
0
  6
Continuous
 62
    20
100
AcDbLine
 10
-366.4954361047569
 20
101.4309635891786
 30
0.0
 11
-366.5195975444547
 21
101.354928920963
 31
0.0
  0
LINE
  5
16D
330
51
100
AcDbEntity
  8
0
  6
Continuous
 62
    20
100
AcDbLine
 10
-366.487330610161
 20
101.5093922934841
 30
0.0
 11
-366.4954361047554
 21
101.4309635891781
 31
0.0
  0
LINE
  5
16E
330
51
100
AcDbEntity
  8
0
  6
Continuous
 62
    20
100
AcDbLine
 10
-366.4873306101611
 20
101.509392293484
 30
0.0
 11
-366.4873306101611
 21
104.1945395696632
 31
0.0
  0
LINE
  5
16F
330
51
100
AcDbEntity
  8
0
  6
Continuous
 62
    20
100
AcDbLine
 10
-366.4873306101611
 20
100.9093958837652
 30
0.0
 11
-366.4873306101611
 21
101.509392293484
 31
0.0
  0
LINE
  5
170
330
51
100
AcDbEntity
  8
0
  6
Continuous
 62
    20
100
AcDbLine
 10
-366.9605558773525
 20
101.6707875346067
 30
0.0
 11
-366.892427300114
 21
101.6379926233896
 31
0.0
  0
LINE
  5
171
330
51
100
AcDbEntity
  8
0
  6
Continuous
 62
    20
100
AcDbLine
 10
-367.0347049851959
 20
101.6909155838093
 30
0.0
 11
-366.9605558773524
 21
101.6707875346073
 31
0.0
  0
LINE
  5
172
330
51
100
AcDbEntity
  8
0
  6
Continuous
 62
    20
100
AcDbLine
 10
-366.5593194236055
 20
101.2828701728666
 30
0.0
 11
-366.6136160211519
 21
101.2165912839368
 31
0.0
  0
LINE
  5
173
330
51
100
AcDbEntity
  8
0
  6
Continuous
 62
    20
100
AcDbLine
 10
-367.7373231304087
 20
101.5093922743065
 30
0.0
 11
-367.7373231304087
 21
104.1945395696632
 31
0.0
  0
LINE
  5
174
330
51
100
AcDbEntity
  8
0
  6
Continuous
 62
    20
100
AcDbLine
 10
-367.7292176358151
 20
101.4309635891849
 30
0.0
 11
-367.7373231304081
 21
101.5093922934842
 31
0.0
  0
LINE
  5
175
330
51
100
AcDbEntity
  8
0
  6
Continuous
 62
    20
100
AcDbLine
 10
-367.7050561961228
 20
101.3549289209751
 30
0.0
 11
-367.7292176358165
 21
101.4309635891846
 31
0.0
  0
LINE
  5
176
330
51
100
AcDbEntity
  8
0
  6
Continuous
 62
    20
100
AcDbLine
 10
-367.6653343169798
 20
101.282870172883
 30
0.0
 11
-367.7050561961228
 21
101.3549289209753
 31
0.0
  0
LINE
  5
177
330
51
100
AcDbEntity
  8
0
  6
Continuous
 62
    20
100
AcDbLine
 10
-367.6110377194411
 20
101.2165912839575
 30
0.0
 11
-367.6653343169786
 21
101.2828701728835
 31
0.0
  0
LINE
  5
178
330
51
100
AcDbEntity
  8
0
  6
Continuous
 62
    20
100
AcDbLine
 10
-367.5434718189652
 20
101.1577513277461
 30
0.0
 11
-367.6110377194426
 21
101.2165912839564
 31
0.0
  0
LINE
  5
179
330
51
100
AcDbEntity
  8
0
  6
Continuous
 62
    20
100
AcDbLine
 10
-367.464629363308
 20
101.1081423244206
 30
0.0
 11
-367.5434718189643
 21
101.1577513277464
 31
0.0
  0
LINE
  5
17A
330
51
100
AcDbEntity
  8
0
  6
Continuous
 62
    20
100
AcDbLine
 10
-367.284312662538
 20
101.1511364678919
 30
0.0
 11
-367.3069084444946
 21
101.1788780694004
 31
0.0
  0
LINE
  5
17B
330
51
100
AcDbEntity
  8
0
  6
Continuous
 62
    20
100
AcDbLine
 10
-367.3069084444952
 20
101.1788780693999
 30
0.0
 11
-367.3235547709985
 21
101.209501582489
 31
0.0
  0
LINE
  5
17C
330
51
100
AcDbEntity
  8
0
  6
Continuous
 62
    20
100
AcDbLine
 10
-367.3235547709984
 20
101.2095015824891
 30
0.0
 11
-367.3337806268581
 21
101.242136489204
 31
0.0
  0
LINE
  5
17D
330
51
100
AcDbEntity
  8
0
  6
Continuous
 62
    20
100
AcDbLine
 10
-367.3791682145009
 20
101.1173066483033
 30
0.0
 11
-367.3431085733907
 21
101.0848030055043
 31
0.0
  0
LINE
  5
17E
330
51
100
AcDbEntity
  8
0
  6
Continuous
 62
    20
100
AcDbLine
 10
-367.1123268702845
 20
101.6597044060971
 30
0.0
 11
-367.0400502528651
 21
101.6535938708503
 31
0.0
  0
LINE
  5
17F
330
51
100
AcDbEntity
  8
0
  6
Continuous
 62
    20
100
AcDbLine
 10
-367.0400502528653
 20
101.6535938708503
 30
0.0
 11
-366.9708324084815
 21
101.6354390816259
 31
0.0
  0
LINE
  5
180
330
51
100
AcDbEntity
  8
0
  6
Continuous
 62
    20
100
AcDbLine
 10
-366.9708324084811
 20
101.6354390816258
 30
0.0
 11
-366.9068861781027
 21
101.6058120794662
 31
0.0
  0
LINE
  5
181
330
51
100
AcDbEntity
  8
0
  6
Continuous
 62
    20
100
AcDbLine
 10
-366.9068861781034
 20
101.605812079466
 30
0.0
 11
-366.8506989267858
 21
101.5658533694936
 31
0.0
  0
LINE
  5
182
330
51
100
AcDbEntity
  8
0
  6
Continuous
 62
    20
100
AcDbLine
 10
-366.850698926786
 20
101.5658533694935
 30
0.0
 11
-366.8045585828676
 21
101.5171937824832
 31
0.0
  0
LINE
  5
183
330
51
100
AcDbEntity
  8
0
  6
Continuous
 62
    20
100
AcDbLine
 10
-366.8045585828676
 20
101.5171937824832
 30
0.0
 11
-366.7703482675232
 21
101.4618147224992
 31
0.0
  0
LINE
  5
184
330
51
100
AcDbEntity
  8
0
  6
Continuous
 62
    20
100
AcDbLine
 10
-366.7703482675227
 20
101.4618147224996
 30
0.0
 11
-366.7493849226311
 21
101.401870310868
 31
0.0
  0
LINE
  5
185
330
51
100
AcDbEntity
  8
0
  6
Continuous
 62
    20
100
AcDbLine
 10
-366.7493849226317
 20
101.4018703108679
 30
0.0
 11
-366.7423290842925
 21
101.3392769240828
 31
0.0
  0
LINE
  5
186
330
51
100
AcDbEntity
  8
0
  6
Continuous
 62
    20
100
AcDbLine
 10
-366.7423290842927
 20
101.3392769240829
 30
0.0
 11
-366.7490300487701
 21
101.2782562571385
 31
0.0
  0
LINE
  5
187
330
51
100
AcDbEntity
  8
0
  6
Continuous
 62
    20
100
AcDbLine
 10
-366.7490300487701
 20
101.2782562571388
 30
0.0
 11
-366.7689495406723
 21
101.2197056841395
 31
0.0
  0
LINE
  5
188
330
51
100
AcDbEntity
  8
0
  6
Continuous
 62
    20
100
AcDbLine
 10
-366.7689495406735
 20
101.2197056841405
 30
0.0
 11
-366.8014952651621
 21
101.1653917448946
 31
0.0
  0
LINE
  5
189
330
51
100
AcDbEntity
  8
0
  6
Continuous
 62
    20
100
AcDbLine
 10
-366.8014952651617
 20
101.1653917448944
 30
0.0
 11
-366.8454855287312
 21
101.1173066459077
 31
0.0
  0
LINE
  5
18A
330
51
100
AcDbEntity
  8
0
  6
Continuous
 62
    20
100
AcDbLine
 10
-366.8454855260714
 20
101.1173066483049
 30
0.0
 11
-366.8815451671818
 21
101.0848030055057
 31
0.0
  0
LINE
  5
18B
330
51
100
AcDbEntity
  8
0
  6
Continuous
 62
    20
100
AcDbLine
 10
-367.3337806268581
 20
101.3114181069368
 30
0.0
 11
-367.4298492200851
 21
101.3114181069368
 31
0.0
  0
LINE
  5
18C
330
51
100
AcDbEntity
  8
0
  6
Continuous
 62
    20
100
AcDbLine
 10
-367.3337806268581
 20
101.2421364892041
 30
0.0
 11
-367.4298492200851
 21
101.2421364892041
 31
0.0
  0
LINE
  5
18D
330
51
100
AcDbEntity
  8
0
  6
Continuous
 62
    20
100
AcDbLine
 10
-367.3337806268581
 20
101.2869520616619
 30
0.0
 11
-367.4321132775729
 21
101.2869520616619
 31
0.0
  0
LINE
  5
18E
330
51
100
AcDbEntity
  8
0
  6
Continuous
 62
    20
100
AcDbLine
 10
-367.3337806268581
 20
101.3114181069369
 30
0.0
 11
-367.3337806268581
 21
101.2421364892041
 31
0.0
  0
LINE
  5
18F
330
51
100
AcDbEntity
  8
0
  6
Continuous
 62
    20
100
AcDbLine
 10
-366.8908731137117
 20
101.3114181069369
 30
0.0
 11
-366.8908731137117
 21
101.2421364892041
 31
0.0
  0
LINE
  5
190
330
51
100
AcDbEntity
  8
0
  6
Continuous
 62
    20
100
AcDbLine
 10
-366.8908731137117
 20
101.3114181069368
 30
0.0
 11
-366.7948045204847
 21
101.3114181069368
 31
0.0
  0
LINE
  5
191
330
51
100
AcDbEntity
  8
0
  6
Continuous
 62
    20
100
AcDbLine
 10
-366.8908731137126
 20
101.3114181069368
 30
0.0
 11
-366.9010989695722
 21
101.3440530136516
 31
0.0
  0
LINE
  5
192
330
51
100
AcDbEntity
  8
0
  6
Continuous
 62
    20
100
AcDbLine
 10
-366.9010989695723
 20
101.3440530136513
 30
0.0
 11
-366.9177452960757
 21
101.3746765267407
 31
0.0
  0
LINE
  5
193
330
51
100
AcDbEntity
  8
0
  6
Continuous
 62
    20
100
AcDbLine
 10
-366.9177452960749
 20
101.3746765267413
 30
0.0
 11
-366.9403410780317
 21
101.4024181282499
 31
0.0
  0
LINE
  5
194
330
51
100
AcDbEntity
  8
0
  6
Continuous
 62
    20
100
AcDbLine
 10
-366.9403410780318
 20
101.4024181282498
 30
0.0
 11
-366.9681654913795
 21
101.4263877389257
 31
0.0
  0
LINE
  5
195
330
51
100
AcDbEntity
  8
0
  6
Continuous
 62
    20
100
AcDbLine
 10
-366.9681654913796
 20
101.4263877389256
 30
0.0
 11
-367.0002597054772
 21
101.445779724053
 31
0.0
  0
LINE
  5
196
330
51
100
AcDbEntity
  8
0
  6
Continuous
 62
    20
100
AcDbLine
 10
-367.0002597054776
 20
101.4457797240538
 30
0.0
 11
-367.0356601737319
 21
101.4600274977011
 31
0.0
  0
LINE
  5
197
330
51
100
AcDbEntity
  8
0
  6
Continuous
 62
    20
100
AcDbLine
 10
-367.0356601737316
 20
101.4600274977012
 30
0.0
 11
-367.1123268702852
 21
101.4716318479447
 31
0.0
  0
LINE
  5
198
330
51
100
AcDbEntity
  8
0
  6
Continuous
 62
    20
100
AcDbLine
 10
-367.1123268702856
 20
101.0819227481984
 30
0.0
 11
-367.0356601737318
 21
101.0935270984419
 31
0.0
  0
LINE
  5
199
330
51
100
AcDbEntity
  8
0
  6
Continuous
 62
    20
100
AcDbLine
 10
-367.0356601737311
 20
101.0935270984403
 30
0.0
 11
-367.0002597054769
 21
101.1077748720876
 31
0.0
  0
LINE
  5
19A
330
51
100
AcDbEntity
  8
0
  6
Continuous
 62
    20
100
AcDbLine
 10
-367.0002597054781
 20
101.1077748720892
 30
0.0
 11
-366.9681654913804
 21
101.1271668572167
 31
0.0
  0
LINE
  5
19B
330
51
100
AcDbEntity
  8
0
  6
Continuous
 62
    20
100
AcDbLine
 10
-366.9681654913811
 20
101.127166857217
 30
0.0
 11
-366.9403410780332
 21
101.1511364678931
 31
0.0
  0
LINE
  5
19C
330
51
100
AcDbEntity
  8
0
  6
Continuous
 62
    20
100
AcDbLine
 10
-366.9403410780312
 20
101.151136467891
 30
0.0
 11
-366.9177452960745
 21
101.1788780693996
 31
0.0
  0
LINE
  5
19D
330
51
100
AcDbEntity
  8
0
  6
Continuous
 62
    20
100
AcDbLine
 10
-366.9177452960756
 20
101.1788780693999
 30
0.0
 11
-366.901098969572
 21
101.2095015824894
 31
0.0
  0
LINE
  5
19E
330
51
100
AcDbEntity
  8
0
  6
Continuous
 62
    20
100
AcDbLine
 10
-366.901098969572
 20
101.2095015824896
 30
0.0
 11
-366.8908731137124
 21
101.2421364892044
 31
0.0
  0
LINE
  5
19F
330
51
100
AcDbEntity
  8
0
  6
Continuous
 62
    20
100
AcDbLine
 10
-366.8908731137117
 20
101.2421364892041
 30
0.0
 11
-366.7948045204847
 21
101.2421364892041
 31
0.0
  0
LINE
  5
1A0
330
51
100
AcDbEntity
  8
0
  6
Continuous
 62
    20
100
AcDbLine
 10
-366.8908731137117
 20
101.2869520616619
 30
0.0
 11
-366.7925404629969
 21
101.2869520616619
 31
0.0
  0
LINE
  5
1A1
330
51
100
AcDbEntity
  8
0
  6
Continuous
 62
    20
100
AcDbLine
 10
-367.1123268702849
 20
101.1944220750195
 30
0.0
 11
-367.1829297563022
 21
101.204208278128
 31
0.0
  0
LINE
  5
1A2
330
51
100
AcDbEntity
  8
0
  6
Continuous
 62
    20
100
AcDbLine
 10
-367.1829297563026
 20
101.2042082781278
 30
0.0
 11
-367.2463518336141
 21
101.2327485270909
 31
0.0
  0
LINE
  5
1A3
330
51
100
AcDbEntity
  8
0
  6
Continuous
 62
    20
100
AcDbLine
 10
-367.2463518336139
 20
101.2327485270908
 30
0.0
 11
-367.2964793800672
 21
101.2772918918857
 31
0.0
  0
LINE
  5
1A4
330
51
100
AcDbEntity
  8
0
  6
Continuous
 62
    20
100
AcDbLine
 10
-367.2964793800677
 20
101.2772918918859
 30
0.0
 11
-367.3278086536483
 21
101.3330269614815
 31
0.0
  0
LINE
  5
1A5
330
51
100
AcDbEntity
  8
0
  6
Continuous
 62
    20
100
AcDbLine
 10
-367.1123268702848
 20
101.1944220750196
 30
0.0
 11
-367.0417239842675
 21
101.2042082781281
 31
0.0
  0
LINE
  5
1A6
330
51
100
AcDbEntity
  8
0
  6
Continuous
 62
    20
100
AcDbLine
 10
-367.0417239842677
 20
101.2042082781287
 30
0.0
 11
-366.9783019069562
 21
101.2327485270919
 31
0.0
  0
LINE
  5
1A7
330
51
100
AcDbEntity
  8
0
  6
Continuous
 62
    20
100
AcDbLine
 10
-366.9783019069561
 20
101.2327485270916
 30
0.0
 11
-366.928174360503
 21
101.2772918918864
 31
0.0
  0
LINE
  5
1A8
330
51
100
AcDbEntity
  8
0
  6
Continuous
 62
    20
100
AcDbLine
 10
-366.9281743605039
 20
101.2772918918865
 30
0.0
 11
-366.8968450869232
 21
101.3330269614823
 31
0.0
  0
LINE
  5
1A9
330
51
100
AcDbEntity
  8
0
  6
Continuous
 62
    20
100
AcDbLine
 10
-367.3914843657634
 20
101.5938882046726
 30
0.0
 11
-367.3322264404575
 21
101.6379926233912
 31
0.0
  0
LINE
  5
1AA
330
51
100
AcDbEntity
  8
0
  6
Continuous
 62
    20
100
AcDbLine
 10
-367.3322264404556
 20
101.6379926233897
 30
0.0
 11
-367.2640978632172
 21
101.6707875346069
 31
0.0
  0
LINE
  5
1AB
330
51
100
AcDbEntity
  8
0
  6
Continuous
 62
    20
100
AcDbLine
 10
-367.2640978632179
 20
101.670787534608
 30
0.0
 11
-367.1899487553741
 21
101.6909155838101
 31
0.0
  0
LINE
  5
1AC
330
51
100
AcDbEntity
  8
0
  6
Continuous
 62
    20
100
AcDbLine
 10
-367.189948755374
 20
101.6909155838095
 30
0.0
 11
-367.1123268702852
 21
101.6976950175889
 31
0.0
  0
LINE
  5
1AD
330
51
100
AcDbEntity
  8
0
  6
Continuous
 62
    20
100
AcDbLine
 10
-367.1123268702849
 20
101.6976950175888
 30
0.0
 11
-367.0347049851964
 21
101.6909155838094
 31
0.0
  0
LINE
  5
1AE
330
51
100
AcDbEntity
  8
0
  6
Continuous
 62
     6
100
AcDbLine
 10
-366.537330310971
 20
101.509392293484
 30
0.0
 11
-366.4873306101611
 21
101.509392293484
 31
0.0
  0
LINE
  5
1AF
330
51
100
AcDbEntity
  8
0
  6
Continuous
 62
     6
100
AcDbLine
 10
-367.7373231304093
 20
101.5093922743072
 30
0.0
 11
-367.6873234295994
 21
101.5093922934848
 31
0.0
  0
LINE
  5
1B0
330
51
100
AcDbEntity
  8
0
  6
Continuous
 62
    20
100
AcDbLine
 10
-367.7373231304087
 20
96.9446083833858
 30
0.0
 11
-367.7373231304087
 21
102.0548563546399
 31
0.0
  0
LINE
  5
1B1
330
51
100
AcDbEntity
  8
0
  6
Continuous
 62
    20
100
AcDbLine
 10
-366.8924273001149
 20
101.6379926233896
 30
0.0
 11
-366.8331693748088
 21
101.5938882046709
 31
0.0
  0
LINE
  5
1B2
330
51
100
AcDbEntity
  8
0
  6
Continuous
 62
    20
100
AcDbLine
 10
-367.6602035342426
 20
101.6296519559556
 30
0.0
 11
-367.659230441599
 21
101.6335571589121
 31
0.0
  0
LINE
  5
1B3
330
51
100
AcDbEntity
  8
0
  6
Continuous
 62
    20
100
AcDbLine
 10
-367.6592304416011
 20
101.6335571589123
 30
0.0
 11
-367.6582212248775
 21
101.6374506284067
 31
0.0
  0
LINE
  5
1B4
330
51
100
AcDbEntity
  8
0
  6
Continuous
 62
    20
100
AcDbLine
 10
-367.6582212248772
 20
101.6374506284066
 30
0.0
 11
-367.6571760437507
 21
101.6413322261541
 31
0.0
  0
LINE
  5
1B5
330
51
100
AcDbEntity
  8
0
  6
Continuous
 62
    20
100
AcDbLine
 10
-367.6571760437491
 20
101.6413322261537
 30
0.0
 11
-367.6560950578967
 21
101.6452018138703
 31
0.0
  0
LINE
  5
1B6
330
51
100
AcDbEntity
  8
0
  6
Continuous
 62
    20
100
AcDbLine
 10
-367.6560950578962
 20
101.6452018138705
 30
0.0
 11
-367.6549784269951
 21
101.6490592532715
 31
0.0
  0
LINE
  5
1B7
330
51
100
AcDbEntity
  8
0
  6
Continuous
 62
    20
100
AcDbLine
 10
-367.6549784269965
 20
101.6490592532716
 30
0.0
 11
-367.6538263107238
 21
101.6529044060726
 31
0.0
  0
LINE
  5
1B8
330
51
100
AcDbEntity
  8
0
  6
Continuous
 62
    20
100
AcDbLine
 10
-367.6538263107236
 20
101.6529044060725
 30
0.0
 11
-367.6526388687562
 21
101.6567371339893
 31
0.0
  0
LINE
  5
1B9
330
51
100
AcDbEntity
  8
0
  6
Continuous
 62
    20
100
AcDbLine
 10
-367.6526388687565
 20
101.6567371339897
 30
0.0
 11
-367.6514162607717
 21
101.6605572987377
 31
0.0
  0
LINE
  5
1BA
330
51
100
AcDbEntity
  8
0
  6
Continuous
 62
    20
100
AcDbLine
 10
-367.651416260773
 20
101.6605572987382
 30
0.0
 11
-367.6501586464478
 21
101.6643647620329
 31
0.0
  0
LINE
  5
1BB
330
51
100
AcDbEntity
  8
0
  6
Continuous
 62
    20
100
AcDbLine
 10
-367.6501586464454
 20
101.6643647620323
 30
0.0
 11
-367.6488661854568
 21
101.6681593855897
 31
0.0
  0
LINE
  5
1BC
330
51
100
AcDbEntity
  8
0
  6
Continuous
 62
    20
100
AcDbLine
 10
-367.6488661854581
 20
101.6681593855901
 30
0.0
 11
-367.6475390374831
 21
101.6719410311256
 31
0.0
  0
LINE
  5
1BD
330
51
100
AcDbEntity
  8
0
  6
Continuous
 62
    20
100
AcDbLine
 10
-367.6475390374811
 20
101.6719410311249
 30
0.0
 11
-367.6461773621969
 21
101.6757095603541
 31
0.0
  0
LINE
  5
1BE
330
51
100
AcDbEntity
  8
0
  6
Continuous
 62
    20
100
AcDbLine
 10
-366.5784763783738
 20
101.6757095603538
 30
0.0
 11
-366.5771147030896
 21
101.6719410311246
 31
0.0
  0
LINE
  5
1BF
330
51
100
AcDbEntity
  8
0
  6
Continuous
 62
    20
100
AcDbLine
 10
-366.5771147030899
 20
101.6719410311244
 30
0.0
 11
-366.5757875551149
 21
101.6681593855889
 31
0.0
  0
LINE
  5
1C0
330
51
100
AcDbEntity
  8
0
  6
Continuous
 62
    20
100
AcDbLine
 10
-366.5757875551133
 20
101.6681593855895
 30
0.0
 11
-366.5744950941245
 21
101.664364762032
 31
0.0
  0
LINE
  5
1C1
330
51
100
AcDbEntity
  8
0
  6
Continuous
 62
    20
100
AcDbLine
 10
-366.5744950941252
 20
101.6643647620317
 30
0.0
 11
-366.5732374797999
 21
101.6605572987368
 31
0.0
  0
LINE
  5
1C2
330
51
100
AcDbEntity
  8
0
  6
Continuous
 62
    20
100
AcDbLine
 10
-366.5732374798009
 20
101.6605572987368
 30
0.0
 11
-366.572014871816
 21
101.6567371339886
 31
0.0
  0
LINE
  5
1C3
330
51
100
AcDbEntity
  8
0
  6
Continuous
 62
    20
100
AcDbLine
 10
-366.5720148718148
 20
101.6567371339889
 30
0.0
 11
-366.5708274298474
 21
101.6529044060721
 31
0.0
  0
LINE
  5
1C4
330
51
100
AcDbEntity
  8
0
  6
Continuous
 62
    20
100
AcDbLine
 10
-366.570827429848
 20
101.6529044060723
 30
0.0
 11
-366.5696753135752
 21
101.6490592532712
 31
0.0
  0
LINE
  5
1C5
330
51
100
AcDbEntity
  8
0
  6
Continuous
 62
    20
100
AcDbLine
 10
-366.5696753135751
 20
101.6490592532712
 30
0.0
 11
-366.5685586826739
 21
101.6452018138701
 31
0.0
  0
LINE
  5
1C6
330
51
100
AcDbEntity
  8
0
  6
Continuous
 62
    20
100
AcDbLine
 10
-366.568558682675
 20
101.6452018138699
 30
0.0
 11
-366.5674776968227
 21
101.6413322261534
 31
0.0
  0
LINE
  5
1C7
330
51
100
AcDbEntity
  8
0
  6
Continuous
 62
    20
100
AcDbLine
 10
-366.5674776968228
 20
101.6413322261535
 30
0.0
 11
-366.5664325156962
 21
101.6374506284059
 31
0.0
  0
LINE
  5
1C8
330
51
100
AcDbEntity
  8
0
  6
Continuous
 62
    20
100
AcDbLine
 10
-366.5664325156961
 20
101.6374506284058
 30
0.0
 11
-366.5654232989725
 21
101.6335571589115
 31
0.0
  0
LINE
  5
1C9
330
51
100
AcDbEntity
  8
0
  6
Continuous
 62
    20
100
AcDbLine
 10
-366.5654232989731
 20
101.6335571589113
 30
0.0
 11
-366.5644502063295
 21
101.6296519559547
 31
0.0
  0
LINE
  5
1CA
330
51
100
AcDbEntity
  8
0
  6
Continuous
 62
    20
100
AcDbLine
 10
-366.6130228741304
 20
101.5677919843391
 30
0.0
 11
-366.7658032103053
 21
101.5677919843391
 31
0.0
  0
LINE
  5
1CB
330
51
100
AcDbEntity
  8
0
  6
Continuous
 62
    20
100
AcDbLine
 10
-367.4588505302646
 20
101.5677919843391
 30
0.0
 11
-367.6116308664394
 21
101.5677919843391
 31
0.0
  0
LINE
  5
1CC
330
51
100
AcDbEntity
  8
0
  6
Continuous
 62
    20
100
AcDbLine
 10
-367.6616305672493
 20
101.6418786328626
 30
0.0
 11
-367.6616305672493
 21
101.617791685149
 31
0.0
  0
LINE
  5
1CD
330
51
100
AcDbEntity
  8
0
  6
Continuous
 62
    20
100
AcDbLine
 10
-366.5630231733205
 20
101.6418786328626
 30
0.0
 11
-366.5630231733205
 21
101.617791685149
 31
0.0
  0
LINE
  5
1CE
330
51
100
AcDbEntity
  8
0
  6
Continuous
 62
    20
100
AcDbLine
 10
-366.8990625876809
 20
101.3390484162819
 30
0.0
 11
-367.0106714052813
 21
101.4506572338822
 31
0.0
  0
LINE
  5
1CF
330
51
100
AcDbEntity
  8
0
  6
Continuous
 62
    20
100
AcDbLine
 10
-366.9195152356737
 20
101.2887908092765
 30
0.0
 11
-367.1021609284018
 21
101.4714365020047
 31
0.0
  0
LINE
  5
1D0
330
51
100
AcDbEntity
  8
0
  6
Continuous
 62
    20
100
AcDbLine
 10
-366.9530678536308
 20
101.251633172234
 30
0.0
 11
-367.1672251008573
 21
101.4657904194605
 31
0.0
  0
LINE
  5
1D1
330
51
100
AcDbEntity
  8
0
  6
Continuous
 62
    20
100
AcDbLine
 10
-366.9950808815834
 20
101.222935945185
 30
0.0
 11
-367.220039539582
 21
101.4478946031836
 31
0.0
  0
LINE
  5
1D2
330
51
100
AcDbEntity
  8
0
  6
Continuous
 62
    20
100
AcDbLine
 10
-367.0459067347853
 20
101.2030515433871
 30
0.0
 11
-367.2637543423809
 21
101.4208991509826
 31
0.0
  0
LINE
  5
1D3
330
51
100
AcDbEntity
  8
0
  6
Continuous
 62
    20
100
AcDbLine
 10
-367.1080224656037
 20
101.1944570192054
 30
0.0
 11
-367.2990693973725
 21
101.3855039509743
 31
0.0
  0
LINE
  5
1D4
330
51
100
AcDbEntity
  8
0
  6
Continuous
 62
    20
100
AcDbLine
 10
-367.1909132261506
 20
101.2066375247537
 30
0.0
 11
-367.3249493549851
 21
101.3406736535882
 31
0.0
  0
LINE
  5
1D5
330
51
100
AcDbEntity
  8
0
  6
Continuous
 62
    20
100
AcDbLine
 10
-367.3255911528914
 20
101.3390484162836
 30
0.0
 11
-367.213982335291
 21
101.450657233884
 31
0.0
  0
LINE
  5
1D6
330
51
100
AcDbEntity
  8
0
  6
Continuous
 62
    20
100
AcDbLine
 10
-367.3051385048956
 20
101.2887908092765
 30
0.0
 11
-367.1224928121675
 21
101.4714365020046
 31
0.0
  0
LINE
  5
1D7
330
51
100
AcDbEntity
  8
0
  6
Continuous
 62
    20
100
AcDbLine
 10
-367.271585886939
 20
101.2516331722327
 30
0.0
 11
-367.0574286397123
 21
101.4657904194594
 31
0.0
  0
LINE
  5
1D8
330
51
100
AcDbEntity
  8
0
  6
Continuous
 62
    20
100
AcDbLine
 10
-367.2295728589884
 20
101.2229359451862
 30
0.0
 11
-367.0046142009899
 21
101.4478946031847
 31
0.0
  0
LINE
  5
1D9
330
51
100
AcDbEntity
  8
0
  6
Continuous
 62
    20
100
AcDbLine
 10
-367.1787470057861
 20
101.2030515433891
 30
0.0
 11
-366.9608993981907
 21
101.4208991509844
 31
0.0
  0
LINE
  5
1DA
330
51
100
AcDbEntity
  8
0
  6
Continuous
 62
    20
100
AcDbLine
 10
-367.1166312749681
 20
101.1944570192069
 30
0.0
 11
-366.925584343199
 21
101.385503950976
 31
0.0
  0
LINE
  5
1DB
330
51
100
AcDbEntity
  8
0
  6
Continuous
 62
    20
100
AcDbLine
 10
-367.0337405144206
 20
101.2066375247546
 30
0.0
 11
-366.8997043855861
 21
101.3406736535891
 31
0.0
  0
ARC
  5
1DC
330
51
100
AcDbEntity
  8
0
  6
Continuous
 62
     0
100
AcDbCircle
 10
-360.8123264474837
 20
96.74460911488806
 30
0.0
 40
0.1999989437446915
100
AcDbArc
 50
341.5907423313286
 51
89.9999999999998
  0
ARC
  5
1DD
330
51
100
AcDbEntity
  8
0
  6
Continuous
 62
     0
100
AcDbCircle
 10
-373.4123272930861
 20
96.74460911488806
 30
0.0
 40
0.1999989437446915
100
AcDbArc
 50
89.9999999999999
 51
198.4092576686711
  0
ARC
  5
1DE
330
51
100
AcDbEntity
  8
0
  6
Continuous
 62
    20
100
AcDbCircle
 10
-367.1123268702849
 20
104.1945395696632
 30
0.0
 40
0.6249962601237906
100
AcDbArc
 50
359.9999999999999
 51
179.9999999999999
  0
ARC
  5
1DF
330
51
100
AcDbEntity
  8
0
  6
Continuous
 62
    20
100
AcDbCircle
 10
-366.979659820728
 20
101.5556719957328
 30
0.0
 40
0.4539766411409094
100
AcDbArc
 50
309.2394076446942
 51
330.9001579157812
  0
ARC
  5
1E0
330
51
100
AcDbEntity
  8
0
  6
Continuous
 62
    20
100
AcDbCircle
 10
-366.9031935427807
 20
101.5121710374425
 30
0.0
 40
0.3660074014951686
100
AcDbArc
 50
331.0288228184561
 51
356.0565502321961
  0
ARC
  5
1E1
330
51
100
AcDbEntity
  8
0
  6
Continuous
 62
    20
100
AcDbCircle
 10
-366.8946827916711
 20
101.5089541878781
 30
0.0
 40
0.3573052063976661
100
AcDbArc
 50
356.4773155863761
 51
21.84020886869912
  0
ARC
  5
1E2
330
51
100
AcDbEntity
  8
0
  6
Continuous
 62
    20
100
AcDbCircle
 10
-367.0843909925154
 20
101.3090348711711
 30
0.0
 40
0.3023572258026048
100
AcDbArc
 50
301.9842165365828
 51
319.8025727616833
  0
ARC
  5
1E3
330
51
100
AcDbEntity
  8
0
  6
Continuous
 62
    20
100
AcDbCircle
 10
-367.1402627480543
 20
101.2445197249697
 30
0.0
 40
0.3023572258027278
100
AcDbArc
 50
121.9842165365849
 51
139.8025727616777
  0
ARC
  5
1E4
330
51
100
AcDbEntity
  8
0
  6
Continuous
 62
    20
100
AcDbCircle
 10
-367.1684768242906
 20
101.2683918111903
 30
0.0
 40
0.2653990069841277
100
AcDbArc
 50
139.8077695089251
 51
159.2514344838841
  0
ARC
  5
1E5
330
51
100
AcDbEntity
  8
0
  6
Continuous
 62
    20
100
AcDbCircle
 10
-367.188921439577
 20
101.2765126201281
 30
0.0
 40
0.2434036597971947
100
AcDbArc
 50
159.3341192921562
 51
179.9376963681269
  0
ARC
  5
1E6
330
51
100
AcDbEntity
  8
0
  6
Continuous
 62
    20
100
AcDbCircle
 10
-366.7658032103053
 20
101.6677913859589
 30
0.0
 40
0.0999994016198065
100
AcDbArc
 50
227.6493821807346
 51
269.9999999999999
  0
ARC
  5
1E7
330
51
100
AcDbEntity
  8
0
  6
Continuous
 62
    20
100
AcDbCircle
 10
-367.4588505302646
 20
101.6677913859589
 30
0.0
 40
0.0999994016198065
100
AcDbArc
 50
269.9999999999999
 51
312.3506178192653
  0
ARC
  5
1E8
330
51
100
AcDbEntity
  8
0
  6
Continuous
 62
    20
100
AcDbCircle
 10
-366.6130228741304
 20
101.617791685149
 30
0.0
 40
0.0499997008099032
100
AcDbArc
 50
269.9999999999999
 51
13.72174396232395
  0
ARC
  5
1E9
330
51
100
AcDbEntity
  8
0
  6
Continuous
 62
    20
100
AcDbCircle
 10
-367.6116308664394
 20
101.617791685149
 30
0.0
 40
0.0499997008099032
100
AcDbArc
 50
166.2782560376743
 51
269.9999999999999
  0
ARC
  5
1EA
330
51
100
AcDbEntity
  8
0
  6
Continuous
 62
    20
100
AcDbCircle
 10
-367.188921439577
 20
101.2770419760128
 30
0.0
 40
0.2434036597971694
100
AcDbArc
 50
180.0623036318721
 51
200.6658807078449
  0
ARC
  5
1EB
330
51
100
AcDbEntity
  8
0
  6
Continuous
 62
    20
100
AcDbCircle
 10
-367.1684768242906
 20
101.2851627849507
 30
0.0
 40
0.2653990069841277
100
AcDbArc
 50
200.7485655161157
 51
220.1922304910747
  0
ARC
  5
1EC
330
51
100
AcDbEntity
  8
0
  6
Continuous
 62
    20
100
AcDbCircle
 10
-367.1402627480543
 20
101.3090348711712
 30
0.0
 40
0.3023572258027083
100
AcDbArc
 50
220.1974272383221
 51
238.0157834634163
  0
ARC
  5
1ED
330
51
100
AcDbEntity
  8
0
  6
Continuous
 62
    20
100
AcDbCircle
 10
-367.1195889149463
 20
101.3416136801907
 30
0.0
 40
0.3409411239023282
100
AcDbArc
 50
237.9689146232748
 51
254.4109960913913
  0
ARC
  5
1EE
330
51
100
AcDbEntity
  8
0
  6
Continuous
 62
    20
100
AcDbCircle
 10
-367.1125560881068
 20
101.365221088469
 30
0.0
 40
0.365570333191154
100
AcDbArc
 50
254.3436050192785
 51
270.0359252747074
  0
ARC
  5
1EF
330
51
100
AcDbEntity
  8
0
  6
Continuous
 62
    20
100
AcDbCircle
 10
-367.112097652463
 20
101.365221088469
 30
0.0
 40
0.3655703331911537
100
AcDbArc
 50
269.9640747252926
 51
285.6563949807215
  0
ARC
  5
1F0
330
51
100
AcDbEntity
  8
0
  6
Continuous
 62
    20
100
AcDbCircle
 10
-367.1195889149463
 20
101.2119409159501
 30
0.0
 40
0.3409411239023508
100
AcDbArc
 50
105.5890039086088
 51
122.0310853767244
  0
ARC
  5
1F1
330
51
100
AcDbEntity
  8
0
  6
Continuous
 62
    20
100
AcDbCircle
 10
-367.1050648256235
 20
101.3416136801908
 30
0.0
 40
0.3409411239023508
100
AcDbArc
 50
285.5890039086087
 51
302.0310853767244
  0
ARC
  5
1F2
330
51
100
AcDbEntity
  8
0
  6
Continuous
 62
    20
100
AcDbCircle
 10
-367.0561769162792
 20
101.2683918111903
 30
0.0
 40
0.2653990069841277
100
AcDbArc
 50
20.74856551611576
 51
40.19223049107477
  0
ARC
  5
1F3
330
51
100
AcDbEntity
  8
0
  6
Continuous
 62
    20
100
AcDbCircle
 10
-367.0843909925155
 20
101.2445197249697
 30
0.0
 40
0.3023572258027083
100
AcDbArc
 50
40.19742723832214
 51
58.01578346341626
  0
ARC
  5
1F4
330
51
100
AcDbEntity
  8
0
  6
Continuous
 62
    20
100
AcDbCircle
 10
-367.1050648256235
 20
101.2119409159501
 30
0.0
 40
0.3409411239023282
100
AcDbArc
 50
57.96891462327487
 51
74.41099609139135
  0
ARC
  5
1F5
330
51
100
AcDbEntity
  8
0
  6
Continuous
 62
    20
100
AcDbCircle
 10
-367.112097652463
 20
101.1883335076719
 30
0.0
 40
0.365570333191154
100
AcDbArc
 50
74.34360501927837
 51
90.03592527470744
  0
ARC
  5
1F6
330
51
100
AcDbEntity
  8
0
  6
Continuous
 62
    20
100
AcDbCircle
 10
-367.1125560881068
 20
101.1883335076719
 30
0.0
 40
0.3655703331911537
100
AcDbArc
 50
89.96407472529245
 51
105.6563949807215
  0
ARC
  5
1F7
330
51
100
AcDbEntity
  8
0
  6
Continuous
 62
    20
100
AcDbCircle
 10
-367.0357323009928
 20
101.2765126201281
 30
0.0
 40
0.2434036597971938
100
AcDbArc
 50
0.062303631872929
 51
20.66588070784375
  0
ARC
  5
1F8
330
51
100
AcDbEntity
  8
0
  6
Continuous
 62
    20
100
AcDbCircle
 10
-367.0561769162791
 20
101.2851627849506
 30
0.0
 40
0.2653990069840224
100
AcDbArc
 50
319.8077695089203
 51
339.2514344838863
  0
ARC
  5
1F9
330
51
100
AcDbEntity
  8
0
  6
Continuous
 62
    20
100
AcDbCircle
 10
-367.0357323009928
 20
101.2770419760129
 30
0.0
 40
0.2434036597971947
100
AcDbArc
 50
339.3341192921562
 51
359.9376963681269
  0
ARC
  5
1FA
330
51
100
AcDbEntity
  8
0
  6
Continuous
 62
    20
100
AcDbCircle
 10
-367.3214601977891
 20
101.5121710374425
 30
0.0
 40
0.3660074014951678
100
AcDbArc
 50
183.9434497678039
 51
208.9711771815439
  0
ARC
  5
1FB
330
51
100
AcDbEntity
  8
0
  6
Continuous
 62
    20
100
AcDbCircle
 10
-367.2449939198416
 20
101.5556719957328
 30
0.0
 40
0.4539766411410322
100
AcDbArc
 50
209.0998420842206
 51
230.760592355302
  0
ARC
  5
1FC
330
51
100
AcDbEntity
  8
0
  6
Continuous
 62
    20
100
AcDbCircle
 10
-367.1129793542554
 20
101.2288380452484
 30
0.0
 40
0.7274107947956644
100
AcDbArc
 50
89.94860595554978
 51
104.0856285154181
  0
ARC
  5
1FD
330
51
100
AcDbEntity
  8
0
  6
Continuous
 62
    20
100
AcDbCircle
 10
-367.1329987695929
 20
101.3037235590011
 30
0.0
 40
0.6499057912289159
100
AcDbArc
 50
103.9804995940649
 51
119.2242193283928
  0
ARC
  5
1FE
330
51
100
AcDbEntity
  8
0
  6
Continuous
 62
    20
100
AcDbCircle
 10
-367.1918482281481
 20
101.4070674255606
 30
0.0
 40
0.5309847478019027
100
AcDbArc
 50
119.1267360649639
 51
136.5781061443856
  0
ARC
  5
1FF
330
51
100
AcDbEntity
  8
0
  6
Continuous
 62
    20
100
AcDbCircle
 10
-367.2721614966862
 20
101.4827925293043
 30
0.0
 40
0.4206015078856433
100
AcDbArc
 50
136.550251028184
 51
156.9491064639208
  0
ARC
  5
200
330
51
100
AcDbEntity
  8
0
  6
Continuous
 62
    20
100
AcDbCircle
 10
-367.330358471271
 20
101.5085527034935
 30
0.0
 40
0.3569659456940437
100
AcDbArc
 50
157.0962071449825
 51
179.8652392254405
  0
ARC
  5
201
330
51
100
AcDbEntity
  8
0
  6
Continuous
 62
    20
100
AcDbCircle
 10
-367.1123268702849
 20
104.1945395696632
 30
0.0
 40
0.6249962601237906
100
AcDbArc
 50
359.9999999999999
 51
179.9999999999999
  0
ARC
  5
202
330
51
100
AcDbEntity
  8
0
  6
Continuous
 62
    20
100
AcDbCircle
 10
-367.0916549709769
 20
101.3037235590011
 30
0.0
 40
0.6499057912289158
100
AcDbArc
 50
60.77578067160714
 51
76.01950040593496
  0
ARC
  5
203
330
51
100
AcDbEntity
  8
0
  6
Continuous
 62
    20
100
AcDbCircle
 10
-367.1116743863144
 20
101.2288380452484
 30
0.0
 40
0.7274107947956644
100
AcDbArc
 50
75.91437148458179
 51
90.05139404445005
  0
ARC
  5
204
330
51
100
AcDbEntity
  8
0
  6
Continuous
 62
    20
100
AcDbCircle
 10
-367.0328055124217
 20
101.4070674255606
 30
0.0
 40
0.5309847478019027
100
AcDbArc
 50
43.42189385561437
 51
60.87326393503596
  0
ARC
  5
205
330
51
100
AcDbEntity
  8
0
  6
Continuous
 62
    20
100
AcDbCircle
 10
-366.9524922438836
 20
101.4827925293043
 30
0.0
 40
0.4206015078856424
100
AcDbArc
 50
23.05089353607917
 51
43.44974897181606
  0
ARC
  5
206
330
51
100
AcDbEntity
  8
0
  6
Continuous
 62
    20
100
AcDbCircle
 10
-366.8942952692987
 20
101.5085527034935
 30
0.0
 40
0.3569659456940442
100
AcDbArc
 50
0.134760774559346
 51
22.90379285501735
  0
ARC
  5
207
330
51
100
AcDbEntity
  8
0
  6
Continuous
 62
    20
100
AcDbCircle
 10
-367.3493177409221
 20
101.5084796956683
 30
0.0
 40
0.3880064627108509
100
AcDbArc
 50
157.09620714498
 51
179.8652392254414
  0
ARC
  5
208
330
51
100
AcDbEntity
  8
0
  6
Continuous
 62
    20
100
AcDbCircle
 10
-367.1987631288319
 20
101.3981696109587
 30
0.0
 40
0.5771573345671623
100
AcDbArc
 50
119.1267360649612
 51
136.5781061443865
  0
ARC
  5
209
330
51
100
AcDbEntity
  8
0
  6
Continuous
 62
    20
100
AcDbCircle
 10
-367.2860601598516
 20
101.4804795063322
 30
0.0
 40
0.457175552049512
100
AcDbArc
 50
136.5502510281821
 51
156.949106463924
  0
ARC
  5
20A
330
51
100
AcDbEntity
  8
0
  6
Continuous
 62
    20
100
AcDbCircle
 10
-367.1347963260544
 20
101.2858393212199
 30
0.0
 40
0.7064193382924133
100
AcDbArc
 50
103.9804995940678
 51
119.2242193283933
  0
ARC
  5
20B
330
51
100
AcDbEntity
  8
0
  6
Continuous
 62
    20
100
AcDbCircle
 10
-367.1130360919919
 20
101.2044420236622
 30
0.0
 40
0.7906639073870982
100
AcDbArc
 50
89.94860595555333
 51
104.0856285154125
  0
ARC
  5
20C
330
51
100
AcDbEntity
  8
0
  6
Continuous
 62
    20
100
AcDbCircle
 10
-367.1116176485779
 20
101.2044420236622
 30
0.0
 40
0.7906639073870982
100
AcDbArc
 50
75.91437148458735
 51
90.05139404444652
  0
ARC
  5
20D
330
51
100
AcDbEntity
  8
0
  6
Continuous
 62
    20
100
AcDbCircle
 10
-367.0898574145154
 20
101.2858393212199
 30
0.0
 40
0.7064193382924131
100
AcDbArc
 50
60.77578067160663
 51
76.01950040593212
  0
ARC
  5
20E
330
51
100
AcDbEntity
  8
0
  6
Continuous
 62
    20
100
AcDbCircle
 10
-366.9385935807182
 20
101.4804795063322
 30
0.0
 40
0.4571755520495129
100
AcDbArc
 50
23.05089353607571
 51
43.44974897181771
  0
ARC
  5
20F
330
51
100
AcDbEntity
  8
0
  6
Continuous
 62
    20
100
AcDbCircle
 10
-367.0258906117379
 20
101.3981696109587
 30
0.0
 40
0.5771573345671627
100
AcDbArc
 50
43.42189385561345
 51
60.87326393503879
  0
ARC
  5
210
330
51
100
AcDbEntity
  8
0
  6
Continuous
 62
    20
100
AcDbCircle
 10
-366.8753359996477
 20
101.5084796956683
 30
0.0
 40
0.3880064627108523
100
AcDbArc
 50
0.13476077455843
 51
22.90379285501974
  0
ARC
  5
211
330
51
100
AcDbEntity
  8
0
  6
Continuous
 62
    20
100
AcDbCircle
 10
-367.0665317256887
 20
101.6610120257418
 30
0.0
 40
0.5905157416756843
100
AcDbArc
 50
291.1827741752651
 51
309.3023787473762
  0
ARC
  5
212
330
51
100
AcDbEntity
  8
0
  6
Continuous
 62
    20
100
AcDbCircle
 10
-367.3299709488987
 20
101.5089541878781
 30
0.0
 40
0.3573052063976665
100
AcDbArc
 50
158.1597911313008
 51
183.5226844136237
  0
ARC
  5
213
330
51
100
AcDbEntity
  8
0
  6
Continuous
 62
    20
100
AcDbCircle
 10
-367.158122014881
 20
101.661012025742
 30
0.0
 40
0.5905157416758554
100
AcDbArc
 50
230.6976212526275
 51
248.8172258247333
  0
ENDBLK
  5
53
330
51
100
AcDbEntity
  8
0
100
AcDbBlockEnd
  0
BLOCK
  5
55
330
54
100
AcDbEntity
  8
0
100
AcDbBlockBegin
  2
VIS-ULNS3CRN0007
 70
     0
 10
0.0
 20
0.0
 30
0.0
  3
VIS-ULNS3CRN0007
  1

  0
LINE
  5
214
330
54
100
AcDbEntity
  8
0
  6
Continuous
 62
   160
100
AcDbLine
 10
-206.4098508702851
 20
96.94460830587266
 30
0.0
 11
-206.4101583702852
 21
96.94460830587266
 31
0.0
  0
LINE
  5
215
330
54
100
AcDbEntity
  8
0
  6
Continuous
 62
     0
100
AcDbLine
 10
-195.4623153138748
 20
92.69460838338632
 30
0.0
 11
-195.2537116201066
 21
92.89460838363922
 31
0.0
  0
LINE
  5
216
330
54
100
AcDbEntity
  8
0
  6
Continuous
 62
     0
100
AcDbLine
 10
-204.9709372610617
 20
92.89459710215672
 30
0.0
 11
-201.1123208864832
 21
92.89459710215672
 31
0.0
  0
LINE
  5
217
330
54
100
AcDbEntity
  8
0
  6
Continuous
 62
     0
100
AcDbLine
 10
-193.6225624501454
 20
96.68144897862116
 30
0.0
 11
-195.2537116201061
 21
92.89460838363885
 31
0.0
  0
LINE
  5
218
330
54
100
AcDbEntity
  8
0
  6
Continuous
 62
     0
100
AcDbLine
 10
-204.7623384266956
 20
92.69460838338628
 30
0.0
 11
-204.9709421204637
 21
92.89460838363908
 31
0.0
  0
LINE
  5
219
330
54
100
AcDbEntity
  8
0
  6
Continuous
 62
     0
100
AcDbLine
 10
-204.7623384266954
 20
92.69460838338628
 30
0.0
 11
-195.4623153138749
 21
92.69460838338628
 31
0.0
  0
LINE
  5
21A
330
54
100
AcDbEntity
  8
0
  6
Continuous
 62
     0
100
AcDbLine
 10
-206.602091290424
 20
96.68144897862155
 30
0.0
 11
-204.9709421204633
 21
92.89460838363917
 31
0.0
  0
LINE
  5
21B
330
54
100
AcDbEntity
  8
0
  6
Continuous
 62
     0
100
AcDbLine
 10
-206.4123272930863
 20
96.94460838338628
 30
0.0
 11
-200.737323130409
 21
96.94460838338628
 31
0.0
  0
LINE
  5
21C
330
54
100
AcDbEntity
  8
0
  6
Continuous
 62
     0
100
AcDbLine
 10
-199.4873306101614
 20
96.94460838338628
 30
0.0
 11
-193.812326447484
 21
96.94460838338628
 31
0.0
  0
LINE
  5
21D
330
54
100
AcDbEntity
  8
0
  6
Continuous
 62
     0
100
AcDbLine
 10
-199.1123328540872
 20
92.89459710215672
 30
0.0
 11
-195.2537164795086
 21
92.89459710215672
 31
0.0
  0
LINE
  5
21E
330
54
100
AcDbEntity
  8
0
  6
Continuous
 62
    20
100
AcDbLine
 10
-201.1123208864832
 20
92.69460838338628
 30
0.0
 11
-201.0373213352683
 21
92.69460838338628
 31
0.0
  0
LINE
  5
21F
330
54
100
AcDbEntity
  8
0
  6
Continuous
 62
    20
100
AcDbLine
 10
-199.4873306101614
 20
100.909395883766
 30
0.0
 11
-199.4873306101614
 21
101.5093922743073
 31
0.0
  0
LINE
  5
220
330
54
100
AcDbEntity
  8
0
  6
Continuous
 62
    20
100
AcDbLine
 10
-200.737323130409
 20
100.909395883766
 30
0.0
 11
-200.737323130409
 21
101.5093922934848
 31
0.0
  0
LINE
  5
221
330
54
100
AcDbEntity
  8
0
  6
Continuous
 62
    20
100
AcDbLine
 10
-200.737323130409
 20
101.5093922934848
 30
0.0
 11
-200.737323130409
 21
104.194539569664
 31
0.0
  0
LINE
  5
222
330
54
100
AcDbEntity
  8
0
  6
Continuous
 62
    20
100
AcDbLine
 10
-199.4873306101614
 20
92.91960703703074
 30
0.0
 11
-199.4873306101614
 21
100.909395883766
 31
0.0
  0
LINE
  5
223
330
54
100
AcDbEntity
  8
0
  6
Continuous
 62
    20
100
AcDbLine
 10
-200.737323130409
 20
92.91960703703074
 30
0.0
 11
-200.737323130409
 21
100.909395883766
 31
0.0
  0
LINE
  5
224
330
54
100
AcDbEntity
  8
0
  6
Continuous
 62
    20
100
AcDbLine
 10
-200.737323130409
 20
92.91960703703083
 30
0.0
 11
-199.4873306101613
 21
92.91960703703083
 31
0.0
  0
LINE
  5
225
330
54
100
AcDbEntity
  8
0
  6
Continuous
 62
    20
100
AcDbLine
 10
-199.1873324053018
 20
92.69460838338628
 30
0.0
 11
-199.112332854087
 21
92.69460838338628
 31
0.0
  0
LINE
  5
226
330
54
100
AcDbEntity
  8
0
  6
Continuous
 62
    20
100
AcDbLine
 10
-201.1123208864832
 20
92.69460838338625
 30
0.0
 11
-201.1123208864832
 21
92.89460718662588
 31
0.0
  0
LINE
  5
227
330
54
100
AcDbEntity
  8
0
  6
Continuous
 62
    20
100
AcDbLine
 10
-199.1123328540872
 20
92.69460838338625
 30
0.0
 11
-199.1123328540872
 21
92.89460718662588
 31
0.0
  0
LINE
  5
228
330
54
100
AcDbEntity
  8
0
  6
Continuous
 62
    20
100
AcDbLine
 10
-201.0873210360781
 20
92.91960703703083
 30
0.0
 11
-200.737323130409
 21
92.91960703703083
 31
0.0
  0
LINE
  5
229
330
54
100
AcDbEntity
  8
0
  6
Continuous
 62
    20
100
AcDbLine
 10
-200.737323130409
 20
92.91960703703083
 30
0.0
 11
-199.4873306101613
 21
92.91960703703083
 31
0.0
  0
LINE
  5
22A
330
54
100
AcDbEntity
  8
0
  6
Continuous
 62
    20
100
AcDbLine
 10
-199.4873306101613
 20
92.91960703703083
 30
0.0
 11
-199.137332704492
 21
92.91960703703083
 31
0.0
  0
LINE
  5
22B
330
54
100
AcDbEntity
  8
0
  6
Continuous
 62
    20
100
AcDbLine
 10
-199.4873306101614
 20
101.5093922743073
 30
0.0
 11
-199.4873306101614
 21
104.194539569664
 31
0.0
  0
LINE
  5
22C
330
54
100
AcDbEntity
  8
0
  6
Continuous
 62
    20
100
AcDbLine
 10
-201.0873210360781
 20
92.91960703703083
 30
0.0
 11
-199.137332704492
 21
92.91960703703083
 31
0.0
  0
LINE
  5
22D
330
54
100
AcDbEntity
  8
0
  6
Continuous
 62
    20
100
AcDbLine
 10
-199.1123328540872
 20
92.69460838338625
 30
0.0
 11
-199.1123328540872
 21
92.89460718662588
 31
0.0
  0
LINE
  5
22E
330
54
100
AcDbEntity
  8
0
  6
Continuous
 62
    20
100
AcDbLine
 10
-201.1123208864832
 20
92.69460838338625
 30
0.0
 11
-201.1123208864832
 21
92.89460718662588
 31
0.0
  0
LINE
  5
22F
330
54
100
AcDbEntity
  8
0
  6
Continuous
 62
    20
100
AcDbLine
 10
-201.1123208864832
 20
92.69460838338628
 30
0.0
 11
-199.112332854087
 21
92.69460838338628
 31
0.0
  0
LINE
  5
230
330
54
100
AcDbEntity
  8
0
  6
Continuous
 62
    20
100
AcDbLine
 10
-200.737323130409
 20
92.91960703703083
 30
0.0
 11
-199.4873306101613
 21
92.91960703703083
 31
0.0
  0
LINE
  5
231
330
54
100
AcDbEntity
  8
0
  6
Continuous
 62
    20
100
AcDbLine
 10
-199.4873306101614
 20
92.91960703703074
 30
0.0
 11
-199.4873306101614
 21
104.194539569664
 31
0.0
  0
ARC
  5
232
330
54
100
AcDbEntity
  8
0
  6
Continuous
 62
     0
100
AcDbCircle
 10
-193.812326447484
 20
96.7446091148885
 30
0.0
 40
0.1999989437446915
100
AcDbArc
 50
341.5907423313286
 51
89.9999999999998
  0
ARC
  5
233
330
54
100
AcDbEntity
  8
0
  6
Continuous
 62
     0
100
AcDbCircle
 10
-206.4123272930864
 20
96.7446091148885
 30
0.0
 40
0.1999989437446915
100
AcDbArc
 50
89.9999999999999
 51
198.4092576686711
  0
ARC
  5
234
330
54
100
AcDbEntity
  8
0
  6
Continuous
 62
    20
100
AcDbCircle
 10
-201.0873210360782
 20
92.8946071866259
 30
0.0
 40
0.0249998504049516
100
AcDbArc
 50
90.0
 51
180.0
  0
ARC
  5
235
330
54
100
AcDbEntity
  8
0
  6
Continuous
 62
    20
100
AcDbCircle
 10
-200.1123268702851
 20
104.194539569664
 30
0.0
 40
0.6249962601237906
100
AcDbArc
 50
0.0
 51
180.0
  0
ARC
  5
236
330
54
100
AcDbEntity
  8
0
  6
Continuous
 62
    20
100
AcDbCircle
 10
-199.137332704492
 20
92.8946071866259
 30
0.0
 40
0.0249998504049516
100
AcDbArc
 50
0.0
 51
90.0
  0
ARC
  5
237
330
54
100
AcDbEntity
  8
0
  6
Continuous
 62
    20
100
AcDbCircle
 10
-200.1123268702851
 20
104.194539569664
 30
0.0
 40
0.6249962601237906
100
AcDbArc
 50
0.0
 51
180.0
  0
ARC
  5
238
330
54
100
AcDbEntity
  8
0
  6
Continuous
 62
    20
100
AcDbCircle
 10
-199.137332704492
 20
92.8946071866259
 30
0.0
 40
0.0249998504049516
100
AcDbArc
 50
0.0
 51
90.0
  0
ARC
  5
239
330
54
100
AcDbEntity
  8
0
  6
Continuous
 62
    20
100
AcDbCircle
 10
-201.0873210360782
 20
92.8946071866259
 30
0.0
 40
0.0249998504049516
100
AcDbArc
 50
90.0
 51
180.0
  0
ENDBLK
  5
56
330
54
100
AcDbEntity
  8
0
100
AcDbBlockEnd
  0
BLOCK
  5
58
330
57
100
AcDbEntity
  8
0
100
AcDbBlockBegin
  2
VIS-ULNS3CRN0008
 70
     0
 10
0.0
 20
0.0
 30
0.0
  3
VIS-ULNS3CRN0008
  1

  0
LINE
  5
23A
330
57
100
AcDbEntity
  8
0
  6
Continuous
 62
     0
100
AcDbLine
 10
-197.9873268702849
 20
61.54460838338611
 30
0.0
 11
-197.9873268702849
 21
55.44460838338611
 31
0.0
  0
LINE
  5
23B
330
57
100
AcDbEntity
  8
0
  6
Continuous
 62
    20
100
AcDbLine
 10
-204.737326870285
 20
61.54460838338611
 30
0.0
 11
-204.737326870285
 21
91.49460838338626
 31
0.0
  0
LINE
  5
23C
330
57
100
AcDbEntity
  8
0
  6
Continuous
 62
    20
100
AcDbLine
 10
-204.7373268702848
 20
91.49460838338628
 30
0.0
 11
-191.8623268702848
 21
91.49460838338628
 31
0.0
  0
LINE
  5
23D
330
57
100
AcDbEntity
  8
0
  6
Continuous
 62
    20
100
AcDbLine
 10
-204.9623268702848
 20
91.39460838338633
 30
0.0
 11
-205.7123268702848
 21
91.39460838338633
 31
0.0
  0
LINE
  5
23E
330
57
100
AcDbEntity
  8
0
  6
Continuous
 62
    20
100
AcDbLine
 10
-204.9623268702848
 20
91.39460838338633
 30
0.0
 11
-205.7123268702848
 21
91.39460838338633
 31
0.0
  0
LINE
  5
23F
330
57
100
AcDbEntity
  8
0
  6
Continuous
 62
    20
100
AcDbLine
 10
-191.8623268702849
 20
91.49460838338632
 30
0.0
 11
-191.8623268702849
 21
55.69460838338591
 31
0.0
  0
LINE
  5
240
330
57
100
AcDbEntity
  8
0
  6
Continuous
 62
    20
100
AcDbLine
 10
-197.9873268702848
 20
61.54460838338611
 30
0.0
 11
-204.7373268702848
 21
61.54460838338611
 31
0.0
  0
LINE
  5
241
330
57
100
AcDbEntity
  8
0
  6
Continuous
 62
    20
100
AcDbLine
 10
-204.962326870285
 20
61.8946083833859
 30
0.0
 11
-204.962326870285
 21
91.3946083833863
 31
0.0
  0
LINE
  5
242
330
57
100
AcDbEntity
  8
0
  6
Continuous
 62
    20
100
AcDbLine
 10
-204.9623268702848
 20
61.6446083833859
 30
0.0
 11
-205.7123268702848
 21
61.6446083833859
 31
0.0
  0
LINE
  5
243
330
57
100
AcDbEntity
  8
0
  6
Continuous
 62
    20
100
AcDbLine
 10
-205.712326870285
 20
61.8946083833859
 30
0.0
 11
-205.712326870285
 21
91.3946083833863
 31
0.0
  0
LINE
  5
244
330
57
100
AcDbEntity
  8
0
  6
Continuous
 62
    20
100
AcDbLine
 10
-204.962326870285
 20
61.6446083833859
 30
0.0
 11
-204.962326870285
 21
91.1446083833863
 31
0.0
  0
LINE
  5
245
330
57
100
AcDbEntity
  8
0
  6
Continuous
 62
    20
100
AcDbLine
 10
-204.9623268702848
 20
61.6446083833859
 30
0.0
 11
-205.7123268702848
 21
61.6446083833859
 31
0.0
  0
LINE
  5
246
330
57
100
AcDbEntity
  8
0
  6
Continuous
 62
    20
100
AcDbLine
 10
-205.712326870285
 20
61.6446083833859
 30
0.0
 11
-205.712326870285
 21
91.1446083833863
 31
0.0
  0
LINE
  5
247
330
57
100
AcDbEntity
  8
0
  6
Continuous
 62
     0
100
AcDbLine
 10
-198.5873268702848
 20
61.54460838338611
 30
0.0
 11
-198.5873268702848
 21
55.19460838338611
 31
0.0
  0
LINE
  5
248
330
57
100
AcDbEntity
  8
0
  6
Continuous
 62
    20
100
AcDbLine
 10
-191.8623268702848
 20
55.44460838338611
 30
0.0
 11
-198.5873268702848
 21
55.44460838338611
 31
0.0
  0
LINE
  5
249
330
57
100
AcDbEntity
  8
0
  6
Continuous
 62
    20
100
AcDbLine
 10
-191.8623268702849
 20
91.24460838338632
 30
0.0
 11
-191.8623268702849
 21
55.44460838338591
 31
0.0
  0
LINE
  5
24A
330
57
100
AcDbEntity
  8
0
  6
Continuous
 62
    20
100
AcDbLine
 10
-204.7373268702848
 20
91.49460838338628
 30
0.0
 11
-191.8623268702848
 21
91.49460838338628
 31
0.0
  0
LINE
  5
24B
330
57
100
AcDbEntity
  8
0
  6
Continuous
 62
    20
100
AcDbLine
 10
-191.8623268702848
 20
55.19460838338611
 30
0.0
 11
-198.5873268702848
 21
55.19460838338611
 31
0.0
  0
ENDBLK
  5
59
330
57
100
AcDbEntity
  8
0
100
AcDbBlockEnd
  0
BLOCK
  5
5B
330
5A
100
AcDbEntity
  8
0
100
AcDbBlockBegin
  2
VIS-ULNS3CRN0009
 70
     0
 10
0.0
 20
0.0
 30
0.0
  3
VIS-ULNS3CRN0009
  1

  0
LINE
  5
24C
330
5A
100
AcDbEntity
  8
0
  6
Continuous
 62
    20
100
AcDbLine
 10
-375.3623268702849
 20
55.19460838338594
 30
0.0
 11
-368.637326870285
 21
55.19460838338594
 31
0.0
  0
LINE
  5
24D
330
5A
100
AcDbEntity
  8
0
  6
Continuous
 62
    20
100
AcDbLine
 10
-375.3623268702849
 20
91.24460838338612
 30
0.0
 11
-375.3623268702849
 21
55.44460838338574
 31
0.0
  0
LINE
  5
24E
330
5A
100
AcDbEntity
  8
0
  6
Continuous
 62
    20
100
AcDbLine
 10
-375.3623268702849
 20
55.44460838338594
 30
0.0
 11
-368.637326870285
 21
55.44460838338594
 31
0.0
  0
LINE
  5
24F
330
5A
100
AcDbEntity
  8
0
  6
Continuous
 62
     0
100
AcDbLine
 10
-368.6373268702849
 20
61.54460838338593
 30
0.0
 11
-368.6373268702849
 21
55.19460838338594
 31
0.0
  0
LINE
  5
250
330
5A
100
AcDbEntity
  8
0
  6
Continuous
 62
    20
100
AcDbLine
 10
-361.5123268702849
 20
61.64460838338573
 30
0.0
 11
-361.5123268702849
 21
91.1446083833861
 31
0.0
  0
LINE
  5
251
330
5A
100
AcDbEntity
  8
0
  6
Continuous
 62
    20
100
AcDbLine
 10
-362.262326870285
 20
61.64460838338573
 30
0.0
 11
-361.512326870285
 21
61.64460838338573
 31
0.0
  0
LINE
  5
252
330
5A
100
AcDbEntity
  8
0
  6
Continuous
 62
    20
100
AcDbLine
 10
-362.2623268702849
 20
61.64460838338573
 30
0.0
 11
-362.2623268702849
 21
91.1446083833861
 31
0.0
  0
LINE
  5
253
330
5A
100
AcDbEntity
  8
0
  6
Continuous
 62
    20
100
AcDbLine
 10
-361.5123268702849
 20
61.64460838338573
 30
0.0
 11
-361.5123268702849
 21
91.3946083833861
 31
0.0
  0
LINE
  5
254
330
5A
100
AcDbEntity
  8
0
  6
Continuous
 62
    20
100
AcDbLine
 10
-362.262326870285
 20
61.64460838338573
 30
0.0
 11
-361.512326870285
 21
61.64460838338573
 31
0.0
  0
LINE
  5
255
330
5A
100
AcDbEntity
  8
0
  6
Continuous
 62
    20
100
AcDbLine
 10
-362.2623268702849
 20
61.64460838338573
 30
0.0
 11
-362.2623268702849
 21
91.3946083833861
 31
0.0
  0
LINE
  5
256
330
5A
100
AcDbEntity
  8
0
  6
Continuous
 62
    20
100
AcDbLine
 10
-369.2373268702849
 20
61.54460838338593
 30
0.0
 11
-362.4873268702849
 21
61.54460838338593
 31
0.0
  0
LINE
  5
257
330
5A
100
AcDbEntity
  8
0
  6
Continuous
 62
    20
100
AcDbLine
 10
-375.3623268702849
 20
91.4946083833861
 30
0.0
 11
-375.3623268702849
 21
55.19460838338594
 31
0.0
  0
LINE
  5
258
330
5A
100
AcDbEntity
  8
0
  6
Continuous
 62
    20
100
AcDbLine
 10
-362.262326870285
 20
91.39460838338611
 30
0.0
 11
-361.512326870285
 21
91.39460838338611
 31
0.0
  0
LINE
  5
259
330
5A
100
AcDbEntity
  8
0
  6
Continuous
 62
    20
100
AcDbLine
 10
-362.4873268702849
 20
91.49460838338612
 30
0.0
 11
-375.3623268702849
 21
91.49460838338612
 31
0.0
  0
LINE
  5
25A
330
5A
100
AcDbEntity
  8
0
  6
Continuous
 62
    20
100
AcDbLine
 10
-362.4873268702849
 20
61.54460838338593
 30
0.0
 11
-362.4873268702849
 21
91.4946083833861
 31
0.0
  0
LINE
  5
25B
330
5A
100
AcDbEntity
  8
0
  6
Continuous
 62
     0
100
AcDbLine
 10
-369.2373268702849
 20
61.54460838338593
 30
0.0
 11
-369.2373268702849
 21
55.44460838338594
 31
0.0
  0
ENDBLK
  5
5C
330
5A
100
AcDbEntity
  8
0
100
AcDbBlockEnd
  0
BLOCK
  5
5E
330
5D
100
AcDbEntity
  8
0
100
AcDbBlockBegin
  2
VIS-ULNS3CRN0010
 70
     0
 10
0.0
 20
0.0
 30
0.0
  3
VIS-ULNS3CRN0010
  1

  0
LINE
  5
25C
330
5D
100
AcDbEntity
  8
0
  6
Continuous
 62
    20
100
AcDbLine
 10
-252.612326870285
 20
91.49460838338612
 30
0.0
 11
-252.612326870285
 21
92.69460838338611
 31
0.0
  0
LINE
  5
25D
330
5D
100
AcDbEntity
  8
0
  6
Continuous
 62
    20
100
AcDbLine
 10
-252.612326870285
 20
92.69460838338617
 30
0.0
 11
-327.112326870285
 21
92.69460838338617
 31
0.0
  0
LINE
  5
25E
330
5D
100
AcDbEntity
  8
0
  6
Continuous
 62
    20
100
AcDbLine
 10
-327.112326870285
 20
91.49460838338612
 30
0.0
 11
-327.112326870285
 21
92.69460838338611
 31
0.0
  0
LINE
  5
25F
330
5D
100
AcDbEntity
  8
0
  6
Continuous
 62
    20
100
AcDbLine
 10
-252.612326870285
 20
91.49460838338612
 30
0.0
 11
-327.112326870285
 21
91.49460838338612
 31
0.0
  0
ENDBLK
  5
5F
330
5D
100
AcDbEntity
  8
0
100
AcDbBlockEnd
  0
BLOCK
  5
61
330
60
100
AcDbEntity
  8
0
100
AcDbBlockBegin
  2
VIS-ULNS3CRN0011
 70
     0
 10
0.0
 20
0.0
 30
0.0
  3
VIS-ULNS3CRN0011
  1

  0
LINE
  5
260
330
60
100
AcDbEntity
  8
0
  6
Continuous
 62
     0
100
AcDbLine
 10
-280.0484883045117
 20
96.67150845842073
 30
0.0
 11
-278.1842678510164
 21
92.89460811926094
 31
0.0
  0
LINE
  5
261
330
60
100
AcDbEntity
  8
0
  6
Continuous
 62
     0
100
AcDbLine
 10
-277.9623269239326
 20
92.6946083833861
 30
0.0
 11
-262.6623268166377
 21
92.6946083833861
 31
0.0
  0
LINE
  5
262
330
60
100
AcDbEntity
  8
0
  6
Continuous
 62
     0
100
AcDbLine
 10
-278.1842679938412
 20
92.89460811926168
 30
0.0
 11
-262.4403857467292
 21
92.89460811926168
 31
0.0
  0
LINE
  5
263
330
60
100
AcDbEntity
  8
0
  6
Continuous
 62
     0
100
AcDbLine
 10
-279.8623269057645
 20
96.94460840862617
 30
0.0
 11
-260.7623268348058
 21
96.94460840862617
 31
0.0
  0
LINE
  5
264
330
60
100
AcDbEntity
  8
0
  6
Continuous
 62
     0
100
AcDbLine
 10
-277.9623269239334
 20
92.69460838338537
 30
0.0
 11
-278.184267993842
 21
92.89460840862557
 31
0.0
  0
LINE
  5
265
330
60
100
AcDbEntity
  8
0
  6
Continuous
 62
     0
100
AcDbLine
 10
-262.6623268166392
 20
92.69460838338723
 30
0.0
 11
-262.4403857467307
 21
92.89460840862735
 31
0.0
  0
LINE
  5
266
330
60
100
AcDbEntity
  8
0
  6
Continuous
 62
     0
100
AcDbLine
 10
-260.5761654360609
 20
96.67150845842178
 30
0.0
 11
-262.4403858895562
 21
92.89460811926206
 31
0.0
  0
LINE
  5
267
330
60
100
AcDbEntity
  8
0
  6
Continuous
 62
    20
100
AcDbLine
 10
-259.5373210360783
 20
92.91960703703062
 30
0.0
 11
-257.5873327044922
 21
92.91960703703069
 31
0.0
  0
LINE
  5
268
330
60
100
AcDbEntity
  8
0
  6
Continuous
 62
    20
100
AcDbLine
 10
-257.5623328540871
 20
92.69460838338621
 30
0.0
 11
-257.5623328540871
 21
92.89460718662583
 31
0.0
  0
LINE
  5
269
330
60
100
AcDbEntity
  8
0
  6
Continuous
 62
    20
100
AcDbLine
 10
-259.5623208864833
 20
92.69460838338597
 30
0.0
 11
-259.5623208864833
 21
92.89460718662559
 31
0.0
  0
LINE
  5
26A
330
60
100
AcDbEntity
  8
0
  6
Continuous
 62
    20
100
AcDbLine
 10
-259.5623208864833
 20
92.69460838338607
 30
0.0
 11
-257.5623328540871
 21
92.69460838338614
 31
0.0
  0
LINE
  5
26B
330
60
100
AcDbEntity
  8
0
  6
Continuous
 62
    20
100
AcDbLine
 10
-265.2988505215097
 20
102.0108385285995
 30
0.0
 11
-262.6215987045309
 21
104.1788343028315
 31
0.0
  0
LINE
  5
26C
330
60
100
AcDbEntity
  8
0
  6
Continuous
 62
    20
100
AcDbLine
 10
-264.5473661882692
 20
101.0431075067831
 30
0.0
 11
-265.3025461386547
 21
101.9756770801865
 31
0.0
  0
LINE
  5
26D
330
60
100
AcDbEntity
  8
0
  6
Continuous
 62
    20
100
AcDbLine
 10
-264.5122047398577
 20
101.0394118896369
 30
0.0
 11
-261.834952922879
 21
103.2074076638688
 31
0.0
  0
LINE
  5
26E
330
60
100
AcDbEntity
  8
0
  6
Continuous
 62
    20
100
AcDbLine
 10
-257.9373306101613
 20
92.91960703703069
 30
0.0
 11
-257.9373306101617
 21
101.9445530332182
 31
0.0
  0
LINE
  5
26F
330
60
100
AcDbEntity
  8
0
  6
Continuous
 62
    20
100
AcDbLine
 10
-259.1873231304089
 20
92.91960703703063
 30
0.0
 11
-257.9373306101613
 21
92.91960703703067
 31
0.0
  0
LINE
  5
270
330
60
100
AcDbEntity
  8
0
  6
Continuous
 62
    20
100
AcDbLine
 10
-259.1873231304089
 20
92.91960703703064
 30
0.0
 11
-259.1873231304093
 21
101.9445530332182
 31
0.0
  0
LINE
  5
271
330
60
100
AcDbEntity
  8
0
  6
Continuous
 62
    20
100
AcDbLine
 10
-265.0382719067907
 20
101.649331312781
 30
0.0
 11
-265.2014725586968
 21
101.5171740306605
 31
0.0
  0
LINE
  5
272
330
60
100
AcDbEntity
  8
0
  6
Continuous
 62
    20
100
AcDbLine
 10
-264.7357754693199
 20
100.9420860191826
 30
0.0
 11
-264.5725748174139
 21
101.0742433013031
 31
0.0
  0
LINE
  5
273
330
60
100
AcDbEntity
  8
0
  6
Continuous
 62
    20
100
AcDbLine
 10
-264.7568724646093
 20
100.9443034027407
 30
0.0
 11
-264.7357754693215
 21
100.9420860191845
 31
0.0
  0
LINE
  5
274
330
60
100
AcDbEntity
  8
0
  6
Continuous
 62
    20
100
AcDbLine
 10
-265.2036899422499
 20
101.4960770353748
 30
0.0
 11
-265.2014725586938
 21
101.5171740306624
 31
0.0
  0
LINE
  5
275
330
60
100
AcDbEntity
  8
0
  6
Continuous
 62
    20
100
AcDbLine
 10
-264.9497444022762
 20
101.206315646077
 30
0.0
 11
-264.9108871042034
 21
101.2377816656295
 31
0.0
  0
LINE
  5
276
330
60
100
AcDbEntity
  8
0
  6
Continuous
 62
    20
100
AcDbLine
 10
-264.9875036257387
 20
101.2529444037642
 30
0.0
 11
-264.9486463276659
 21
101.2844104233167
 31
0.0
  0
LINE
  5
277
330
60
100
AcDbEntity
  8
0
  6
Continuous
 62
    20
100
AcDbLine
 10
-265.2036899422519
 20
101.4960770353771
 30
0.0
 11
-265.0086006210264
 21
101.2551617873254
 31
0.0
  0
LINE
  5
278
330
60
100
AcDbEntity
  8
0
  6
Continuous
 62
    20
100
AcDbLine
 10
-264.9519617858324
 20
101.1852186507946
 30
0.0
 11
-264.7568724646068
 21
100.9443034027427
 31
0.0
  0
LINE
  5
279
330
60
100
AcDbEntity
  8
0
  6
Continuous
 62
    20
100
AcDbLine
 10
-264.9519617858298
 20
101.1852186507919
 30
0.0
 11
-264.9497444022737
 21
101.2063156460794
 31
0.0
  0
LINE
  5
27A
330
60
100
AcDbEntity
  8
0
  6
Continuous
 62
    20
100
AcDbLine
 10
-264.9875036257416
 20
101.2529444037666
 30
0.0
 11
-265.0086006210291
 21
101.2551617873227
 31
0.0
  0
LINE
  5
27B
330
60
100
AcDbEntity
  8
0
  6
Continuous
 62
    20
100
AcDbLine
 10
-264.6969181712464
 20
100.9735520387394
 30
0.0
 11
-265.1626152606232
 21
101.5486400502175
 31
0.0
  0
LINE
  5
27C
330
60
100
AcDbEntity
  8
0
  6
CENTER
 62
     0
100
AcDbLine
 10
-270.3123268702852
 20
92.22710278015097
 30
0.0
 11
-270.3123268702852
 21
98.01237956675614
 31
0.0
  0
ARC
  5
27D
330
60
100
AcDbEntity
  8
0
  6
Continuous
 62
     0
100
AcDbCircle
 10
-279.8623269057645
 20
96.74460875981745
 30
0.0
 40
0.1999993011168035
100
AcDbArc
 50
89.9999999999999
 51
201.4385281727847
  0
ARC
  5
27E
330
60
100
AcDbEntity
  8
0
  6
Continuous
 62
     0
100
AcDbCircle
 10
-260.7623268348057
 20
96.74460875981745
 30
0.0
 40
0.1999993011168035
100
AcDbArc
 50
338.5614718272152
 51
89.99999999999994
  0
ARC
  5
27F
330
60
100
AcDbEntity
  8
0
  6
Continuous
 62
    20
100
AcDbCircle
 10
-259.5373210360783
 20
92.8946071866256
 30
0.0
 40
0.0249998504049516
100
AcDbArc
 50
90.00000000000188
 51
180.0000000000019
  0
ARC
  5
280
330
60
100
AcDbEntity
  8
0
  6
Continuous
 62
    20
100
AcDbCircle
 10
-257.5873327044921
 20
92.89460718662568
 30
0.0
 40
0.0249998504049516
100
AcDbArc
 50
0.000000000001883
 51
90.00000000000188
  0
ARC
  5
281
330
60
100
AcDbEntity
  8
0
  6
Continuous
 62
    20
100
AcDbCircle
 10
-265.2831176058755
 20
101.9914099958191
 30
0.0
 40
0.0249998504049515
100
AcDbArc
 50
129.0000000000047
 51
219.0000000000001
  0
ARC
  5
282
330
60
100
AcDbEntity
  8
0
  6
Continuous
 62
    20
100
AcDbCircle
 10
-264.5279376554901
 20
101.0588404224158
 30
0.0
 40
0.0249998504049515
100
AcDbArc
 50
219.0000000000026
 51
309.0000000000001
  0
ARC
  5
283
330
60
100
AcDbEntity
  8
0
  6
Continuous
 62
    20
100
AcDbCircle
 10
-260.8123134067311
 20
101.944553033218
 30
0.0
 40
1.624990276321855
100
AcDbArc
 50
0.000000000001934
 51
129.0000000000019
  0
ARC
  5
284
330
60
100
AcDbEntity
  8
0
  6
Continuous
 62
    20
100
AcDbCircle
 10
-260.8123134067311
 20
101.944553033218
 30
0.0
 40
2.874982796569437
100
AcDbArc
 50
0.000000000001934
 51
129.0000000000019
  0
ENDBLK
  5
62
330
60
100
AcDbEntity
  8
0
100
AcDbBlockEnd
  0
BLOCK
  5
64
330
63
100
AcDbEntity
  8
0
100
AcDbBlockBegin
  2
VIS-ULNS3CRN0012
 70
     0
 10
0.0
 20
0.0
 30
0.0
  3
VIS-ULNS3CRN0012
  1

  0
LINE
  5
285
330
63
100
AcDbEntity
  8
0
  6
Continuous
 62
    20
100
AcDbLine
 10
-287.512326870285
 20
91.46960838338615
 30
0.0
 11
-253.112326870285
 21
91.46960838338615
 31
0.0
  0
LINE
  5
286
330
63
100
AcDbEntity
  8
0
  6
Continuous
 62
    20
100
AcDbLine
 10
-288.1623268702851
 20
61.64460838338607
 30
0.0
 11
-270.362326870285
 21
61.64460838338607
 31
0.0
  0
LINE
  5
287
330
63
100
AcDbEntity
  8
0
  6
Continuous
 62
    20
100
AcDbLine
 10
-288.1623268702851
 20
91.1446083833861
 30
0.0
 11
-288.1623268702851
 21
61.64460838338607
 31
0.0
  0
LINE
  5
288
330
63
100
AcDbEntity
  8
0
  6
Continuous
 62
    20
100
AcDbLine
 10
-270.3623268702851
 20
61.64460838338607
 30
0.0
 11
-270.3623268702851
 21
91.1446083833861
 31
0.0
  0
LINE
  5
289
330
63
100
AcDbEntity
  8
0
  6
Continuous
 62
    20
100
AcDbLine
 10
-287.5123268702851
 20
91.49460838338612
 30
0.0
 11
-287.5123268702851
 21
91.39434438338611
 31
0.0
  0
LINE
  5
28A
330
63
100
AcDbEntity
  8
0
  6
Continuous
 62
    20
100
AcDbLine
 10
-288.2623268702851
 20
91.49460838338612
 30
0.0
 11
-288.2623268702851
 21
55.19460838338614
 31
0.0
  0
LINE
  5
28B
330
63
100
AcDbEntity
  8
0
  6
Continuous
 62
    20
100
AcDbLine
 10
-270.262326870285
 20
55.19460838338611
 30
0.0
 11
-288.262326870285
 21
55.19460838338611
 31
0.0
  0
LINE
  5
28C
330
63
100
AcDbEntity
  8
0
  6
Continuous
 62
    20
100
AcDbLine
 10
-270.362326870285
 20
91.3946083833861
 30
0.0
 11
-288.1623268702851
 21
91.3946083833861
 31
0.0
  0
LINE
  5
28D
330
63
100
AcDbEntity
  8
0
  6
Continuous
 62
    20
100
AcDbLine
 10
-288.1623268702851
 20
91.3946083833861
 30
0.0
 11
-288.1623268702851
 21
61.64460838338607
 31
0.0
  0
LINE
  5
28E
330
63
100
AcDbEntity
  8
0
  6
Continuous
 62
    20
100
AcDbLine
 10
-288.1623268702851
 20
61.64460838338607
 30
0.0
 11
-270.362326870285
 21
61.64460838338607
 31
0.0
  0
LINE
  5
28F
330
63
100
AcDbEntity
  8
0
  6
Continuous
 62
    20
100
AcDbLine
 10
-270.3623268702851
 20
61.64460838338607
 30
0.0
 11
-270.3623268702851
 21
91.3946083833861
 31
0.0
  0
LINE
  5
290
330
63
100
AcDbEntity
  8
0
  6
Continuous
 62
    20
100
AcDbLine
 10
-287.512326870285
 20
91.49460838338612
 30
0.0
 11
-288.262326870285
 21
91.49460838338612
 31
0.0
  0
LINE
  5
291
330
63
100
AcDbEntity
  8
0
  6
Continuous
 62
    20
100
AcDbLine
 10
-270.262326870285
 20
55.44460838338611
 30
0.0
 11
-288.262326870285
 21
55.44460838338611
 31
0.0
  0
LINE
  5
292
330
63
100
AcDbEntity
  8
0
  6
Continuous
 62
    20
100
AcDbLine
 10
-270.262326870285
 20
61.54460838338611
 30
0.0
 11
-288.262326870285
 21
61.54460838338611
 31
0.0
  0
LINE
  5
293
330
63
100
AcDbEntity
  8
0
  6
Continuous
 62
    20
100
AcDbLine
 10
-253.112326870285
 20
91.49460838338612
 30
0.0
 11
-252.362326870285
 21
91.49460838338612
 31
0.0
  0
LINE
  5
294
330
63
100
AcDbEntity
  8
0
  6
Continuous
 62
    20
100
AcDbLine
 10
-270.362326870285
 20
61.54460838338611
 30
0.0
 11
-252.362326870285
 21
61.54460838338611
 31
0.0
  0
LINE
  5
295
330
63
100
AcDbEntity
  8
0
  6
Continuous
 62
    20
100
AcDbLine
 10
-270.362326870285
 20
55.44460838338611
 30
0.0
 11
-252.362326870285
 21
55.44460838338611
 31
0.0
  0
LINE
  5
296
330
63
100
AcDbEntity
  8
0
  6
Continuous
 62
    20
100
AcDbLine
 10
-270.262326870285
 20
61.64460838338607
 30
0.0
 11
-270.262326870285
 21
91.1446083833861
 31
0.0
  0
LINE
  5
297
330
63
100
AcDbEntity
  8
0
  6
Continuous
 62
    20
100
AcDbLine
 10
-252.462326870285
 20
61.64460838338607
 30
0.0
 11
-270.262326870285
 21
61.64460838338607
 31
0.0
  0
LINE
  5
298
330
63
100
AcDbEntity
  8
0
  6
Continuous
 62
    20
100
AcDbLine
 10
-252.462326870285
 20
91.1446083833861
 30
0.0
 11
-252.462326870285
 21
61.64460838338607
 31
0.0
  0
LINE
  5
299
330
63
100
AcDbEntity
  8
0
  6
Continuous
 62
    20
100
AcDbLine
 10
-270.362326870285
 20
55.19460838338611
 30
0.0
 11
-252.362326870285
 21
55.19460838338611
 31
0.0
  0
LINE
  5
29A
330
63
100
AcDbEntity
  8
0
  6
Continuous
 62
    20
100
AcDbLine
 10
-252.3623268702851
 20
91.49460838338612
 30
0.0
 11
-252.3623268702851
 21
55.19460838338614
 31
0.0
  0
LINE
  5
29B
330
63
100
AcDbEntity
  8
0
  6
Continuous
 62
    20
100
AcDbLine
 10
-253.1123268702851
 20
91.49460838338612
 30
0.0
 11
-253.1123268702851
 21
91.39434438338611
 31
0.0
  0
LINE
  5
29C
330
63
100
AcDbEntity
  8
0
  6
Continuous
 62
    20
100
AcDbLine
 10
-270.262326870285
 20
61.64460838338607
 30
0.0
 11
-270.262326870285
 21
91.3946083833861
 31
0.0
  0
LINE
  5
29D
330
63
100
AcDbEntity
  8
0
  6
Continuous
 62
    20
100
AcDbLine
 10
-270.262326870285
 20
91.3946083833861
 30
0.0
 11
-252.462326870285
 21
91.3946083833861
 31
0.0
  0
LINE
  5
29E
330
63
100
AcDbEntity
  8
0
  6
Continuous
 62
    20
100
AcDbLine
 10
-252.462326870285
 20
91.3946083833861
 30
0.0
 11
-252.462326870285
 21
61.64460838338607
 31
0.0
  0
LINE
  5
29F
330
63
100
AcDbEntity
  8
0
  6
Continuous
 62
    20
100
AcDbLine
 10
-252.462326870285
 20
61.64460838338607
 30
0.0
 11
-270.262326870285
 21
61.64460838338607
 31
0.0
  0
LINE
  5
2A0
330
63
100
AcDbEntity
  8
0
  6
CENTER
 62
     0
100
AcDbLine
 10
-286.4123268702851
 20
89.57160838338615
 30
0.0
 11
-286.4123268702851
 21
89.11760838338614
 31
0.0
  0
LINE
  5
2A1
330
63
100
AcDbEntity
  8
0
  6
CENTER
 62
     0
100
AcDbLine
 10
-286.6393268702851
 20
89.34460838338615
 30
0.0
 11
-286.1853268702851
 21
89.34460838338615
 31
0.0
  0
LINE
  5
2A2
330
63
100
AcDbEntity
  8
0
  6
CENTER
 62
     0
100
AcDbLine
 10
-254.212326870285
 20
89.57160838338615
 30
0.0
 11
-254.212326870285
 21
89.11760838338614
 31
0.0
  0
LINE
  5
2A3
330
63
100
AcDbEntity
  8
0
  6
CENTER
 62
     0
100
AcDbLine
 10
-254.439326870285
 20
89.34460838338615
 30
0.0
 11
-253.9853268702851
 21
89.34460838338615
 31
0.0
  0
LINE
  5
2A4
330
63
100
AcDbEntity
  8
0
  6
CENTER
 62
     0
100
AcDbLine
 10
-256.789326870285
 20
79.91960838338608
 30
0.0
 11
-256.3353268702851
 21
79.91960838338608
 31
0.0
  0
LINE
  5
2A5
330
63
100
AcDbEntity
  8
0
  6
CENTER
 62
     0
100
AcDbLine
 10
-256.5623268702851
 20
80.14660838338614
 30
0.0
 11
-256.5623268702851
 21
79.69260838338613
 31
0.0
  0
LINE
  5
2A6
330
63
100
AcDbEntity
  8
0
  6
CENTER
 62
     0
100
AcDbLine
 10
-255.9893268702851
 20
79.91960838338608
 30
0.0
 11
-255.5353268702851
 21
79.91960838338608
 31
0.0
  0
LINE
  5
2A7
330
63
100
AcDbEntity
  8
0
  6
CENTER
 62
     0
100
AcDbLine
 10
-255.7623268702851
 20
80.14660838338614
 30
0.0
 11
-255.7623268702851
 21
79.69260838338613
 31
0.0
  0
LINE
  5
2A8
330
63
100
AcDbEntity
  8
0
  6
CENTER
 62
     0
100
AcDbLine
 10
-255.6393268702851
 20
84.79460838338612
 30
0.0
 11
-255.1853268702851
 21
84.79460838338612
 31
0.0
  0
LINE
  5
2A9
330
63
100
AcDbEntity
  8
0
  6
CENTER
 62
     0
100
AcDbLine
 10
-255.4123268702851
 20
85.02160838338615
 30
0.0
 11
-255.4123268702851
 21
84.56760838338614
 31
0.0
  0
LINE
  5
2AA
330
63
100
AcDbEntity
  8
0
  6
CENTER
 62
     0
100
AcDbLine
 10
-253.5123268702851
 20
85.02160838338615
 30
0.0
 11
-253.5123268702851
 21
84.56760838338614
 31
0.0
  0
LINE
  5
2AB
330
63
100
AcDbEntity
  8
0
  6
CENTER
 62
     0
100
AcDbLine
 10
-253.7393268702851
 20
84.79460838338612
 30
0.0
 11
-253.2853268702851
 21
84.79460838338612
 31
0.0
  0
LINE
  5
2AC
330
63
100
AcDbEntity
  8
0
  6
CENTER
 62
     0
100
AcDbLine
 10
-254.462326870285
 20
83.87160838338615
 30
0.0
 11
-254.462326870285
 21
83.41760838338614
 31
0.0
  0
LINE
  5
2AD
330
63
100
AcDbEntity
  8
0
  6
CENTER
 62
     0
100
AcDbLine
 10
-254.689326870285
 20
83.6446083833861
 30
0.0
 11
-254.2353268702851
 21
83.6446083833861
 31
0.0
  0
LINE
  5
2AE
330
63
100
AcDbEntity
  8
0
  6
CENTER
 62
     0
100
AcDbLine
 10
-268.5840205220118
 20
78.19210291408834
 30
0.0
 11
-268.1300205220119
 21
78.19210291408834
 31
0.0
  0
LINE
  5
2AF
330
63
100
AcDbEntity
  8
0
  6
CENTER
 62
     0
100
AcDbLine
 10
-268.3570205220119
 20
78.41910291408837
 30
0.0
 11
-268.3570205220119
 21
77.96510291408836
 31
0.0
  0
CIRCLE
  5
2B0
330
63
100
AcDbEntity
  8
0
  6
DASHED
 62
     0
100
AcDbCircle
 10
-286.4123268702851
 20
89.34460838338615
 30
0.0
 40
0.1
  0
CIRCLE
  5
2B1
330
63
100
AcDbEntity
  8
0
  6
DASHED
 62
     0
100
AcDbCircle
 10
-254.212326870285
 20
89.34460838338615
 30
0.0
 40
0.1
  0
CIRCLE
  5
2B2
330
63
100
AcDbEntity
  8
0
  6
DASHED
 62
     0
100
AcDbCircle
 10
-256.5623268702851
 20
79.91960838338608
 30
0.0
 40
0.1
  0
CIRCLE
  5
2B3
330
63
100
AcDbEntity
  8
0
  6
DASHED
 62
     0
100
AcDbCircle
 10
-255.7623268702851
 20
79.91960838338608
 30
0.0
 40
0.1
  0
CIRCLE
  5
2B4
330
63
100
AcDbEntity
  8
0
  6
DASHED
 62
     0
100
AcDbCircle
 10
-255.4123268702851
 20
84.79460838338612
 30
0.0
 40
0.1
  0
CIRCLE
  5
2B5
330
63
100
AcDbEntity
  8
0
  6
DASHED
 62
     0
100
AcDbCircle
 10
-253.5123268702851
 20
84.79460838338612
 30
0.0
 40
0.1
  0
CIRCLE
  5
2B6
330
63
100
AcDbEntity
  8
0
  6
DASHED
 62
     0
100
AcDbCircle
 10
-254.462326870285
 20
83.6446083833861
 30
0.0
 40
0.1
  0
CIRCLE
  5
2B7
330
63
100
AcDbEntity
  8
0
  6
DASHED
 62
     0
100
AcDbCircle
 10
-268.3570205220119
 20
78.19210291408834
 30
0.0
 40
0.1
  0
ENDBLK
  5
65
330
63
100
AcDbEntity
  8
0
100
AcDbBlockEnd
  0
BLOCK
  5
67
330
66
100
AcDbEntity
  8
0
100
AcDbBlockBegin
  2
VIS-ULNS3CRN0013
 70
     0
 10
0.0
 20
0.0
 30
0.0
  3
VIS-ULNS3CRN0013
  1

  0
LINE
  5
2B8
330
66
100
AcDbEntity
  8
0
  6
Continuous
 62
    20
100
AcDbLine
 10
-321.4873268702849
 20
91.46960838338609
 30
0.0
 11
-321.4873268702849
 21
90.944608383386
 31
0.0
  0
LINE
  5
2B9
330
66
100
AcDbEntity
  8
0
  6
Continuous
 62
    20
100
AcDbLine
 10
-323.737326870285
 20
90.944608383386
 30
0.0
 11
-323.737326870285
 21
91.46960838338609
 31
0.0
  0
LINE
  5
2BA
330
66
100
AcDbEntity
  8
0
  6
Continuous
 62
    20
100
AcDbLine
 10
-323.6873268702847
 20
90.8946083833858
 30
0.0
 11
-323.4873268702849
 21
90.8946083833858
 31
0.0
  0
LINE
  5
2BB
330
66
100
AcDbEntity
  8
0
  6
Continuous
 62
    20
100
AcDbLine
 10
-321.5373268702847
 20
90.8946083833858
 30
0.0
 11
-321.737326870285
 21
90.8946083833858
 31
0.0
  0
LINE
  5
2BC
330
66
100
AcDbEntity
  8
0
  6
Continuous
 62
    20
100
AcDbLine
 10
-323.0623268702848
 20
90.8946083833858
 30
0.0
 11
-323.487326870285
 21
90.8946083833858
 31
0.0
  0
LINE
  5
2BD
330
66
100
AcDbEntity
  8
0
  6
Continuous
 62
    20
100
AcDbLine
 10
-321.737326870285
 20
90.8946083833858
 30
0.0
 11
-322.1623268702847
 21
90.8946083833858
 31
0.0
  0
LINE
  5
2BE
330
66
100
AcDbEntity
  8
0
  6
Continuous
 62
    20
100
AcDbLine
 10
-323.7123268702848
 20
91.49460838338582
 30
0.0
 11
-323.4873268702849
 21
91.49460838338582
 31
0.0
  0
LINE
  5
2BF
330
66
100
AcDbEntity
  8
0
  6
Continuous
 62
    20
100
AcDbLine
 10
-323.487326870285
 20
91.49460838338582
 30
0.0
 11
-321.737326870285
 21
91.49460838338582
 31
0.0
  0
LINE
  5
2C0
330
66
100
AcDbEntity
  8
0
  6
Continuous
 62
    20
100
AcDbLine
 10
-321.5123268702847
 20
91.49460838338582
 30
0.0
 11
-321.737326870285
 21
91.49460838338582
 31
0.0
  0
LINE
  5
2C1
330
66
100
AcDbEntity
  8
0
  6
Continuous
 62
    20
100
AcDbLine
 10
-322.9873268702852
 20
87.74717423762965
 30
0.0
 11
-322.9873268702852
 21
90.81960838338554
 31
0.0
  0
LINE
  5
2C2
330
66
100
AcDbEntity
  8
0
  6
Continuous
 62
    20
100
AcDbLine
 10
-322.2373268702854
 20
90.81960838338554
 30
0.0
 11
-322.2373268702854
 21
87.74717423762965
 31
0.0
  0
LINE
  5
2C3
330
66
100
AcDbEntity
  8
0
  6
Continuous
 62
    20
100
AcDbLine
 10
-321.4873268702849
 20
90.944608383386
 30
0.0
 11
-321.4873268702849
 21
90.49460838338572
 31
0.0
  0
LINE
  5
2C4
330
66
100
AcDbEntity
  8
0
  6
Continuous
 62
    20
100
AcDbLine
 10
-323.737326870285
 20
90.49460838338572
 30
0.0
 11
-323.737326870285
 21
90.944608383386
 31
0.0
  0
LINE
  5
2C5
330
66
100
AcDbEntity
  8
0
  6
Continuous
 62
    20
100
AcDbLine
 10
-323.737326870285
 20
86.244608181059
 30
0.0
 11
-323.737326870285
 21
90.49460838338572
 31
0.0
  0
LINE
  5
2C6
330
66
100
AcDbEntity
  8
0
  6
Continuous
 62
    20
100
AcDbLine
 10
-321.6373268702842
 20
86.09460838338592
 30
0.0
 11
-323.5873268702849
 21
86.09460838338592
 31
0.0
  0
LINE
  5
2C7
330
66
100
AcDbEntity
  8
0
  6
Continuous
 62
    20
100
AcDbLine
 10
-321.4873268702849
 20
90.49460838338572
 30
0.0
 11
-321.4873268702849
 21
86.244608181059
 31
0.0
  0
LINE
  5
2C8
330
66
100
AcDbEntity
  8
0
  6
Continuous
 62
     0
100
AcDbLine
 10
-323.3623268702851
 20
88.8799637224451
 30
0.0
 11
-323.2739385226368
 21
88.96835207009342
 31
0.0
  0
LINE
  5
2C9
330
66
100
AcDbEntity
  8
0
  6
Continuous
 62
     0
100
AcDbLine
 10
-323.3623268702852
 20
88.80925304432647
 30
0.0
 11
-323.2739385226369
 21
88.72086469667813
 31
0.0
  0
LINE
  5
2CA
330
66
100
AcDbEntity
  8
0
  6
Continuous
 62
     0
100
AcDbLine
 10
-323.2739385226369
 20
88.9683520700935
 30
0.0
 11
-323.2385831835775
 21
88.93299673103412
 31
0.0
  0
LINE
  5
2CB
330
66
100
AcDbEntity
  8
0
  6
Continuous
 62
     0
100
AcDbLine
 10
-323.3269715312258
 20
88.84460838338572
 30
0.0
 11
-323.2385831835774
 21
88.75622003573739
 31
0.0
  0
LINE
  5
2CC
330
66
100
AcDbEntity
  8
0
  6
Continuous
 62
     0
100
AcDbLine
 10
-323.3269715312259
 20
88.84460838338575
 30
0.0
 11
-323.2385831835776
 21
88.93299673103407
 31
0.0
  0
LINE
  5
2CD
330
66
100
AcDbEntity
  8
0
  6
Continuous
 62
     0
100
AcDbLine
 10
-323.4507152179335
 20
88.72086469667809
 30
0.0
 11
-323.3623268702852
 21
88.80925304432641
 31
0.0
  0
LINE
  5
2CE
330
66
100
AcDbEntity
  8
0
  6
Continuous
 62
     0
100
AcDbLine
 10
-323.4860705569928
 20
88.93299673103415
 30
0.0
 11
-323.3976822093446
 21
88.84460838338585
 31
0.0
  0
LINE
  5
2CF
330
66
100
AcDbEntity
  8
0
  6
Continuous
 62
     0
100
AcDbLine
 10
-323.4507152179334
 20
88.96835207009332
 30
0.0
 11
-323.362326870285
 21
88.87996372244501
 31
0.0
  0
LINE
  5
2D0
330
66
100
AcDbEntity
  8
0
  6
Continuous
 62
     0
100
AcDbLine
 10
-323.4860705569926
 20
88.93299673103398
 30
0.0
 11
-323.4507152179332
 21
88.96835207009332
 31
0.0
  0
LINE
  5
2D1
330
66
100
AcDbEntity
  8
0
  6
Continuous
 62
     0
100
AcDbLine
 10
-323.2739385226365
 20
88.72086469667815
 30
0.0
 11
-323.2385831835772
 21
88.75622003573748
 31
0.0
  0
LINE
  5
2D2
330
66
100
AcDbEntity
  8
0
  6
Continuous
 62
     0
100
AcDbLine
 10
-323.4860705569929
 20
88.75622003573748
 30
0.0
 11
-323.4507152179336
 21
88.72086469667819
 31
0.0
  0
LINE
  5
2D3
330
66
100
AcDbEntity
  8
0
  6
Continuous
 62
     0
100
AcDbLine
 10
-323.4860705569928
 20
88.75622003573744
 30
0.0
 11
-323.3976822093445
 21
88.84460838338576
 31
0.0
  0
LINE
  5
2D4
330
66
100
AcDbEntity
  8
0
  6
Continuous
 62
     0
100
AcDbLine
 10
-323.362326870285
 20
90.12996372244504
 30
0.0
 11
-323.2739385226366
 21
90.21835207009336
 31
0.0
  0
LINE
  5
2D5
330
66
100
AcDbEntity
  8
0
  6
Continuous
 62
     0
100
AcDbLine
 10
-323.3623268702851
 20
90.05925304432647
 30
0.0
 11
-323.2739385226367
 21
89.97086469667813
 31
0.0
  0
LINE
  5
2D6
330
66
100
AcDbEntity
  8
0
  6
Continuous
 62
     0
100
AcDbLine
 10
-323.2739385226369
 20
90.21835207009356
 30
0.0
 11
-323.2385831835775
 21
90.18299673103418
 31
0.0
  0
LINE
  5
2D7
330
66
100
AcDbEntity
  8
0
  6
Continuous
 62
     0
100
AcDbLine
 10
-323.3269715312257
 20
90.0946083833858
 30
0.0
 11
-323.2385831835774
 21
90.00622003573747
 31
0.0
  0
LINE
  5
2D8
330
66
100
AcDbEntity
  8
0
  6
Continuous
 62
     0
100
AcDbLine
 10
-323.3269715312257
 20
90.09460838338548
 30
0.0
 11
-323.2385831835774
 21
90.1829967310338
 31
0.0
  0
LINE
  5
2D9
330
66
100
AcDbEntity
  8
0
  6
Continuous
 62
     0
100
AcDbLine
 10
-323.4507152179334
 20
89.97086469667782
 30
0.0
 11
-323.362326870285
 21
90.05925304432614
 31
0.0
  0
LINE
  5
2DA
330
66
100
AcDbEntity
  8
0
  6
Continuous
 62
     0
100
AcDbLine
 10
-323.4860705569927
 20
90.18299673103407
 30
0.0
 11
-323.3976822093443
 21
90.09460838338576
 31
0.0
  0
LINE
  5
2DB
330
66
100
AcDbEntity
  8
0
  6
Continuous
 62
     0
100
AcDbLine
 10
-323.4507152179334
 20
90.21835207009349
 30
0.0
 11
-323.3623268702851
 21
90.12996372244518
 31
0.0
  0
LINE
  5
2DC
330
66
100
AcDbEntity
  8
0
  6
Continuous
 62
     0
100
AcDbLine
 10
-323.4860705569927
 20
90.18299673103401
 30
0.0
 11
-323.4507152179334
 21
90.21835207009335
 31
0.0
  0
LINE
  5
2DD
330
66
100
AcDbEntity
  8
0
  6
Continuous
 62
     0
100
AcDbLine
 10
-323.273938522637
 20
89.97086469667809
 30
0.0
 11
-323.2385831835776
 21
90.00622003573743
 31
0.0
  0
LINE
  5
2DE
330
66
100
AcDbEntity
  8
0
  6
Continuous
 62
     0
100
AcDbLine
 10
-323.4860705569929
 20
90.00622003573754
 30
0.0
 11
-323.4507152179335
 21
89.97086469667816
 31
0.0
  0
LINE
  5
2DF
330
66
100
AcDbEntity
  8
0
  6
Continuous
 62
     0
100
AcDbLine
 10
-323.4860705569926
 20
90.0062200357374
 30
0.0
 11
-323.3976822093443
 21
90.0946083833857
 31
0.0
  0
LINE
  5
2E0
330
66
100
AcDbEntity
  8
0
  6
Continuous
 62
     0
100
AcDbLine
 10
-321.8623268702853
 20
90.12996372244503
 30
0.0
 11
-321.773938522637
 21
90.21835207009335
 31
0.0
  0
LINE
  5
2E1
330
66
100
AcDbEntity
  8
0
  6
Continuous
 62
     0
100
AcDbLine
 10
-321.8623268702854
 20
90.05925304432658
 30
0.0
 11
-321.7739385226371
 21
89.97086469667828
 31
0.0
  0
LINE
  5
2E2
330
66
100
AcDbEntity
  8
0
  6
Continuous
 62
     0
100
AcDbLine
 10
-321.7739385226372
 20
90.21835207009347
 30
0.0
 11
-321.7385831835778
 21
90.1829967310341
 31
0.0
  0
LINE
  5
2E3
330
66
100
AcDbEntity
  8
0
  6
Continuous
 62
     0
100
AcDbLine
 10
-321.8269715312258
 20
90.09460838338579
 30
0.0
 11
-321.7385831835775
 21
90.00622003573748
 31
0.0
  0
LINE
  5
2E4
330
66
100
AcDbEntity
  8
0
  6
Continuous
 62
     0
100
AcDbLine
 10
-321.8269715312259
 20
90.0946083833857
 30
0.0
 11
-321.7385831835775
 21
90.18299673103402
 31
0.0
  0
LINE
  5
2E5
330
66
100
AcDbEntity
  8
0
  6
Continuous
 62
     0
100
AcDbLine
 10
-321.9507152179335
 20
89.97086469667805
 30
0.0
 11
-321.8623268702852
 21
90.05925304432637
 31
0.0
  0
LINE
  5
2E6
330
66
100
AcDbEntity
  8
0
  6
Continuous
 62
     0
100
AcDbLine
 10
-321.986070556993
 20
90.18299673103421
 30
0.0
 11
-321.8976822093447
 21
90.09460838338588
 31
0.0
  0
LINE
  5
2E7
330
66
100
AcDbEntity
  8
0
  6
Continuous
 62
     0
100
AcDbLine
 10
-321.9507152179335
 20
90.2183520700935
 30
0.0
 11
-321.8623268702852
 21
90.12996372244517
 31
0.0
  0
LINE
  5
2E8
330
66
100
AcDbEntity
  8
0
  6
Continuous
 62
     0
100
AcDbLine
 10
-321.9860705569931
 20
90.18299673103398
 30
0.0
 11
-321.9507152179338
 21
90.21835207009332
 31
0.0
  0
LINE
  5
2E9
330
66
100
AcDbEntity
  8
0
  6
Continuous
 62
     0
100
AcDbLine
 10
-321.7739385226371
 20
89.97086469667802
 30
0.0
 11
-321.7385831835777
 21
90.00622003573736
 31
0.0
  0
LINE
  5
2EA
330
66
100
AcDbEntity
  8
0
  6
Continuous
 62
     0
100
AcDbLine
 10
-321.9860705569929
 20
90.00622003573747
 30
0.0
 11
-321.9507152179336
 21
89.97086469667818
 31
0.0
  0
LINE
  5
2EB
330
66
100
AcDbEntity
  8
0
  6
Continuous
 62
     0
100
AcDbLine
 10
-321.986070556993
 20
90.00622003573737
 30
0.0
 11
-321.8976822093447
 21
90.09460838338569
 31
0.0
  0
LINE
  5
2EC
330
66
100
AcDbEntity
  8
0
  6
Continuous
 62
     0
100
AcDbLine
 10
-321.8623268702854
 20
88.8799637224451
 30
0.0
 11
-321.773938522637
 21
88.96835207009342
 31
0.0
  0
LINE
  5
2ED
330
66
100
AcDbEntity
  8
0
  6
Continuous
 62
     0
100
AcDbLine
 10
-321.8623268702853
 20
88.80925304432654
 30
0.0
 11
-321.773938522637
 21
88.7208646966782
 31
0.0
  0
LINE
  5
2EE
330
66
100
AcDbEntity
  8
0
  6
Continuous
 62
     0
100
AcDbLine
 10
-321.773938522637
 20
88.96835207009356
 30
0.0
 11
-321.7385831835776
 21
88.93299673103427
 31
0.0
  0
LINE
  5
2EF
330
66
100
AcDbEntity
  8
0
  6
Continuous
 62
     0
100
AcDbLine
 10
-321.826971531226
 20
88.8446083833858
 30
0.0
 11
-321.7385831835777
 21
88.75622003573747
 31
0.0
  0
LINE
  5
2F0
330
66
100
AcDbEntity
  8
0
  6
Continuous
 62
     0
100
AcDbLine
 10
-321.8269715312261
 20
88.84460838338575
 30
0.0
 11
-321.7385831835778
 21
88.93299673103405
 31
0.0
  0
LINE
  5
2F1
330
66
100
AcDbEntity
  8
0
  6
Continuous
 62
     0
100
AcDbLine
 10
-321.9507152179337
 20
88.72086469667809
 30
0.0
 11
-321.8623268702855
 21
88.80925304432641
 31
0.0
  0
LINE
  5
2F2
330
66
100
AcDbEntity
  8
0
  6
Continuous
 62
     0
100
AcDbLine
 10
-321.986070556993
 20
88.93299673103422
 30
0.0
 11
-321.8976822093447
 21
88.84460838338592
 31
0.0
  0
LINE
  5
2F3
330
66
100
AcDbEntity
  8
0
  6
Continuous
 62
     0
100
AcDbLine
 10
-321.9507152179336
 20
88.9683520700934
 30
0.0
 11
-321.8623268702854
 21
88.8799637224451
 31
0.0
  0
LINE
  5
2F4
330
66
100
AcDbEntity
  8
0
  6
Continuous
 62
     0
100
AcDbLine
 10
-321.9860705569928
 20
88.93299673103397
 30
0.0
 11
-321.9507152179335
 21
88.9683520700933
 31
0.0
  0
LINE
  5
2F5
330
66
100
AcDbEntity
  8
0
  6
Continuous
 62
     0
100
AcDbLine
 10
-321.7739385226369
 20
88.72086469667803
 30
0.0
 11
-321.7385831835775
 21
88.75622003573737
 31
0.0
  0
LINE
  5
2F6
330
66
100
AcDbEntity
  8
0
  6
Continuous
 62
     0
100
AcDbLine
 10
-321.986070556993
 20
88.75622003573764
 30
0.0
 11
-321.9507152179336
 21
88.72086469667826
 31
0.0
  0
LINE
  5
2F7
330
66
100
AcDbEntity
  8
0
  6
Continuous
 62
     0
100
AcDbLine
 10
-321.986070556993
 20
88.75622003573744
 30
0.0
 11
-321.8976822093447
 21
88.84460838338576
 31
0.0
  0
ARC
  5
2F8
330
66
100
AcDbEntity
  8
0
  6
Continuous
 62
    20
100
AcDbCircle
 10
-323.0623268702852
 20
90.8196083833856
 30
0.0
 40
0.075
100
AcDbArc
 50
66.642862
 51
90.0
  0
ARC
  5
2F9
330
66
100
AcDbEntity
  8
0
  6
Continuous
 62
    20
100
AcDbCircle
 10
-323.6873268702851
 20
90.94460838338576
 30
0.0
 40
0.05
100
AcDbArc
 50
180.0
 51
270.0
  0
ARC
  5
2FA
330
66
100
AcDbEntity
  8
0
  6
Continuous
 62
    20
100
AcDbCircle
 10
-321.5373268702849
 20
90.94460838338576
 30
0.0
 40
0.05
100
AcDbArc
 50
270.0
 51
0.0
  0
ARC
  5
2FB
330
66
100
AcDbEntity
  8
0
  6
Continuous
 62
    20
100
AcDbCircle
 10
-323.712326870285
 20
91.46960838338585
 30
0.0
 40
0.025
100
AcDbArc
 50
90.0
 51
180.0
  0
ARC
  5
2FC
330
66
100
AcDbEntity
  8
0
  6
Continuous
 62
    20
100
AcDbCircle
 10
-322.1623268702849
 20
90.8196083833856
 30
0.0
 40
0.075
100
AcDbArc
 50
90.0
 51
113.357138
  0
ARC
  5
2FD
330
66
100
AcDbEntity
  8
0
  6
Continuous
 62
    20
100
AcDbCircle
 10
-321.5123268702849
 20
91.46960838338585
 30
0.0
 40
0.025
100
AcDbArc
 50
0.0
 51
90.0
  0
ARC
  5
2FE
330
66
100
AcDbEntity
  8
0
  6
Continuous
 62
    20
100
AcDbCircle
 10
-323.0623268702852
 20
90.8196083833856
 30
0.0
 40
0.0750000000000215
100
AcDbArc
 50
0.0
 51
66.642862
  0
ARC
  5
2FF
330
66
100
AcDbEntity
  8
0
  6
Continuous
 62
    20
100
AcDbCircle
 10
-322.1623268702849
 20
90.8196083833856
 30
0.0
 40
0.075000000000016
100
AcDbArc
 50
113.357138
 51
180.0
  0
ARC
  5
300
330
66
100
AcDbEntity
  8
0
  6
Continuous
 62
    20
100
AcDbCircle
 10
-321.6373268702848
 20
86.24460838338578
 30
0.0
 40
0.15
100
AcDbArc
 50
270.0
 51
0.0
  0
ARC
  5
301
330
66
100
AcDbEntity
  8
0
  6
Continuous
 62
    20
100
AcDbCircle
 10
-323.5873268702852
 20
86.24460838338578
 30
0.0
 40
0.15
100
AcDbArc
 50
180.0
 51
270.0
  0
CIRCLE
  5
302
330
66
100
AcDbEntity
  8
0
  6
Continuous
 62
     0
100
AcDbCircle
 10
-323.3623268702851
 20
88.8446083833858
 30
0.0
 40
0.295
  0
CIRCLE
  5
303
330
66
100
AcDbEntity
  8
0
  6
Continuous
 62
     0
100
AcDbCircle
 10
-323.3623268702851
 20
90.0946083833858
 30
0.0
 40
0.295
  0
CIRCLE
  5
304
330
66
100
AcDbEntity
  8
0
  6
Continuous
 62
     0
100
AcDbCircle
 10
-321.8623268702854
 20
90.0946083833858
 30
0.0
 40
0.295
  0
CIRCLE
  5
305
330
66
100
AcDbEntity
  8
0
  6
Continuous
 62
     0
100
AcDbCircle
 10
-321.8623268702854
 20
88.8446083833858
 30
0.0
 40
0.295
  0
ENDBLK
  5
68
330
66
100
AcDbEntity
  8
0
100
AcDbBlockEnd
  0
BLOCK
  5
6A
330
69
100
AcDbEntity
  8
0
100
AcDbBlockBegin
  2
VIS-ULNS3CRN0014
 70
     0
 10
0.0
 20
0.0
 30
0.0
  3
VIS-ULNS3CRN0014
  1

  0
LINE
  5
306
330
69
100
AcDbEntity
  8
0
  6
Continuous
 62
    20
100
AcDbLine
 10
-363.662326870285
 20
90.9446083833863
 30
0.0
 11
-363.662326870285
 21
90.9310563159428
 31
0.0
  0
LINE
  5
307
330
69
100
AcDbEntity
  8
0
  6
Continuous
 62
    20
100
AcDbLine
 10
-373.6123268702846
 20
90.8946083833861
 30
0.0
 11
-374.2123268702845
 21
90.8946083833861
 31
0.0
  0
LINE
  5
308
330
69
100
AcDbEntity
  8
0
  6
Continuous
 62
    20
100
AcDbLine
 10
-370.3623268702846
 20
90.8946083833861
 30
0.0
 11
-373.6123268702846
 21
90.8946083833861
 31
0.0
  0
LINE
  5
309
330
69
100
AcDbEntity
  8
0
  6
Continuous
 62
    20
100
AcDbLine
 10
-363.9123268702844
 20
90.8946083833861
 30
0.0
 11
-370.3623268702846
 21
90.8946083833861
 31
0.0
  0
LINE
  5
30A
330
69
100
AcDbEntity
  8
0
  6
Continuous
 62
    20
100
AcDbLine
 10
-363.9123268702844
 20
91.49460838338612
 30
0.0
 11
-363.6873268702845
 21
91.49460838338612
 31
0.0
  0
LINE
  5
30B
330
69
100
AcDbEntity
  8
0
  6
Continuous
 62
    20
100
AcDbLine
 10
-363.7123268702846
 20
90.8946083833861
 30
0.0
 11
-363.9123268702844
 21
90.8946083833861
 31
0.0
  0
LINE
  5
30C
330
69
100
AcDbEntity
  8
0
  6
Continuous
 62
    20
100
AcDbLine
 10
-374.6123268702844
 20
86.14460845082927
 30
0.0
 11
-374.6123268702844
 21
87.5446083833862
 31
0.0
  0
LINE
  5
30D
330
69
100
AcDbEntity
  8
0
  6
Continuous
 62
    20
100
AcDbLine
 10
-375.3623268702849
 20
87.5446083833862
 30
0.0
 11
-375.3623268702849
 21
91.46960838338639
 31
0.0
  0
LINE
  5
30E
330
69
100
AcDbEntity
  8
0
  6
Continuous
 62
    20
100
AcDbLine
 10
-375.3623268702849
 20
86.11960841710768
 30
0.0
 11
-375.3623268702849
 21
87.5446083833862
 31
0.0
  0
LINE
  5
30F
330
69
100
AcDbEntity
  8
0
  6
Continuous
 62
    20
100
AcDbLine
 10
-374.6623268702843
 20
86.09460838338612
 30
0.0
 11
-375.3373268702845
 21
86.09460838338612
 31
0.0
  0
LINE
  5
310
330
69
100
AcDbEntity
  8
0
  6
Continuous
 62
    20
100
AcDbLine
 10
-363.662326870285
 20
91.46960838338639
 30
0.0
 11
-363.662326870285
 21
90.93208784264564
 31
0.0
  0
LINE
  5
311
330
69
100
AcDbEntity
  8
0
  6
Continuous
 62
    20
100
AcDbLine
 10
-375.3373268702845
 20
91.49460838338612
 30
0.0
 11
-363.9123268702844
 21
91.49460838338612
 31
0.0
  0
LINE
  5
312
330
69
100
AcDbEntity
  8
0
  6
Continuous
 62
    20
100
AcDbLine
 10
-374.6123268702844
 20
90.49460838338602
 30
0.0
 11
-374.6123268702844
 21
87.5446083833862
 31
0.0
  0
LINE
  5
313
330
69
100
AcDbEntity
  8
0
  6
Continuous
 62
     0
100
AcDbLine
 10
-374.432453087794
 20
87.74717423762968
 30
0.0
 11
-363.6983016267828
 21
90.8840952125372
 31
0.0
  0
ARC
  5
314
330
69
100
AcDbEntity
  8
0
  6
Continuous
 62
    20
100
AcDbCircle
 10
-363.6873268702848
 20
91.46960838338615
 30
0.0
 40
0.025
100
AcDbArc
 50
0.0
 51
90.0
  0
ARC
  5
315
330
69
100
AcDbEntity
  8
0
  6
Continuous
 62
    20
100
AcDbCircle
 10
-363.7123268702849
 20
90.94460838338605
 30
0.0
 40
0.05
100
AcDbArc
 50
270.0
 51
0.0
  0
ARC
  5
316
330
69
100
AcDbEntity
  8
0
  6
Continuous
 62
    20
100
AcDbCircle
 10
-374.6623268702844
 20
86.14460838338607
 30
0.0
 40
0.05
100
AcDbArc
 50
270.0
 51
0.0
  0
ARC
  5
317
330
69
100
AcDbEntity
  8
0
  6
Continuous
 62
    20
100
AcDbCircle
 10
-375.3373268702849
 20
86.1196083833861
 30
0.0
 40
0.025
100
AcDbArc
 50
180.0
 51
270.0
  0
ARC
  5
318
330
69
100
AcDbEntity
  8
0
  6
Continuous
 62
    20
100
AcDbCircle
 10
-374.2123268702848
 20
90.49460838338618
 30
0.0
 40
0.4000000000000001
100
AcDbArc
 50
90.0
 51
180.0
  0
ARC
  5
319
330
69
100
AcDbEntity
  8
0
  6
Continuous
 62
    20
100
AcDbCircle
 10
-375.3373268702849
 20
91.46960838338615
 30
0.0
 40
0.025
100
AcDbArc
 50
90.0
 51
180.0
  0
ARC
  5
31A
330
69
100
AcDbEntity
  8
0
  6
Continuous
 62
     0
100
AcDbCircle
 10
-363.7123268702849
 20
90.93208784264564
 30
0.0
 40
0.05
100
AcDbArc
 50
286.2903392319252
 51
0.0
  0
ARC
  5
31B
330
69
100
AcDbEntity
  8
0
  6
Continuous
 62
     0
100
AcDbCircle
 10
-374.3623268702844
 20
87.5072110870884
 30
0.0
 40
0.25
100
AcDbArc
 50
106.2903392319256
 51
180.0
  0
SPLINE
  5
31C
330
69
100
AcDbEntity
  8
0
  6
Continuous
 62
    20
100
AcDbSpline
210
0.0
220
0.0
230
1.0
 70
     8
 71
     3
 72
    84
 73
    80
 74
    78
 42
0.0000000001
 43
0.0000000001
 44
0.0000000001
 12
-0.9999999948411026
 22
-0.0001015765474835718
 32
0.0
 13
-0.9999999949726174
 23
0.000100273451068248
 33
0.0
 40
0.0
 40
0.0
 40
0.0
 40
0.0
 40
0.0031637293345211
 40
0.0063340817280038
 40
0.0095110741525779
 40
0.0126947141923044
 40
0.0158850008586227
 40
0.0190819254098924
 40
0.0222854721521053
 40
0.0254956192350534
 40
0.0287123394433071
 40
0.0319356025373129
 40
0.0351653946519854
 40
0.0384016974364608
 40
0.0416448367574105
 40
0.0448935216423666
 40
0.048145215081324
 40
0.0513986497296948
 40
0.0546537611838401
 40
0.057910531308368
 40
0.0611689422201211
 40
0.0644289755944123
 40
0.0676906161176144
 40
0.0709538549386269
 40
0.0742186842385928
 40
0.0774850971764438
 40
0.0807530880076834
 40
0.0840226522098121
 40
0.08729378660282
 40
0.0905664894717841
 40
0.0938407606931353
 40
0.0971166033901616
 40
0.1003940257244506
 40
0.1036730371104982
 40
0.1069536476293541
 40
0.110235868044025
 40
0.1135197098125985
 40
0.1168051851029679
 40
0.1200923068075289
 40
0.1233810885566579
 40
0.1266715448873744
 40
0.1299636918761738
 40
0.133257545159371
 40
0.1365531199479015
 40
0.139850431134885
 40
0.1431494932575821
 40
0.1464503201498936
 40
0.1497529223889839
 40
0.1530562659494997
 40
0.1563569951536086
 40
0.1596526825074907
 40
0.1629437751381361
 40
0.1662302954754472
 40
0.1695122487799157
 40
0.1727896388056258
 40
0.1760624679272431
 40
0.1793307372638101
 40
0.1825944468086058
 40
0.1858535955576761
 40
0.1891081816301627
 40
0.1923581979658224
 40
0.1956036262789412
 40
0.1988444462220826
 40
0.2020806371840119
 40
0.2053121786277242
 40
0.2085390504389778
 40
0.2117612332703968
 40
0.214978708892231
 40
0.2181914605462337
 40
0.2213994731364284
 40
0.2246027252426597
 40
0.2278011895765864
 40
0.2309948430736786
 40
0.2341836680571524
 40
0.2373676530341106
 40
0.2405467934888559
 40
0.2437210926881582
 40
0.2468905624937835
 40
0.2500552241759195
 40
0.2500552241759195
 40
0.2500552241759195
 40
0.2500552241759195
 10
-370.2373268763087
 20
90.89460841350657
 30
0.0
 10
-370.2383814527481
 20
90.89460830638635
 30
0.0
 10
-370.2404928153752
 20
90.89460420927743
 30
0.0
 10
-370.2436631274828
 20
90.89458593845526
 30
0.0
 10
-370.2468399945098
 20
90.89455680371631
 30
0.0
 10
-370.2500233975101
 20
90.89451759239486
 30
0.0
 10
-370.2532133183982
 20
90.89446922081709
 30
0.0
 10
-370.25640973886
 20
90.89441257098646
 30
0.0
 10
-370.2596126406
 20
90.89434853275017
 30
0.0
 10
-370.2628220054453
 20
90.89427799896487
 30
0.0
 10
-370.2660378152036
 20
90.89420184245168
 30
0.0
 10
-370.2692600609501
 20
90.89412101311726
 30
0.0
 10
-370.2724887301648
 20
90.89403605959247
 30
0.0
 10
-370.2757239346243
 20
90.8939476647018
 30
0.0
 10
-370.2789653635174
 20
90.89385654948805
 30
0.0
 10
-370.2822118666056
 20
90.89376339337048
 30
0.0
 10
-370.285461764179
 20
90.89366889961133
 30
0.0
 10
-370.2887137856108
 20
90.89357374739606
 30
0.0
 10
-370.2919674968124
 20
90.893478486475
 30
0.0
 10
-370.2952228807101
 20
90.89338367786016
 30
0.0
 10
-370.2984799347669
 20
90.8932898625978
 30
0.0
 10
-370.3017386584301
 20
90.89319763648555
 30
0.0
 10
-370.3049990520891
 20
90.89310755483123
 30
0.0
 10
-370.308261112385
 20
90.89301994412403
 30
0.0
 10
-370.3115248394559
 20
90.89293518430598
 30
0.0
 10
-370.3147902330913
 20
90.89285364095957
 30
0.0
 10
-370.3180572931905
 20
90.89277568355426
 30
0.0
 10
-370.3213260196205
 20
90.89270168038856
 30
0.0
 10
-370.324596412268
 20
90.89263200055396
 30
0.0
 10
-370.3278684709755
 20
90.89256701115121
 30
0.0
 10
-370.3311421962578
 20
90.89250708644224
 30
0.0
 10
-370.3344175896228
 20
90.89245257356912
 30
0.0
 10
-370.3376946506145
 20
90.89240358904543
 30
0.0
 10
-370.3409733808564
 20
90.89236026772778
 30
0.0
 10
-370.3442537820608
 20
90.89232273955557
 30
0.0
 10
-370.3475358559702
 20
90.89229113573184
 30
0.0
 10
-370.3508196043177
 20
90.8922655873302
 30
0.0
 10
-370.3541050288414
 20
90.89224622467059
 30
0.0
 10
-370.3573921312707
 20
90.89223318122554
 30
0.0
 10
-370.3606809134156
 20
90.89222657859982
 30
0.0
 10
-370.3639713772892
 20
90.89222658275196
 30
0.0
 10
-370.3672635252037
 20
90.89223306329077
 30
0.0
 10
-370.370557360354
 20
90.89224596648798
 30
0.0
 10
-370.3738528857659
 20
90.8922652413788
 30
0.0
 10
-370.3771501044783
 20
90.89229083408962
 30
0.0
 10
-370.3804490192484
 20
90.89232269961977
 30
0.0
 10
-370.3837496330137
 20
90.89236067686413
 30
0.0
 10
-370.3870515999535
 20
90.89240461875488
 30
0.0
 10
-370.3903534520985
 20
90.89245434840564
 30
0.0
 10
-370.3936529115618
 20
90.8925095698002
 30
0.0
 10
-370.3969481934064
 20
90.89257010494745
 30
0.0
 10
-370.4002386407871
 20
90.8926357111036
 30
0.0
 10
-370.4035244128537
 20
90.89270596986401
 30
0.0
 10
-370.4068055217328
 20
90.89278050905845
 30
0.0
 10
-370.4100819746126
 20
90.89285894332656
 30
0.0
 10
-370.4133537786153
 20
90.89294089086795
 30
0.0
 10
-370.4166209408877
 20
90.89302596871724
 30
0.0
 10
-370.4198834685479
 20
90.89311379501358
 30
0.0
 10
-370.423141368803
 20
90.89320398464736
 30
0.0
 10
-370.426394647046
 20
90.89329616434696
 30
0.0
 10
-370.4296433049203
 20
90.89338991520663
 30
0.0
 10
-370.4328873447151
 20
90.89348460888525
 30
0.0
 10
-370.4361267641179
 20
90.89357964202041
 30
0.0
 10
-370.4393615605168
 20
90.89367440454294
 30
0.0
 10
-370.4425917312535
 20
90.8937682881194
 30
0.0
 10
-370.4458172736788
 20
90.89386068414761
 30
0.0
 10
-370.4490381851615
 20
90.89395098337478
 30
0.0
 10
-370.4522544629993
 20
90.89403857940232
 30
0.0
 10
-370.4554661047124
 20
90.894122855083
 30
0.0
 10
-370.4586731039125
 20
90.89420323324278
 30
0.0
 10
-370.4618754518783
 20
90.89427900532536
 30
0.0
 10
-370.4650731391788
 20
90.89434923605045
 30
0.0
 10
-370.4682661518048
 20
90.89441303785155
 30
0.0
 10
-370.4714544759469
 20
90.89446951098486
 30
0.0
 10
-370.4746380977301
 20
90.89451775666203
 30
0.0
 10
-370.4778170032426
 20
90.89455688434984
 30
0.0
 10
-370.4809911788039
 20
90.89458596955625
 30
0.0
 10
-370.4841606098732
 20
90.89460421503301
 30
0.0
 10
-370.4862719890864
 20
90.89460830772938
 30
0.0
 10
-370.4873268763085
 20
90.89460841350657
 30
0.0
 11
-370.2373268763087
 21
90.89460841350657
 31
0.0
 11
-370.2404905995418
 21
90.89460220010508
 31
0.0
 11
-370.2436609005663
 21
90.89458415258875
 31
0.0
 11
-370.2468377606978
 21
90.89455515998893
 31
0.0
 11
-370.2500211612547
 21
90.89451611133725
 31
0.0
 11
-370.2532110835519
 21
90.89446789566594
 31
0.0
 11
-370.2564075089073
 21
90.89441140200606
 31
0.0
 11
-370.2596104186377
 21
90.89434751938953
 31
0.0
 11
-370.2628197940585
 21
90.8942771368477
 31
0.0
 11
-370.2660356164877
 21
90.8942011434128
 31
0.0
 11
-370.2692578683441
 21
90.89412040960937
 31
0.0
 11
-370.272486546091
 21
90.89403557382084
 31
0.0
 11
-370.275721644863
 21
90.89394730350946
 31
0.0
 11
-370.2789635067468
 21
90.8938562860304
 31
0.0
 11
-370.2822108581946
 21
90.8937632158596
 31
0.0
 11
-370.2854611811189
 21
90.893668817193
 31
0.0
 11
-370.2887132266257
 21
90.8935737538819
 31
0.0
 11
-370.2919669465992
 21
90.89347858606672
 31
0.0
 11
-370.2952223390448
 21
90.89338386717017
 31
0.0
 11
-370.2984794019666
 21
90.89329015061466
 31
0.0
 11
-370.3017381331434
 21
90.89319801636904
 31
0.0
 11
-370.3049985309521
 21
90.89310798842106
 31
0.0
 11
-370.3082605951643
 21
90.89302044027207
 31
0.0
 11
-370.3115243255936
 21
90.8929357405485
 31
0.0
 11
-370.3147897220557
 21
90.89285425787622
 31
0.0
 11
-370.3180567843647
 21
90.89277636088227
 31
0.0
 11
-370.321325512336
 21
90.8927024181925
 31
0.0
 11
-370.3245959057843
 21
90.89263279843394
 31
0.0
 11
-370.3278679645242
 21
90.89256787023217
 31
0.0
 11
-370.3311416883737
 21
90.89250800214714
 31
0.0
 11
-370.3344170777708
 21
90.89245350743496
 31
0.0
 11
-370.3376941343386
 21
90.89240454409875
 31
0.0
 11
-370.3409728598065
 21
90.89236124310659
 31
0.0
 11
-370.3442532559031
 21
90.89232373542572
 31
0.0
 11
-370.3475353243575
 21
90.89229215202451
 31
0.0
 11
-370.3508190668983
 21
90.8922666238702
 31
0.0
 11
-370.3541044852541
 21
90.89224728193088
 31
0.0
 11
-370.3573915811542
 21
90.89223425717407
 31
0.0
 11
-370.3606803563277
 21
90.89222768056786
 31
0.0
 11
-370.3639708126584
 21
90.89222766131556
 31
0.0
 11
-370.3672629532896
 21
90.89223413122156
 31
0.0
 11
-370.3705567813394
 21
90.89224702423238
 31
0.0
 11
-370.3738522998232
 21
90.89226628843917
 31
0.0
 11
-370.3771495117589
 21
90.89229187193283
 31
0.0
 11
-370.3804484202597
 21
90.89232370890201
 31
0.0
 11
-370.383749028966
 21
90.89236166073064
 31
0.0
 11
-370.3870513391623
 21
90.89240558016755
 31
0.0
 11
-370.3903543087678
 21
90.89245528392567
 31
0.0
 11
-370.3936545761509
 21
90.89251049695704
 31
0.0
 11
-370.3969497081933
 21
90.89257099454372
 31
0.0
 11
-370.4002401481809
 21
90.89263653377955
 31
0.0
 11
-370.4035259187011
 21
90.89270673361128
 31
0.0
 11
-370.4068070268285
 21
90.89278121145142
 31
0.0
 11
-370.410083479638
 21
90.89285958471166
 31
0.0
 11
-370.4133552842054
 21
90.89294147080508
 31
0.0
 11
-370.4166224476048
 21
90.89302648714394
 31
0.0
 11
-370.419884976911
 21
90.8931142511399
 31
0.0
 11
-370.4231428791992
 21
90.89320438020607
 31
0.0
 11
-370.4263961615426
 21
90.89329649153754
 31
0.0
 11
-370.4296448284005
 21
90.89339013890068
 31
0.0
 11
-370.4328888778635
 21
90.89348473286108
 31
0.0
 11
-370.4361283071099
 21
90.89357966473969
 31
0.0
 11
-370.4393631133196
 21
90.89367432585775
 31
0.0
 11
-370.4425932936705
 21
90.89376810753564
 31
0.0
 11
-370.445818845342
 21
90.89386040109488
 31
0.0
 11
-370.4490397655123
 21
90.89395059785588
 31
0.0
 11
-370.4522560513597
 21
90.89403808913957
 31
0.0
 11
-370.4554677000643
 21
90.89412226626692
 31
0.0
 11
-370.4586747085689
 21
90.89420252354003
 31
0.0
 11
-370.46187706813
 21
90.89427813635311
 31
0.0
 11
-370.4650747646572
 21
90.89434821499012
 31
0.0
 11
-370.468267783876
 21
90.89441186189148
 31
0.0
 11
-370.4714561115101
 21
90.89446817949735
 31
0.0
 11
-370.4746397332862
 21
90.89451627024815
 31
0.0
 11
-370.4778186349292
 21
90.89455523658401
 31
0.0
 11
-370.4809928021634
 21
90.89458418094566
 31
0.0
 11
-370.4841622207148
 21
90.89460220577294
 31
0.0
 11
-370.4873268763085
 21
90.89460841350657
 31
0.0
  0
SPLINE
  5
31D
330
69
100
AcDbEntity
  8
0
  6
Continuous
 62
    20
100
AcDbSpline
210
0.0
220
0.0
230
1.0
 70
     8
 71
     3
 72
    84
 73
    80
 74
    78
 42
0.0000000001
 43
0.0000000001
 44
0.0000000001
 12
-0.9999999948411026
 22
-0.000101576545688736
 32
0.0
 13
-0.9999999949726174
 23
0.000100273451068248
 33
0.0
 40
0.0
 40
0.0
 40
0.0
 40
0.0
 40
0.0031637293345211
 40
0.0063340817280038
 40
0.0095110741531463
 40
0.0126947141923044
 40
0.0158850008591911
 40
0.0190819254104608
 40
0.0222854721521053
 40
0.0254956192350535
 40
0.0287123394433072
 40
0.0319356025373129
 40
0.0351653946519855
 40
0.0384016974364609
 40
0.0416448367574105
 40
0.0448935216429348
 40
0.048145215081324
 40
0.0513986497296949
 40
0.0546537611844083
 40
0.057910531308368
 40
0.0611689422201212
 40
0.0644289755944123
 40
0.0676906161181827
 40
0.0709538549386269
 40
0.0742186842385928
 40
0.0774850971764439
 40
0.0807530880076834
 40
0.0840226522103805
 40
0.0872937866028201
 40
0.0905664894723524
 40
0.0938407606931353
 40
0.0971166033901616
 40
0.100394025725019
 40
0.1036730371110666
 40
0.1069536476299225
 40
0.110235868044025
 40
0.1135197098125985
 40
0.1168051851029679
 40
0.1200923068080974
 40
0.1233810885566579
 40
0.1266715448879429
 40
0.1299636918761738
 40
0.133257545159371
 40
0.1365531199479015
 40
0.139850431134885
 40
0.1431494932581505
 40
0.1464503201498936
 40
0.1497529223889839
 40
0.1530562659494997
 40
0.1563569951536086
 40
0.159652682508059
 40
0.1629437751381362
 40
0.1662302954754473
 40
0.1695122487799157
 40
0.1727896388056258
 40
0.1760624679272432
 40
0.1793307372638102
 40
0.1825944468086058
 40
0.1858535955576761
 40
0.1891081816301627
 40
0.1923581979658225
 40
0.1956036262789412
 40
0.1988444462226509
 40
0.202080637184012
 40
0.2053121786282924
 40
0.2085390504389779
 40
0.2117612332703969
 40
0.214978708892231
 40
0.2181914605462338
 40
0.2213994731364285
 40
0.2246027252432281
 40
0.2278011895771547
 40
0.2309948430736786
 40
0.2341836680577208
 40
0.2373676530341106
 40
0.2405467934888559
 40
0.2437210926881582
 40
0.2468905624937835
 40
0.2500552241764879
 40
0.2500552241764879
 40
0.2500552241764879
 40
0.2500552241764879
 10
-373.4873268763086
 20
90.89460841350657
 30
0.0
 10
-373.488381452748
 20
90.89460830638635
 30
0.0
 10
-373.490492815375
 20
90.89460420927743
 30
0.0
 10
-373.4936631274829
 20
90.89458593845528
 30
0.0
 10
-373.4968399945099
 20
90.89455680371631
 30
0.0
 10
-373.5000233975105
 20
90.89451759239486
 30
0.0
 10
-373.5032133183985
 20
90.89446922081711
 30
0.0
 10
-373.5064097388603
 20
90.89441257098646
 30
0.0
 10
-373.5096126406
 20
90.89434853275019
 30
0.0
 10
-373.5128220054452
 20
90.89427799896487
 30
0.0
 10
-373.5160378152036
 20
90.89420184245168
 30
0.0
 10
-373.5192600609499
 20
90.89412101311724
 30
0.0
 10
-373.5224887301646
 20
90.89403605959248
 30
0.0
 10
-373.5257239346241
 20
90.89394766470178
 30
0.0
 10
-373.5289653635175
 20
90.89385654948804
 30
0.0
 10
-373.5322118666056
 20
90.89376339337048
 30
0.0
 10
-373.535461764179
 20
90.89366889961133
 30
0.0
 10
-373.5387137856109
 20
90.89357374739606
 30
0.0
 10
-373.5419674968123
 20
90.89347848647502
 30
0.0
 10
-373.5452228807102
 20
90.89338367786013
 30
0.0
 10
-373.5484799347668
 20
90.89328986259781
 30
0.0
 10
-373.5517386584301
 20
90.89319763648552
 30
0.0
 10
-373.5549990520893
 20
90.89310755483129
 30
0.0
 10
-373.558261112385
 20
90.893019944124
 30
0.0
 10
-373.5615248394558
 20
90.89293518430601
 30
0.0
 10
-373.5647902330911
 20
90.89285364095954
 30
0.0
 10
-373.5680572931905
 20
90.89277568355426
 30
0.0
 10
-373.5713260196208
 20
90.8927016803886
 30
0.0
 10
-373.5745964122681
 20
90.89263200055392
 30
0.0
 10
-373.5778684709757
 20
90.89256701115121
 30
0.0
 10
-373.5811421962579
 20
90.89250708644222
 30
0.0
 10
-373.5844175896228
 20
90.8924525735691
 30
0.0
 10
-373.5876946506147
 20
90.89240358904539
 30
0.0
 10
-373.590973380857
 20
90.8923602677278
 30
0.0
 10
-373.5942537820612
 20
90.89232273955558
 30
0.0
 10
-373.5975358559704
 20
90.89229113573185
 30
0.0
 10
-373.6008196043176
 20
90.89226558733019
 30
0.0
 10
-373.6041050288416
 20
90.89224622467064
 30
0.0
 10
-373.6073921312708
 20
90.89223318122552
 30
0.0
 10
-373.6106809134159
 20
90.89222657859983
 30
0.0
 10
-373.6139713772893
 20
90.89222658275193
 30
0.0
 10
-373.6172635252037
 20
90.89223306329077
 30
0.0
 10
-373.6205573603539
 20
90.89224596648798
 30
0.0
 10
-373.6238528857658
 20
90.8922652413788
 30
0.0
 10
-373.6271501044783
 20
90.89229083408964
 30
0.0
 10
-373.6304490192484
 20
90.89232269961974
 30
0.0
 10
-373.6337496330137
 20
90.89236067686416
 30
0.0
 10
-373.6370515999535
 20
90.89240461875491
 30
0.0
 10
-373.6403534520985
 20
90.89245434840565
 30
0.0
 10
-373.6436529115618
 20
90.89250956980021
 30
0.0
 10
-373.6469481934066
 20
90.89257010494745
 30
0.0
 10
-373.6502386407872
 20
90.8926357111036
 30
0.0
 10
-373.6535244128535
 20
90.89270596986397
 30
0.0
 10
-373.6568055217328
 20
90.89278050905847
 30
0.0
 10
-373.6600819746125
 20
90.89285894332657
 30
0.0
 10
-373.6633537786153
 20
90.89294089086798
 30
0.0
 10
-373.6666209408875
 20
90.89302596871724
 30
0.0
 10
-373.6698834685479
 20
90.89311379501356
 30
0.0
 10
-373.6731413688028
 20
90.89320398464737
 30
0.0
 10
-373.6763946470459
 20
90.89329616434694
 30
0.0
 10
-373.6796433049202
 20
90.89338991520665
 30
0.0
 10
-373.6828873447153
 20
90.89348460888525
 30
0.0
 10
-373.6861267641179
 20
90.89357964202037
 30
0.0
 10
-373.6893615605171
 20
90.89367440454298
 30
0.0
 10
-373.6925917312536
 20
90.89376828811936
 30
0.0
 10
-373.6958172736789
 20
90.89386068414768
 30
0.0
 10
-373.6990381851614
 20
90.89395098337474
 30
0.0
 10
-373.7022544629992
 20
90.89403857940233
 30
0.0
 10
-373.7054661047122
 20
90.89412285508297
 30
0.0
 10
-373.7086731039127
 20
90.89420323324282
 30
0.0
 10
-373.7118754518786
 20
90.89427900532536
 30
0.0
 10
-373.7150731391792
 20
90.89434923605045
 30
0.0
 10
-373.718266151805
 20
90.89441303785156
 30
0.0
 10
-373.721454475947
 20
90.89446951098483
 30
0.0
 10
-373.72463809773
 20
90.894517756662
 30
0.0
 10
-373.7278170032426
 20
90.89455688434984
 30
0.0
 10
-373.7309911788037
 20
90.89458596955626
 30
0.0
 10
-373.7341606098734
 20
90.89460421503303
 30
0.0
 10
-373.7362719890867
 20
90.89460830772938
 30
0.0
 10
-373.7373268763089
 20
90.89460841350657
 30
0.0
 11
-373.4873268763086
 21
90.89460841350657
 31
0.0
 11
-373.4904905995417
 21
90.89460220010508
 31
0.0
 11
-373.4936609005662
 21
90.89458415258875
 31
0.0
 11
-373.4968377606983
 21
90.89455515998893
 31
0.0
 11
-373.5000211612546
 21
90.89451611133725
 31
0.0
 11
-373.5032110835523
 21
90.89446789566594
 31
0.0
 11
-373.5064075089078
 21
90.89441140200606
 31
0.0
 11
-373.5096104186376
 21
90.89434751938953
 31
0.0
 11
-373.5128197940584
 21
90.8942771368477
 31
0.0
 11
-373.5160356164876
 21
90.8942011434128
 31
0.0
 11
-373.519257868344
 21
90.89412040960937
 31
0.0
 11
-373.5224865460909
 21
90.89403557382084
 31
0.0
 11
-373.5257216448629
 21
90.89394730350946
 31
0.0
 11
-373.5289635067467
 21
90.8938562860304
 31
0.0
 11
-373.532210858195
 21
90.8937632158596
 31
0.0
 11
-373.5354611811188
 21
90.893668817193
 31
0.0
 11
-373.5387132266256
 21
90.8935737538819
 31
0.0
 11
-373.5419669465996
 21
90.89347858606672
 31
0.0
 11
-373.5452223390446
 21
90.89338386717017
 31
0.0
 11
-373.5484794019665
 21
90.89329015061466
 31
0.0
 11
-373.5517381331433
 21
90.89319801636904
 31
0.0
 11
-373.5549985309526
 21
90.89310798842106
 31
0.0
 11
-373.5582605951642
 21
90.89302044027207
 31
0.0
 11
-373.5615243255934
 21
90.8929357405485
 31
0.0
 11
-373.5647897220555
 21
90.89285425787622
 31
0.0
 11
-373.5680567843646
 21
90.89277636088227
 31
0.0
 11
-373.5713255123365
 21
90.8927024181925
 31
0.0
 11
-373.5745959057842
 21
90.89263279843394
 31
0.0
 11
-373.5778679645246
 21
90.89256787023217
 31
0.0
 11
-373.5811416883736
 21
90.89250800214714
 31
0.0
 11
-373.5844170777706
 21
90.89245350743496
 31
0.0
 11
-373.5876941343391
 21
90.89240454409875
 31
0.0
 11
-373.590972859807
 21
90.89236124310659
 31
0.0
 11
-373.5942532559035
 21
90.89232373542572
 31
0.0
 11
-373.5975353243574
 21
90.89229215202451
 31
0.0
 11
-373.6008190668982
 21
90.8922666238702
 31
0.0
 11
-373.604104485254
 21
90.89224728193088
 31
0.0
 11
-373.6073915811547
 21
90.89223425717407
 31
0.0
 11
-373.6106803563276
 21
90.89222768056786
 31
0.0
 11
-373.6139708126588
 21
90.89222766131556
 31
0.0
 11
-373.6172629532895
 21
90.89223413122156
 31
0.0
 11
-373.6205567813393
 21
90.89224702423238
 31
0.0
 11
-373.6238522998231
 21
90.89226628843917
 31
0.0
 11
-373.6271495117588
 21
90.89229187193283
 31
0.0
 11
-373.6304484202602
 21
90.89232370890201
 31
0.0
 11
-373.6337490289658
 21
90.89236166073064
 31
0.0
 11
-373.6370513391622
 21
90.89240558016755
 31
0.0
 11
-373.6403543087677
 21
90.89245528392567
 31
0.0
 11
-373.6436545761508
 21
90.89251049695704
 31
0.0
 11
-373.6469497081937
 21
90.89257099454372
 31
0.0
 11
-373.6502401481808
 21
90.89263653377955
 31
0.0
 11
-373.653525918701
 21
90.89270673361128
 31
0.0
 11
-373.6568070268284
 21
90.89278121145142
 31
0.0
 11
-373.6600834796379
 21
90.89285958471166
 31
0.0
 11
-373.6633552842052
 21
90.89294147080508
 31
0.0
 11
-373.6666224476047
 21
90.89302648714394
 31
0.0
 11
-373.6698849769109
 21
90.8931142511399
 31
0.0
 11
-373.6731428791991
 21
90.89320438020607
 31
0.0
 11
-373.6763961615425
 21
90.89329649153754
 31
0.0
 11
-373.6796448284004
 21
90.89339013890068
 31
0.0
 11
-373.6828888778634
 21
90.89348473286108
 31
0.0
 11
-373.6861283071103
 21
90.89357966473969
 31
0.0
 11
-373.6893631133195
 21
90.89367432585775
 31
0.0
 11
-373.692593293671
 21
90.89376810753564
 31
0.0
 11
-373.6958188453419
 21
90.89386040109488
 31
0.0
 11
-373.6990397655122
 21
90.89395059785588
 31
0.0
 11
-373.7022560513596
 21
90.89403808913957
 31
0.0
 11
-373.7054677000642
 21
90.89412226626692
 31
0.0
 11
-373.7086747085688
 21
90.89420252354003
 31
0.0
 11
-373.7118770681305
 21
90.89427813635311
 31
0.0
 11
-373.7150747646577
 21
90.89434821499012
 31
0.0
 11
-373.7182677838759
 21
90.89441186189148
 31
0.0
 11
-373.7214561115106
 21
90.89446817949735
 31
0.0
 11
-373.7246397332861
 21
90.89451627024815
 31
0.0
 11
-373.7278186349291
 21
90.89455523658401
 31
0.0
 11
-373.7309928021633
 21
90.89458418094566
 31
0.0
 11
-373.7341622207147
 21
90.89460220577294
 31
0.0
 11
-373.7373268763089
 21
90.89460841350657
 31
0.0
  0
ENDBLK
  5
6B
330
69
100
AcDbEntity
  8
0
100
AcDbBlockEnd
  0
BLOCK
  5
6D
330
6C
100
AcDbEntity
  8
0
100
AcDbBlockBegin
  2
VIS-ULNS3CRN0015
 70
     0
 10
0.0
 20
0.0
 30
0.0
  3
VIS-ULNS3CRN0015
  1

  0
POINT
  5
31E
330
6C
100
AcDbEntity
  8
0
 62
     0
100
AcDbPoint
 10
-212.5111794015539
 20
256.71285971061
 30
0.0
  0
LINE
  5
31F
330
6C
100
AcDbEntity
  8
0
  6
Continuous
 62
    20
100
AcDbLine
 10
-208.0111794015539
 20
256.6128597106098
 30
0.0
 11
-208.0111794015539
 21
254.5128597106096
 31
0.0
  0
LINE
  5
320
330
6C
100
AcDbEntity
  8
0
  6
Continuous
 62
    20
100
AcDbLine
 10
-217.0111794015544
 20
254.5128597106096
 30
0.0
 11
-217.0111794015544
 21
256.6128597106098
 31
0.0
  0
LINE
  5
321
330
6C
100
AcDbEntity
  8
0
  6
Continuous
 62
    20
100
AcDbLine
 10
-216.8111794015533
 20
254.3128597106087
 30
0.0
 11
-216.011179401554
 21
254.3128597106087
 31
0.0
  0
LINE
  5
322
330
6C
100
AcDbEntity
  8
0
  6
Continuous
 62
    20
100
AcDbLine
 10
-208.2111794015534
 20
254.3128597106087
 30
0.0
 11
-209.0111794015545
 21
254.3128597106087
 31
0.0
  0
LINE
  5
323
330
6C
100
AcDbEntity
  8
0
  6
Continuous
 62
    20
100
AcDbLine
 10
-214.3111794015538
 20
254.3128597106087
 30
0.0
 11
-216.0111794015545
 21
254.3128597106087
 31
0.0
  0
LINE
  5
324
330
6C
100
AcDbEntity
  8
0
  6
Continuous
 62
    20
100
AcDbLine
 10
-209.0111794015545
 20
254.3128597106087
 30
0.0
 11
-210.7111794015534
 21
254.3128597106087
 31
0.0
  0
LINE
  5
325
330
6C
100
AcDbEntity
  8
0
  6
Continuous
 62
    20
100
AcDbLine
 10
-216.9111794015537
 20
256.7128597106088
 30
0.0
 11
-216.011179401554
 21
256.7128597106088
 31
0.0
  0
LINE
  5
326
330
6C
100
AcDbEntity
  8
0
  6
Continuous
 62
    20
100
AcDbLine
 10
-216.0111794015545
 20
256.7128597106088
 30
0.0
 11
-209.0111794015545
 21
256.7128597106088
 31
0.0
  0
LINE
  5
327
330
6C
100
AcDbEntity
  8
0
  6
Continuous
 62
    20
100
AcDbLine
 10
-208.111179401553
 20
256.7128597106088
 30
0.0
 11
-209.0111794015545
 21
256.7128597106088
 31
0.0
  0
LINE
  5
328
330
6C
100
AcDbEntity
  8
0
  6
Continuous
 62
    20
100
AcDbLine
 10
-214.0111794015553
 20
241.7231231275842
 30
0.0
 11
-214.0111794015553
 21
254.0128597106078
 31
0.0
  0
LINE
  5
329
330
6C
100
AcDbEntity
  8
0
  6
Continuous
 62
    20
100
AcDbLine
 10
-211.0111794015558
 20
254.0128597106078
 30
0.0
 11
-211.0111794015558
 21
241.7231231275842
 31
0.0
  0
LINE
  5
32A
330
6C
100
AcDbEntity
  8
0
  6
Continuous
 62
    20
100
AcDbLine
 10
-208.0111794015539
 20
254.5128597106096
 30
0.0
 11
-208.0111794015539
 21
252.7128597106085
 31
0.0
  0
LINE
  5
32B
330
6C
100
AcDbEntity
  8
0
  6
Continuous
 62
    20
100
AcDbLine
 10
-217.0111794015544
 20
252.7128597106085
 30
0.0
 11
-217.0111794015544
 21
254.5128597106096
 31
0.0
  0
LINE
  5
32C
330
6C
100
AcDbEntity
  8
0
  6
Continuous
 62
    20
100
AcDbLine
 10
-217.0111794015544
 20
235.7128589013016
 30
0.0
 11
-217.0111794015544
 21
252.7128597106085
 31
0.0
  0
LINE
  5
32D
330
6C
100
AcDbEntity
  8
0
  6
Continuous
 62
    20
100
AcDbLine
 10
-208.6111794015512
 20
235.1128597106093
 30
0.0
 11
-216.4111794015541
 21
235.1128597106093
 31
0.0
  0
LINE
  5
32E
330
6C
100
AcDbEntity
  8
0
  6
Continuous
 62
    20
100
AcDbLine
 10
-208.0111794015539
 20
252.7128597106085
 30
0.0
 11
-208.0111794015539
 21
235.7128589013016
 31
0.0
  0
LINE
  5
32F
330
6C
100
AcDbEntity
  8
0
  6
Continuous
 62
     0
100
AcDbLine
 10
-215.5111794015548
 20
246.2542810668459
 30
0.0
 11
-215.1576260109615
 21
246.6078344574391
 31
0.0
  0
LINE
  5
330
330
6C
100
AcDbEntity
  8
0
  6
Continuous
 62
     0
100
AcDbLine
 10
-215.5111794015547
 20
245.9714383543715
 30
0.0
 11
-215.1576260109614
 21
245.6178849637782
 31
0.0
  0
LINE
  5
331
330
6C
100
AcDbEntity
  8
0
  6
Continuous
 62
     0
100
AcDbLine
 10
-215.1576260109618
 20
246.6078344574393
 30
0.0
 11
-215.0162046547246
 21
246.4664131012022
 31
0.0
  0
LINE
  5
332
330
6C
100
AcDbEntity
  8
0
  6
Continuous
 62
     0
100
AcDbLine
 10
-215.3697580453174
 20
246.1128597106087
 30
0.0
 11
-215.0162046547241
 21
245.7593063200154
 31
0.0
  0
LINE
  5
333
330
6C
100
AcDbEntity
  8
0
  6
Continuous
 62
     0
100
AcDbLine
 10
-215.3697580453176
 20
246.1128597106087
 30
0.0
 11
-215.0162046547243
 21
246.466413101202
 31
0.0
  0
LINE
  5
334
330
6C
100
AcDbEntity
  8
0
  6
Continuous
 62
     0
100
AcDbLine
 10
-215.8647327921482
 20
245.6178849637781
 30
0.0
 11
-215.5111794015549
 21
245.9714383543714
 31
0.0
  0
LINE
  5
335
330
6C
100
AcDbEntity
  8
0
  6
Continuous
 62
     0
100
AcDbLine
 10
-216.0061541483851
 20
246.4664131012019
 30
0.0
 11
-215.6526007577919
 21
246.1128597106086
 31
0.0
  0
LINE
  5
336
330
6C
100
AcDbEntity
  8
0
  6
Continuous
 62
     0
100
AcDbLine
 10
-215.8647327921478
 20
246.6078344574391
 30
0.0
 11
-215.5111794015545
 21
246.2542810668459
 31
0.0
  0
LINE
  5
337
330
6C
100
AcDbEntity
  8
0
  6
Continuous
 62
     0
100
AcDbLine
 10
-216.0061541483853
 20
246.4664131012022
 30
0.0
 11
-215.8647327921479
 21
246.6078344574396
 31
0.0
  0
LINE
  5
338
330
6C
100
AcDbEntity
  8
0
  6
Continuous
 62
     0
100
AcDbLine
 10
-215.1576260109616
 20
245.6178849637785
 30
0.0
 11
-215.0162046547242
 21
245.7593063200158
 31
0.0
  0
LINE
  5
339
330
6C
100
AcDbEntity
  8
0
  6
Continuous
 62
     0
100
AcDbLine
 10
-216.0061541483856
 20
245.7593063200156
 30
0.0
 11
-215.8647327921484
 21
245.6178849637784
 31
0.0
  0
LINE
  5
33A
330
6C
100
AcDbEntity
  8
0
  6
Continuous
 62
     0
100
AcDbLine
 10
-216.0061541483854
 20
245.7593063200152
 30
0.0
 11
-215.6526007577922
 21
246.1128597106085
 31
0.0
  0
LINE
  5
33B
330
6C
100
AcDbEntity
  8
0
  6
Continuous
 62
     0
100
AcDbLine
 10
-215.5111794015548
 20
251.254281066846
 30
0.0
 11
-215.1576260109616
 21
251.6078344574393
 31
0.0
  0
LINE
  5
33C
330
6C
100
AcDbEntity
  8
0
  6
Continuous
 62
     0
100
AcDbLine
 10
-215.511179401555
 20
250.9714383543711
 30
0.0
 11
-215.1576260109617
 21
250.6178849637779
 31
0.0
  0
LINE
  5
33D
330
6C
100
AcDbEntity
  8
0
  6
Continuous
 62
     0
100
AcDbLine
 10
-215.1576260109616
 20
251.6078344574391
 30
0.0
 11
-215.0162046547244
 21
251.4664131012019
 31
0.0
  0
LINE
  5
33E
330
6C
100
AcDbEntity
  8
0
  6
Continuous
 62
     0
100
AcDbLine
 10
-215.3697580453171
 20
251.1128597106085
 30
0.0
 11
-215.0162046547239
 21
250.7593063200152
 31
0.0
  0
LINE
  5
33F
330
6C
100
AcDbEntity
  8
0
  6
Continuous
 62
     0
100
AcDbLine
 10
-215.3697580453177
 20
251.1128597106082
 30
0.0
 11
-215.0162046547244
 21
251.4664131012015
 31
0.0
  0
LINE
  5
340
330
6C
100
AcDbEntity
  8
0
  6
Continuous
 62
     0
100
AcDbLine
 10
-215.8647327921483
 20
250.6178849637776
 30
0.0
 11
-215.511179401555
 21
250.9714383543708
 31
0.0
  0
LINE
  5
341
330
6C
100
AcDbEntity
  8
0
  6
Continuous
 62
     0
100
AcDbLine
 10
-216.0061541483854
 20
251.4664131012016
 30
0.0
 11
-215.6526007577921
 21
251.1128597106083
 31
0.0
  0
LINE
  5
342
330
6C
100
AcDbEntity
  8
0
  6
Continuous
 62
     0
100
AcDbLine
 10
-215.8647327921479
 20
251.6078344574393
 30
0.0
 11
-215.5111794015546
 21
251.254281066846
 31
0.0
  0
LINE
  5
343
330
6C
100
AcDbEntity
  8
0
  6
Continuous
 62
     0
100
AcDbLine
 10
-216.0061541483851
 20
251.466413101202
 30
0.0
 11
-215.8647327921477
 21
251.6078344574393
 31
0.0
  0
LINE
  5
344
330
6C
100
AcDbEntity
  8
0
  6
Continuous
 62
     0
100
AcDbLine
 10
-215.1576260109615
 20
250.6178849637781
 30
0.0
 11
-215.0162046547242
 21
250.7593063200154
 31
0.0
  0
LINE
  5
345
330
6C
100
AcDbEntity
  8
0
  6
Continuous
 62
     0
100
AcDbLine
 10
-216.0061541483853
 20
250.7593063200154
 30
0.0
 11
-215.8647327921481
 21
250.6178849637782
 31
0.0
  0
LINE
  5
346
330
6C
100
AcDbEntity
  8
0
  6
Continuous
 62
     0
100
AcDbLine
 10
-216.0061541483855
 20
250.7593063200154
 30
0.0
 11
-215.6526007577922
 21
251.1128597106087
 31
0.0
  0
LINE
  5
347
330
6C
100
AcDbEntity
  8
0
  6
Continuous
 62
     0
100
AcDbLine
 10
-209.5111794015556
 20
251.2542810668461
 30
0.0
 11
-209.1576260109623
 21
251.6078344574394
 31
0.0
  0
LINE
  5
348
330
6C
100
AcDbEntity
  8
0
  6
Continuous
 62
     0
100
AcDbLine
 10
-209.5111794015554
 20
250.9714383543717
 30
0.0
 11
-209.1576260109622
 21
250.6178849637785
 31
0.0
  0
LINE
  5
349
330
6C
100
AcDbEntity
  8
0
  6
Continuous
 62
     0
100
AcDbLine
 10
-209.1576260109625
 20
251.6078344574391
 30
0.0
 11
-209.0162046547253
 21
251.4664131012019
 31
0.0
  0
LINE
  5
34A
330
6C
100
AcDbEntity
  8
0
  6
Continuous
 62
     0
100
AcDbLine
 10
-209.369758045318
 20
251.1128597106084
 30
0.0
 11
-209.0162046547247
 21
250.7593063200151
 31
0.0
  0
LINE
  5
34B
330
6C
100
AcDbEntity
  8
0
  6
Continuous
 62
     0
100
AcDbLine
 10
-209.3697580453182
 20
251.1128597106086
 30
0.0
 11
-209.0162046547249
 21
251.4664131012019
 31
0.0
  0
LINE
  5
34C
330
6C
100
AcDbEntity
  8
0
  6
Continuous
 62
     0
100
AcDbLine
 10
-209.8647327921488
 20
250.617884963778
 30
0.0
 11
-209.5111794015555
 21
250.9714383543712
 31
0.0
  0
LINE
  5
34D
330
6C
100
AcDbEntity
  8
0
  6
Continuous
 62
     0
100
AcDbLine
 10
-210.0061541483862
 20
251.4664131012025
 30
0.0
 11
-209.6526007577929
 21
251.1128597106093
 31
0.0
  0
LINE
  5
34E
330
6C
100
AcDbEntity
  8
0
  6
Continuous
 62
     0
100
AcDbLine
 10
-209.8647327921487
 20
251.6078344574392
 30
0.0
 11
-209.5111794015555
 21
251.2542810668459
 31
0.0
  0
LINE
  5
34F
330
6C
100
AcDbEntity
  8
0
  6
Continuous
 62
     0
100
AcDbLine
 10
-210.0061541483864
 20
251.4664131012016
 30
0.0
 11
-209.864732792149
 21
251.607834457439
 31
0.0
  0
LINE
  5
350
330
6C
100
AcDbEntity
  8
0
  6
Continuous
 62
     0
100
AcDbLine
 10
-209.1576260109625
 20
250.6178849637781
 30
0.0
 11
-209.0162046547251
 21
250.7593063200154
 31
0.0
  0
LINE
  5
351
330
6C
100
AcDbEntity
  8
0
  6
Continuous
 62
     0
100
AcDbLine
 10
-210.0061541483862
 20
250.7593063200154
 30
0.0
 11
-209.8647327921487
 21
250.6178849637779
 31
0.0
  0
LINE
  5
352
330
6C
100
AcDbEntity
  8
0
  6
Continuous
 62
     0
100
AcDbLine
 10
-210.0061541483862
 20
250.7593063200155
 30
0.0
 11
-209.6526007577929
 21
251.1128597106088
 31
0.0
  0
LINE
  5
353
330
6C
100
AcDbEntity
  8
0
  6
Continuous
 62
     0
100
AcDbLine
 10
-209.5111794015558
 20
246.2542810668462
 30
0.0
 11
-209.1576260109625
 21
246.6078344574395
 31
0.0
  0
LINE
  5
354
330
6C
100
AcDbEntity
  8
0
  6
Continuous
 62
     0
100
AcDbLine
 10
-209.5111794015556
 20
245.9714383543715
 30
0.0
 11
-209.1576260109623
 21
245.6178849637782
 31
0.0
  0
LINE
  5
355
330
6C
100
AcDbEntity
  8
0
  6
Continuous
 62
     0
100
AcDbLine
 10
-209.1576260109624
 20
246.6078344574396
 30
0.0
 11
-209.0162046547252
 21
246.4664131012024
 31
0.0
  0
LINE
  5
356
330
6C
100
AcDbEntity
  8
0
  6
Continuous
 62
     0
100
AcDbLine
 10
-209.3697580453182
 20
246.1128597106087
 30
0.0
 11
-209.016204654725
 21
245.7593063200154
 31
0.0
  0
LINE
  5
357
330
6C
100
AcDbEntity
  8
0
  6
Continuous
 62
     0
100
AcDbLine
 10
-209.3697580453185
 20
246.1128597106087
 30
0.0
 11
-209.0162046547252
 21
246.466413101202
 31
0.0
  0
LINE
  5
358
330
6C
100
AcDbEntity
  8
0
  6
Continuous
 62
     0
100
AcDbLine
 10
-209.8647327921491
 20
245.6178849637781
 30
0.0
 11
-209.5111794015558
 21
245.9714383543714
 31
0.0
  0
LINE
  5
359
330
6C
100
AcDbEntity
  8
0
  6
Continuous
 62
     0
100
AcDbLine
 10
-210.0061541483861
 20
246.4664131012019
 30
0.0
 11
-209.6526007577928
 21
246.1128597106086
 31
0.0
  0
LINE
  5
35A
330
6C
100
AcDbEntity
  8
0
  6
Continuous
 62
     0
100
AcDbLine
 10
-209.864732792149
 20
246.6078344574394
 30
0.0
 11
-209.5111794015557
 21
246.2542810668462
 31
0.0
  0
LINE
  5
35B
330
6C
100
AcDbEntity
  8
0
  6
Continuous
 62
     0
100
AcDbLine
 10
-210.0061541483865
 20
246.466413101202
 30
0.0
 11
-209.8647327921491
 21
246.6078344574393
 31
0.0
  0
LINE
  5
35C
330
6C
100
AcDbEntity
  8
0
  6
Continuous
 62
     0
100
AcDbLine
 10
-209.1576260109626
 20
245.6178849637784
 30
0.0
 11
-209.0162046547252
 21
245.7593063200158
 31
0.0
  0
LINE
  5
35D
330
6C
100
AcDbEntity
  8
0
  6
Continuous
 62
     0
100
AcDbLine
 10
-210.0061541483862
 20
245.7593063200158
 30
0.0
 11
-209.8647327921487
 21
245.6178849637783
 31
0.0
  0
LINE
  5
35E
330
6C
100
AcDbEntity
  8
0
  6
Continuous
 62
     0
100
AcDbLine
 10
-210.0061541483864
 20
245.7593063200156
 30
0.0
 11
-209.6526007577932
 21
246.1128597106089
 31
0.0
  0
ARC
  5
35F
330
6C
100
AcDbEntity
  8
0
  6
Continuous
 62
    20
100
AcDbCircle
 10
-214.311179401555
 20
254.0128597106078
 30
0.0
 40
0.3
100
AcDbArc
 50
66.642862
 51
90.0
  0
ARC
  5
360
330
6C
100
AcDbEntity
  8
0
  6
Continuous
 62
    20
100
AcDbCircle
 10
-216.8111794015546
 20
254.5128597106085
 30
0.0
 40
0.2000000000000001
100
AcDbArc
 50
180.0
 51
270.0
  0
ARC
  5
361
330
6C
100
AcDbEntity
  8
0
  6
Continuous
 62
    20
100
AcDbCircle
 10
-208.2111794015537
 20
254.5128597106085
 30
0.0
 40
0.2000000000000001
100
AcDbArc
 50
270.0
 51
0.0
  0
ARC
  5
362
330
6C
100
AcDbEntity
  8
0
  6
Continuous
 62
    20
100
AcDbCircle
 10
-216.9111794015545
 20
256.6128597106089
 30
0.0
 40
0.1
100
AcDbArc
 50
90.0
 51
180.0
  0
ARC
  5
363
330
6C
100
AcDbEntity
  8
0
  6
Continuous
 62
    20
100
AcDbCircle
 10
-210.7111794015537
 20
254.0128597106078
 30
0.0
 40
0.3
100
AcDbArc
 50
90.0
 51
113.357138
  0
ARC
  5
364
330
6C
100
AcDbEntity
  8
0
  6
Continuous
 62
    20
100
AcDbCircle
 10
-208.1111794015538
 20
256.6128597106089
 30
0.0
 40
0.1
100
AcDbArc
 50
0.0
 51
90.0
  0
ARC
  5
365
330
6C
100
AcDbEntity
  8
0
  6
Continuous
 62
    20
100
AcDbCircle
 10
-214.311179401555
 20
254.0128597106078
 30
0.0
 40
0.300000000000086
100
AcDbArc
 50
0.0
 51
66.642862
  0
ARC
  5
366
330
6C
100
AcDbEntity
  8
0
  6
Continuous
 62
    20
100
AcDbCircle
 10
-210.7111794015537
 20
254.0128597106078
 30
0.0
 40
0.3000000000000638
100
AcDbArc
 50
113.357138
 51
180.0
  0
ARC
  5
367
330
6C
100
AcDbEntity
  8
0
  6
Continuous
 62
    20
100
AcDbCircle
 10
-208.6111794015534
 20
235.7128597106088
 30
0.0
 40
0.6000000000000001
100
AcDbArc
 50
270.0
 51
0.0
  0
ARC
  5
368
330
6C
100
AcDbEntity
  8
0
  6
Continuous
 62
    20
100
AcDbCircle
 10
-216.4111794015549
 20
235.7128597106088
 30
0.0
 40
0.6000000000000001
100
AcDbArc
 50
180.0
 51
270.0
  0
CIRCLE
  5
369
330
6C
100
AcDbEntity
  8
0
  6
Continuous
 62
     0
100
AcDbCircle
 10
-215.5111794015548
 20
246.1128597106089
 30
0.0
 40
1.18
  0
CIRCLE
  5
36A
330
6C
100
AcDbEntity
  8
0
  6
Continuous
 62
     0
100
AcDbCircle
 10
-215.5111794015548
 20
251.1128597106089
 30
0.0
 40
1.18
  0
CIRCLE
  5
36B
330
6C
100
AcDbEntity
  8
0
  6
Continuous
 62
     0
100
AcDbCircle
 10
-209.5111794015558
 20
251.1128597106089
 30
0.0
 40
1.18
  0
CIRCLE
  5
36C
330
6C
100
AcDbEntity
  8
0
  6
Continuous
 62
     0
100
AcDbCircle
 10
-209.5111794015558
 20
246.1128597106089
 30
0.0
 40
1.18
  0
ENDBLK
  5
6E
330
6C
100
AcDbEntity
  8
0
100
AcDbBlockEnd
  0
BLOCK
  5
70
330
6F
100
AcDbEntity
  8
0
100
AcDbBlockBegin
  2
VIS-ULNS3CRN0016
 70
     0
 10
0.0
 20
0.0
 30
0.0
  3
VIS-ULNS3CRN0016
  1

  0
LINE
  5
36D
330
6F
100
AcDbEntity
  8
0
  6
Continuous
 62
     0
100
AcDbLine
 10
-171.3111794015549
 20
256.7128597106088
 30
0.0
 11
-163.711179401555
 21
256.7128597106088
 31
0.0
  0
LINE
  5
36E
330
6F
100
AcDbEntity
  8
0
  6
Continuous
 62
     0
100
AcDbLine
 10
-171.3111794015549
 20
255.8128597106087
 30
0.0
 11
-163.711179401555
 21
255.8128597106087
 31
0.0
  0
LINE
  5
36F
330
6F
100
AcDbEntity
  8
0
  6
Continuous
 62
     0
100
AcDbLine
 10
-166.7111794015551
 20
255.8128597106087
 30
0.0
 11
-166.7111794015551
 21
236.5128593537771
 31
0.0
  0
LINE
  5
370
330
6F
100
AcDbEntity
  8
0
  6
Continuous
 62
     0
100
AcDbLine
 10
-170.3111794015549
 20
230.7128597106092
 30
0.0
 11
-164.711179401555
 21
230.7128597106092
 31
0.0
  0
LINE
  5
371
330
6F
100
AcDbEntity
  8
0
  6
Continuous
 62
     0
100
AcDbLine
 10
-168.311179401555
 20
255.8128597106087
 30
0.0
 11
-168.311179401555
 21
236.5128593537771
 31
0.0
  0
LINE
  5
372
330
6F
100
AcDbEntity
  8
0
  6
Continuous
 62
     0
100
AcDbLine
 10
-163.7111794015551
 20
256.7128597106087
 30
0.0
 11
-163.7111794015551
 21
231.7128597106093
 31
0.0
  0
LINE
  5
373
330
6F
100
AcDbEntity
  8
0
  6
Continuous
 62
     0
100
AcDbLine
 10
-171.311179401555
 20
256.7128597106087
 30
0.0
 11
-171.311179401555
 21
231.7128597106093
 31
0.0
  0
LINE
  5
374
330
6F
100
AcDbEntity
  8
0
  6
CENTER
 62
     0
100
AcDbLine
 10
-165.2111794015552
 20
253.7208597106089
 30
0.0
 11
-165.2111794015552
 21
251.7048597106088
 31
0.0
  0
LINE
  5
375
330
6F
100
AcDbEntity
  8
0
  6
CENTER
 62
     0
100
AcDbLine
 10
-166.2191794015552
 20
252.7128597106088
 30
0.0
 11
-164.2031794015552
 21
252.7128597106088
 31
0.0
  0
LINE
  5
376
330
6F
100
AcDbEntity
  8
0
  6
CENTER
 62
     0
100
AcDbLine
 10
-169.811179401555
 20
253.7208597106089
 30
0.0
 11
-169.811179401555
 21
251.7048597106089
 31
0.0
  0
LINE
  5
377
330
6F
100
AcDbEntity
  8
0
  6
CENTER
 62
     0
100
AcDbLine
 10
-170.8191794015549
 20
252.7128597106088
 30
0.0
 11
-168.803179401555
 21
252.7128597106088
 31
0.0
  0
LINE
  5
378
330
6F
100
AcDbEntity
  8
0
  6
CENTER
 62
     0
100
AcDbLine
 10
-167.5111794015552
 20
234.7208597106089
 30
0.0
 11
-167.5111794015552
 21
232.7048597106088
 31
0.0
  0
LINE
  5
379
330
6F
100
AcDbEntity
  8
0
  6
CENTER
 62
     0
100
AcDbLine
 10
-168.5191794015552
 20
233.7128597106088
 30
0.0
 11
-166.5031794015553
 21
233.7128597106088
 31
0.0
  0
CIRCLE
  5
37A
330
6F
100
AcDbEntity
  8
0
  6
Continuous
 62
     0
100
AcDbCircle
 10
-167.5111794015552
 20
233.7128597106088
 30
0.0
 40
0.5
  0
CIRCLE
  5
37B
330
6F
100
AcDbEntity
  8
0
  6
Continuous
 62
     0
100
AcDbCircle
 10
-165.2111794015552
 20
252.7128597106088
 30
0.0
 40
0.5
  0
CIRCLE
  5
37C
330
6F
100
AcDbEntity
  8
0
  6
Continuous
 62
     0
100
AcDbCircle
 10
-169.811179401555
 20
252.7128597106088
 30
0.0
 40
0.5
  0
ARC
  5
37D
330
6F
100
AcDbEntity
  8
0
  6
Continuous
 62
     0
100
AcDbCircle
 10
-170.311179401555
 20
231.7128597106092
 30
0.0
 40
1.0
100
AcDbArc
 50
180.0
 51
270.0
  0
ARC
  5
37E
330
6F
100
AcDbEntity
  8
0
  6
Continuous
 62
     0
100
AcDbCircle
 10
-164.7111794015551
 20
231.7128597106092
 30
0.0
 40
1.0
100
AcDbArc
 50
270.0
 51
0.0
  0
ARC
  5
37F
330
6F
100
AcDbEntity
  8
0
  6
Continuous
 62
     0
100
AcDbCircle
 10
-167.5111794015552
 20
236.5128597106093
 30
0.0
 40
0.8000000000000796
100
AcDbArc
 50
179.9999744437715
 51
0.0
  0
ENDBLK
  5
71
330
6F
100
AcDbEntity
  8
0
100
AcDbBlockEnd
  0
BLOCK
  5
3FC
330
3FB
100
AcDbEntity
  8
0
100
AcDbBlockBegin
  2
_DOT
 70
     0
 10
0.0
 20
0.0
 30
0.0
  3
_DOT
  1

  0
POLYLINE
  5
3FE
330
3FB
100
AcDbEntity
  8
0
  6
ByBlock
 62
     0
100
AcDb2dPolyline
 66
     1
 10
0.0
 20
0.0
 30
0.0
 70
     1
 40
0.5
 41
0.5
  0
VERTEX
  5
400
330
3FE
100
AcDbEntity
  8
0
  6
ByBlock
 62
     0
100
AcDbVertex
100
AcDb2dVertex
 10
-0.25
 20
0.0
 30
0.0
 42
1.0
  0
VERTEX
  5
401
330
3FE
100
AcDbEntity
  8
0
  6
ByBlock
 62
     0
100
AcDbVertex
100
AcDb2dVertex
 10
0.25
 20
0.0
 30
0.0
 42
1.0
  0
SEQEND
  5
402
330
3FE
100
AcDbEntity
  8
0
  6
ByBlock
 62
     0
  0
LINE
  5
3FF
330
3FB
100
AcDbEntity
  8
0
  6
ByBlock
 62
     0
370
    -2
100
AcDbLine
 10
-0.5
 20
0.0
 30
0.0
 11
-1.0
 21
0.0
 31
0.0
  0
ENDBLK
  5
3FD
330
3FB
100
AcDbEntity
  8
0
100
AcDbBlockEnd
  0
BLOCK
  5
40E
330
404
100
AcDbEntity
  8
0
100
AcDbBlockBegin
  2
*D19
 70
     1
 10
0.0
 20
0.0
 30
0.0
  3
*D19
  1

  0
LINE
  5
405
330
404
100
AcDbEntity
  8
0
 62
     0
370
    -2
100
AcDbLine
 10
-252.362326870285
 20
52.65460838338611
 30
0.0
 11
-252.362326870285
 21
21.19460838338611
 31
0.0
  0
LINE
  5
406
330
404
100
AcDbEntity
  8
0
 62
     0
370
    -2
100
AcDbLine
 10
-288.2623268702852
 20
41.91622385508312
 30
0.0
 11
-288.2623268702852
 21
21.19460838338611
 31
0.0
  0
LINE
  5
407
330
404
100
AcDbEntity
  8
0
 62
     0
370
    -2
100
AcDbLine
 10
-253.362326870285
 20
23.19460838338611
 30
0.0
 11
-287.2623268702852
 21
23.19460838338611
 31
0.0
  0
INSERT
  5
408
330
404
100
AcDbEntity
  8
0
 62
     0
370
    -2
100
AcDbBlockReference
  2
_DOT
 10
-252.362326870285
 20
23.19460838338611
 30
0.0
  0
INSERT
  5
409
330
404
100
AcDbEntity
  8
0
 62
     0
370
    -2
100
AcDbBlockReference
  2
_DOT
 10
-288.2623268702852
 20
23.19460838338611
 30
0.0
 50
180.0
  0
MTEXT
  5
40A
330
404
100
AcDbEntity
  8
0
 62
     0
100
AcDbMText
 10
-270.3123268702851
 20
25.06960838338611
 30
0.0
 40
2.5
 41
0.0
 71
     5
 72
     1
  1
718
 73
     1
 44
1.0
  0
POINT
  5
40B
330
404
100
AcDbEntity
  8
Defpoints
 62
     0
100
AcDbPoint
 10
-252.362326870285
 20
55.19460838338611
 30
0.0
  0
POINT
  5
40C
330
404
100
AcDbEntity
  8
Defpoints
 62
     0
100
AcDbPoint
 10
-288.2623268702852
 20
44.45622385508312
 30
0.0
  0
POINT
  5
40D
330
404
100
AcDbEntity
  8
Defpoints
 62
     0
100
AcDbPoint
 10
-288.2623268702852
 20
23.19460838338611
 30
0.0
  0
ENDBLK
  5
40F
330
404
100
AcDbEntity
  8
0
100
AcDbBlockEnd
  0
BLOCK
  5
41D
330
411
100
AcDbEntity
  8
0
100
AcDbBlockBegin
  2
*D20
 70
     1
 10
0.0
 20
0.0
 30
0.0
  3
*D20
  1

  0
LINE
  5
412
330
411
100
AcDbEntity
  8
0
 62
     0
370
    -2
100
AcDbLine
 10
-286.4123268702851
 20
42.21439820763494
 30
0.0
 11
-286.4123268702851
 21
26.19460838338611
 31
0.0
  0
LINE
  5
413
330
411
100
AcDbEntity
  8
0
 62
     0
370
    -2
100
AcDbLine
 10
-288.2623268702852
 20
28.19460838338611
 30
0.0
 11
-319.6946420281759
 21
28.19460838338611
 31
0.0
  0
LINE
  5
414
330
411
100
AcDbEntity
  8
0
 62
     0
370
    -2
100
AcDbLine
 10
-288.2623268702852
 20
28.19460838338611
 30
0.0
 11
-286.4123268702851
 21
28.19460838338611
 31
0.0
  0
LINE
  5
415
330
411
100
AcDbEntity
  8
0
 62
     0
370
    -2
100
AcDbLine
 10
-289.2623268702852
 20
28.19460838338611
 30
0.0
 11
-290.2623268702852
 21
28.19460838338611
 31
0.0
  0
LINE
  5
416
330
411
100
AcDbEntity
  8
0
 62
     0
370
    -2
100
AcDbLine
 10
-285.4123268702851
 20
28.19460838338611
 30
0.0
 11
-284.4123268702851
 21
28.19460838338611
 31
0.0
  0
INSERT
  5
417
330
411
100
AcDbEntity
  8
0
 62
     0
370
    -2
100
AcDbBlockReference
  2
_DOT
 10
-288.2623268702852
 20
28.19460838338611
 30
0.0
  0
INSERT
  5
418
330
411
100
AcDbEntity
  8
0
 62
     0
370
    -2
100
AcDbBlockReference
  2
_DOT
 10
-286.4123268702851
 20
28.19460838338611
 30
0.0
 50
180.0
  0
MTEXT
  5
419
330
411
100
AcDbEntity
  8
0
 62
     0
100
AcDbMText
 10
-305.4982134567474
 20
30.06960838338611
 30
0.0
 40
2.5
 41
0.0
 71
     5
 72
     1
  1
（手洗器キャビネット）３７
 73
     1
 44
1.0
  0
POINT
  5
41A
330
411
100
AcDbEntity
  8
Defpoints
 62
     0
100
AcDbPoint
 10
-288.2623268702852
 20
55.19460838338605
 30
0.0
  0
POINT
  5
41B
330
411
100
AcDbEntity
  8
Defpoints
 62
     0
100
AcDbPoint
 10
-286.4123268702851
 20
44.75439820763494
 30
0.0
  0
POINT
  5
41C
330
411
100
AcDbEntity
  8
Defpoints
 62
     0
100
AcDbPoint
 10
-286.4123268702851
 20
28.19460838338611
 30
0.0
  0
ENDBLK
  5
41E
330
411
100
AcDbEntity
  8
0
100
AcDbBlockEnd
  0
BLOCK
  5
429
330
420
100
AcDbEntity
  8
0
100
AcDbBlockBegin
  2
*D21
 70
     1
 10
0.0
 20
0.0
 30
0.0
  3
*D21
  1

  0
LINE
  5
421
330
420
100
AcDbEntity
  8
0
 62
     0
370
    -2
100
AcDbLine
 10
-254.212326870285
 20
36.18787669821516
 30
0.0
 11
-254.212326870285
 21
26.19460838338611
 31
0.0
  0
LINE
  5
422
330
420
100
AcDbEntity
  8
0
 62
     0
370
    -2
100
AcDbLine
 10
-285.4123268702851
 20
28.19460838338611
 30
0.0
 11
-255.212326870285
 21
28.19460838338611
 31
0.0
  0
INSERT
  5
423
330
420
100
AcDbEntity
  8
0
 62
     0
370
    -2
100
AcDbBlockReference
  2
_DOT
 10
-286.4123268702851
 20
28.19460838338611
 30
0.0
 50
180.0
  0
INSERT
  5
424
330
420
100
AcDbEntity
  8
0
 62
     0
370
    -2
100
AcDbBlockReference
  2
_DOT
 10
-254.212326870285
 20
28.19460838338611
 30
0.0
 50
360.0
  0
MTEXT
  5
425
330
420
100
AcDbEntity
  8
0
 62
     0
100
AcDbMText
 10
-270.3123268702851
 20
30.06960838338611
 30
0.0
 40
2.5
 41
0.0
 71
     5
 72
     1
  1
644
 73
     1
 44
1.0
  0
POINT
  5
426
330
420
100
AcDbEntity
  8
Defpoints
 62
     0
100
AcDbPoint
 10
-286.4123268702851
 20
89.11760838338614
 30
0.0
  0
POINT
  5
427
330
420
100
AcDbEntity
  8
Defpoints
 62
     0
100
AcDbPoint
 10
-254.212326870285
 20
38.72787669821516
 30
0.0
  0
POINT
  5
428
330
420
100
AcDbEntity
  8
Defpoints
 62
     0
100
AcDbPoint
 10
-254.212326870285
 20
28.19460838338611
 30
0.0
  0
ENDBLK
  5
42A
330
420
100
AcDbEntity
  8
0
100
AcDbBlockEnd
  0
BLOCK
  5
438
330
42C
100
AcDbEntity
  8
0
100
AcDbBlockBegin
  2
*D22
 70
     1
 10
0.0
 20
0.0
 30
0.0
  3
*D22
  1

  0
LINE
  5
42D
330
42C
100
AcDbEntity
  8
0
 62
     0
370
    -2
100
AcDbLine
 10
-253.5123268702851
 20
82.02760838338614
 30
0.0
 11
-253.5123268702851
 21
41.19460838338611
 31
0.0
  0
LINE
  5
42E
330
42C
100
AcDbEntity
  8
0
 62
     0
370
    -2
100
AcDbLine
 10
-252.362326870285
 20
43.19460838338611
 30
0.0
 11
-247.4402031857573
 21
43.19460838338611
 31
0.0
  0
LINE
  5
42F
330
42C
100
AcDbEntity
  8
0
 62
     0
370
    -2
100
AcDbLine
 10
-252.362326870285
 20
43.19460838338611
 30
0.0
 11
-253.5123268702851
 21
43.19460838338611
 31
0.0
  0
LINE
  5
430
330
42C
100
AcDbEntity
  8
0
 62
     0
370
    -2
100
AcDbLine
 10
-251.362326870285
 20
43.19460838338611
 30
0.0
 11
-250.362326870285
 21
43.19460838338611
 31
0.0
  0
LINE
  5
431
330
42C
100
AcDbEntity
  8
0
 62
     0
370
    -2
100
AcDbLine
 10
-254.5123268702851
 20
43.19460838338611
 30
0.0
 11
-255.5123268702851
 21
43.19460838338611
 31
0.0
  0
INSERT
  5
432
330
42C
100
AcDbEntity
  8
0
 62
     0
370
    -2
100
AcDbBlockReference
  2
_DOT
 10
-252.362326870285
 20
43.19460838338611
 30
0.0
 50
180.0
  0
INSERT
  5
433
330
42C
100
AcDbEntity
  8
0
 62
     0
370
    -2
100
AcDbBlockReference
  2
_DOT
 10
-253.5123268702851
 20
43.19460838338611
 30
0.0
  0
MTEXT
  5
434
330
42C
100
AcDbEntity
  8
0
 62
     0
100
AcDbMText
 10
-250.0890127095668
 20
45.06960838338611
 30
0.0
 40
2.5
 41
0.0
 71
     5
 72
     1
  1
23
 73
     1
 44
1.0
  0
POINT
  5
435
330
42C
100
AcDbEntity
  8
Defpoints
 62
     0
100
AcDbPoint
 10
-252.362326870285
 20
55.19460838338611
 30
0.0
  0
POINT
  5
436
330
42C
100
AcDbEntity
  8
Defpoints
 62
     0
100
AcDbPoint
 10
-253.5123268702851
 20
84.56760838338614
 30
0.0
  0
POINT
  5
437
330
42C
100
AcDbEntity
  8
Defpoints
 62
     0
100
AcDbPoint
 10
-253.5123268702851
 20
43.19460838338611
 30
0.0
  0
ENDBLK
  5
439
330
42C
100
AcDbEntity
  8
0
100
AcDbBlockEnd
  0
BLOCK
  5
43C
330
43B
100
AcDbEntity
  8
0
100
AcDbBlockBegin
  2
_NONE
 70
     0
 10
0.0
 20
0.0
 30
0.0
  3
_NONE
  1

  0
ENDBLK
  5
43D
330
43B
100
AcDbEntity
  8
0
100
AcDbBlockEnd
  0
BLOCK
  5
44A
330
43E
100
AcDbEntity
  8
0
100
AcDbBlockBegin
  2
*D24
 70
     1
 10
0.0
 20
0.0
 30
0.0
  3
*D24
  1

  0
LINE
  5
43F
330
43E
100
AcDbEntity
  8
0
 62
     0
 60
     1
370
    -2
100
AcDbLine
 10
-265.018075794994
 20
47.96773591229885
 30
0.0
 11
-260.1966472235654
 21
47.96773591229885
 31
0.0
  0
LINE
  5
440
330
43E
100
AcDbEntity
  8
0
 62
     0
 60
     1
370
    -2
100
AcDbLine
 10
-260.1966472235654
 20
47.96773591229885
 30
0.0
 11
-253.9873268702851
 21
43.19460838338611
 31
0.0
  0
LINE
  5
441
330
43E
100
AcDbEntity
  8
0
 62
     0
370
    -2
100
AcDbLine
 10
-254.462326870285
 20
80.87760838338613
 30
0.0
 11
-254.462326870285
 21
41.19460838338611
 31
0.0
  0
LINE
  5
442
330
43E
100
AcDbEntity
  8
0
 62
     0
370
    -2
100
AcDbLine
 10
-253.5123268702851
 20
43.19460838338611
 30
0.0
 11
-254.462326870285
 21
43.19460838338611
 31
0.0
  0
LINE
  5
443
330
43E
100
AcDbEntity
  8
0
 62
     0
370
    -2
100
AcDbLine
 10
-255.462326870285
 20
43.19460838338611
 30
0.0
 11
-256.462326870285
 21
43.19460838338611
 31
0.0
  0
INSERT
  5
444
330
43E
100
AcDbEntity
  8
0
 62
     0
370
    -2
100
AcDbBlockReference
  2
_NONE
 10
-253.5123268702851
 20
43.19460838338611
 30
0.0
 50
180.0
  0
INSERT
  5
445
330
43E
100
AcDbEntity
  8
0
 62
     0
370
    -2
100
AcDbBlockReference
  2
_DOT
 10
-254.462326870285
 20
43.19460838338611
 30
0.0
  0
MTEXT
  5
446
330
43E
100
AcDbEntity
  8
0
 62
     0
100
AcDbMText
 10
-260.8216472235654
 20
47.96773591229885
 30
0.0
 40
2.5
 41
0.0
 71
     8
 72
     1
  1
19
 73
     1
 44
1.0
  0
POINT
  5
447
330
43E
100
AcDbEntity
  8
Defpoints
 62
     0
100
AcDbPoint
 10
-253.5123268702851
 20
84.56760838338614
 30
0.0
  0
POINT
  5
448
330
43E
100
AcDbEntity
  8
Defpoints
 62
     0
100
AcDbPoint
 10
-254.462326870285
 20
83.41760838338614
 30
0.0
  0
POINT
  5
449
330
43E
100
AcDbEntity
  8
Defpoints
 62
     0
100
AcDbPoint
 10
-254.462326870285
 20
43.19460838338611
 30
0.0
  0
LINE
  5
44C
330
43E
100
AcDbEntity
  8
0
  6
Continuous
 62
     7
100
AcDbLine
 10
-253.9873268702852
 20
43.19460838338605
 30
0.0
 11
-256.7430933339793
 21
47.96773591229876
 31
0.0
  0
LINE
  5
44D
330
43E
100
AcDbEntity
  8
0
  6
Continuous
 62
     7
100
AcDbLine
 10
-256.7430933339792
 20
47.96773591229885
 30
0.0
 11
-262.9633139637445
 21
47.96773591229885
 31
0.0
  0
ENDBLK
  5
44B
330
43E
100
AcDbEntity
  8
0
100
AcDbBlockEnd
  0
BLOCK
  5
45A
330
44F
100
AcDbEntity
  8
0
100
AcDbBlockBegin
  2
*D25
 70
     1
 10
0.0
 20
0.0
 30
0.0
  3
*D25
  1

  0
LINE
  5
450
330
44F
100
AcDbEntity
  8
0
 62
     0
370
    -2
100
AcDbLine
 10
-255.4123268702851
 20
82.02760838338614
 30
0.0
 11
-255.4123268702851
 21
41.19460838338611
 31
0.0
  0
LINE
  5
451
330
44F
100
AcDbEntity
  8
0
 62
     0
370
    -2
100
AcDbLine
 10
-255.4123268702851
 20
43.19460838338611
 30
0.0
 11
-290.7972593205375
 21
43.19460838338611
 31
0.0
  0
LINE
  5
452
330
44F
100
AcDbEntity
  8
0
 62
     0
370
    -2
100
AcDbLine
 10
-254.462326870285
 20
43.19460838338611
 30
0.0
 11
-255.4123268702851
 21
43.19460838338611
 31
0.0
  0
LINE
  5
453
330
44F
100
AcDbEntity
  8
0
 62
     0
370
    -2
100
AcDbLine
 10
-256.4123268702851
 20
43.19460838338611
 30
0.0
 11
-257.4123268702851
 21
43.19460838338611
 31
0.0
  0
INSERT
  5
454
330
44F
100
AcDbEntity
  8
0
 62
     0
370
    -2
100
AcDbBlockReference
  2
_NONE
 10
-254.462326870285
 20
43.19460838338611
 30
0.0
 50
180.0
  0
INSERT
  5
455
330
44F
100
AcDbEntity
  8
0
 62
     0
370
    -2
100
AcDbBlockReference
  2
_DOT
 10
-255.4123268702851
 20
43.19460838338611
 30
0.0
  0
MTEXT
  5
456
330
44F
100
AcDbEntity
  8
0
 62
     0
100
AcDbMText
 10
-275.5294021776803
 20
45.06960838338611
 30
0.0
 40
2.5
 41
0.0
 71
     5
 72
     1
  1
（自動水栓コントローラ）１９
 73
     1
 44
1.0
  0
POINT
  5
457
330
44F
100
AcDbEntity
  8
Defpoints
 62
     0
100
AcDbPoint
 10
-254.462326870285
 20
83.41760838338614
 30
0.0
  0
POINT
  5
458
330
44F
100
AcDbEntity
  8
Defpoints
 62
     0
100
AcDbPoint
 10
-255.4123268702851
 20
84.56760838338614
 30
0.0
  0
POINT
  5
459
330
44F
100
AcDbEntity
  8
Defpoints
 62
     0
100
AcDbPoint
 10
-255.4123268702851
 20
43.19460838338611
 30
0.0
  0
ENDBLK
  5
45B
330
44F
100
AcDbEntity
  8
0
100
AcDbBlockEnd
  0
BLOCK
  5
467
330
45D
100
AcDbEntity
  8
0
100
AcDbBlockBegin
  2
*D26
 70
     1
 10
0.0
 20
0.0
 30
0.0
  3
*D26
  1

  0
LINE
  5
45E
330
45D
100
AcDbEntity
  8
0
 62
     0
370
    -2
100
AcDbLine
 10
-255.7623268702851
 20
41.92321250208696
 30
0.0
 11
-255.7623268702851
 21
36.19460838338611
 31
0.0
  0
LINE
  5
45F
330
45D
100
AcDbEntity
  8
0
 62
     0
370
    -2
100
AcDbLine
 10
-252.362326870285
 20
38.19460838338611
 30
0.0
 11
-246.9415220903253
 21
38.19460838338611
 31
0.0
  0
LINE
  5
460
330
45D
100
AcDbEntity
  8
0
 62
     0
370
    -2
100
AcDbLine
 10
-253.362326870285
 20
38.19460838338611
 30
0.0
 11
-254.7623268702851
 21
38.19460838338611
 31
0.0
  0
INSERT
  5
461
330
45D
100
AcDbEntity
  8
0
 62
     0
370
    -2
100
AcDbBlockReference
  2
_DOT
 10
-252.362326870285
 20
38.19460838338611
 30
0.0
  0
INSERT
  5
462
330
45D
100
AcDbEntity
  8
0
 62
     0
370
    -2
100
AcDbBlockReference
  2
_DOT
 10
-255.7623268702851
 20
38.19460838338611
 30
0.0
 50
180.0
  0
MTEXT
  5
463
330
45D
100
AcDbEntity
  8
0
 62
     0
100
AcDbMText
 10
-249.530807804611
 20
40.06960838338611
 30
0.0
 40
2.5
 41
0.0
 71
     5
 72
     1
  1
68
 73
     1
 44
1.0
  0
POINT
  5
464
330
45D
100
AcDbEntity
  8
Defpoints
 62
     0
100
AcDbPoint
 10
-252.362326870285
 20
55.19460838338611
 30
0.0
  0
POINT
  5
465
330
45D
100
AcDbEntity
  8
Defpoints
 62
     0
100
AcDbPoint
 10
-255.7623268702851
 20
44.46321250208696
 30
0.0
  0
POINT
  5
466
330
45D
100
AcDbEntity
  8
Defpoints
 62
     0
100
AcDbPoint
 10
-255.7623268702851
 20
38.19460838338611
 30
0.0
  0
ENDBLK
  5
468
330
45D
100
AcDbEntity
  8
0
100
AcDbBlockEnd
  0
BLOCK
  5
475
330
46A
100
AcDbEntity
  8
0
100
AcDbBlockBegin
  2
*D27
 70
     1
 10
0.0
 20
0.0
 30
0.0
  3
*D27
  1

  0
LINE
  5
46B
330
46A
100
AcDbEntity
  8
0
 62
     0
370
    -2
100
AcDbLine
 10
-256.5623268702851
 20
41.92321250208696
 30
0.0
 11
-256.5623268702851
 21
36.19460838338611
 31
0.0
  0
LINE
  5
46C
330
46A
100
AcDbEntity
  8
0
 62
     0
370
    -2
100
AcDbLine
 10
-256.5623268702851
 20
38.19460838338611
 30
0.0
 11
-278.609354619775
 21
38.19460838338611
 31
0.0
  0
LINE
  5
46D
330
46A
100
AcDbEntity
  8
0
 62
     0
370
    -2
100
AcDbLine
 10
-255.7623268702851
 20
38.19460838338611
 30
0.0
 11
-256.5623268702851
 21
38.19460838338611
 31
0.0
  0
LINE
  5
46E
330
46A
100
AcDbEntity
  8
0
 62
     0
370
    -2
100
AcDbLine
 10
-257.5623268702851
 20
38.19460838338611
 30
0.0
 11
-258.5623268702851
 21
38.19460838338611
 31
0.0
  0
INSERT
  5
46F
330
46A
100
AcDbEntity
  8
0
 62
     0
370
    -2
100
AcDbBlockReference
  2
_NONE
 10
-255.7623268702851
 20
38.19460838338611
 30
0.0
 50
180.0
  0
INSERT
  5
470
330
46A
100
AcDbEntity
  8
0
 62
     0
370
    -2
100
AcDbBlockReference
  2
_DOT
 10
-256.5623268702851
 20
38.19460838338611
 30
0.0
  0
MTEXT
  5
471
330
46A
100
AcDbEntity
  8
0
 62
     0
100
AcDbMText
 10
-268.6986403340607
 20
40.06960838338611
 30
0.0
 40
2.5
 41
0.0
 71
     5
 72
     1
  1
（電気温水器）１６
 73
     1
 44
1.0
  0
POINT
  5
472
330
46A
100
AcDbEntity
  8
Defpoints
 62
     0
100
AcDbPoint
 10
-255.7623268702851
 20
79.69260838338613
 30
0.0
  0
POINT
  5
473
330
46A
100
AcDbEntity
  8
Defpoints
 62
     0
100
AcDbPoint
 10
-256.5623268702851
 20
44.46321250208696
 30
0.0
  0
POINT
  5
474
330
46A
100
AcDbEntity
  8
Defpoints
 62
     0
100
AcDbPoint
 10
-256.5623268702851
 20
38.19460838338611
 30
0.0
  0
ENDBLK
  5
476
330
46A
100
AcDbEntity
  8
0
100
AcDbBlockEnd
  0
BLOCK
  5
482
330
478
100
AcDbEntity
  8
0
100
AcDbBlockBegin
  2
*D28
 70
     1
 10
0.0
 20
0.0
 30
0.0
  3
*D28
  1

  0
LINE
  5
479
330
478
100
AcDbEntity
  8
0
 62
     0
370
    -2
100
AcDbLine
 10
-249.822326870285
 20
55.19460838338611
 30
0.0
 11
-238.3623268702851
 21
55.1946083833861
 31
0.0
  0
LINE
  5
47A
330
478
100
AcDbEntity
  8
0
 62
     0
370
    -2
100
AcDbLine
 10
-252.9953268702851
 20
79.91960838338608
 30
0.0
 11
-238.3623268702851
 21
79.91960838338606
 31
0.0
  0
LINE
  5
47B
330
478
100
AcDbEntity
  8
0
 62
     0
370
    -2
100
AcDbLine
 10
-240.362326870285
 20
56.1946083833861
 30
0.0
 11
-240.362326870285
 21
78.91960838338606
 31
0.0
  0
INSERT
  5
47C
330
478
100
AcDbEntity
  8
0
 62
     0
370
    -2
100
AcDbBlockReference
  2
_DOT
 10
-240.362326870285
 20
55.1946083833861
 30
0.0
 50
270.0
  0
INSERT
  5
47D
330
478
100
AcDbEntity
  8
0
 62
     0
370
    -2
100
AcDbBlockReference
  2
_DOT
 10
-240.362326870285
 20
79.91960838338606
 30
0.0
 50
90.0
  0
MTEXT
  5
47E
330
478
100
AcDbEntity
  8
0
 62
     0
100
AcDbMText
 10
-242.237326870285
 20
56.27158465450549
 30
0.0
 40
2.5
 41
0.0
 71
     5
 72
     1
  1
（電気温水器）　　４９４．５
 11
0.0
 21
1.0
 31
0.0
 73
     1
 44
1.0
  0
POINT
  5
47F
330
478
100
AcDbEntity
  8
Defpoints
 62
     0
100
AcDbPoint
 10
-252.362326870285
 20
55.19460838338611
 30
0.0
  0
POINT
  5
480
330
478
100
AcDbEntity
  8
Defpoints
 62
     0
100
AcDbPoint
 10
-255.5353268702851
 20
79.91960838338608
 30
0.0
  0
POINT
  5
481
330
478
100
AcDbEntity
  8
Defpoints
 62
     0
100
AcDbPoint
 10
-240.362326870285
 20
79.91960838338608
 30
0.0
  0
ENDBLK
  5
483
330
478
100
AcDbEntity
  8
0
100
AcDbBlockEnd
  0
BLOCK
  5
490
330
485
100
AcDbEntity
  8
0
100
AcDbBlockBegin
  2
*D29
 70
     1
 10
0.0
 20
0.0
 30
0.0
  3
*D29
  1

  0
LINE
  5
486
330
485
100
AcDbEntity
  8
0
 62
     0
370
    -2
100
AcDbLine
 10
-249.822326870285
 20
55.19460838338611
 30
0.0
 11
-233.362326870285
 21
55.1946083833861
 31
0.0
  0
LINE
  5
487
330
485
100
AcDbEntity
  8
0
 62
     0
370
    -2
100
AcDbLine
 10
-251.6953268702851
 20
83.6446083833861
 30
0.0
 11
-233.362326870285
 21
83.6446083833861
 31
0.0
  0
LINE
  5
488
330
485
100
AcDbEntity
  8
0
 62
     0
370
    -2
100
AcDbLine
 10
-235.3623268702851
 20
55.1946083833861
 30
0.0
 11
-235.3623268702851
 21
28.90502286192227
 31
0.0
  0
LINE
  5
489
330
485
100
AcDbEntity
  8
0
 62
     0
370
    -2
100
AcDbLine
 10
-235.3623268702851
 20
56.1946083833861
 30
0.0
 11
-235.3623268702851
 21
82.6446083833861
 31
0.0
  0
INSERT
  5
48A
330
485
100
AcDbEntity
  8
0
 62
     0
370
    -2
100
AcDbBlockReference
  2
_DOT
 10
-235.3623268702851
 20
55.1946083833861
 30
0.0
 50
270.0
  0
INSERT
  5
48B
330
485
100
AcDbEntity
  8
0
 62
     0
370
    -2
100
AcDbBlockReference
  2
_DOT
 10
-235.3623268702851
 20
83.6446083833861
 30
0.0
 50
90.0
  0
MTEXT
  5
48C
330
485
100
AcDbEntity
  8
0
 62
     0
100
AcDbMText
 10
-237.2373268702851
 20
49.53002286192228
 30
0.0
 40
2.5
 41
0.0
 71
     5
 72
     1
  1
（自動水栓コントローラ）　　　　５６９
 11
0.0
 21
1.0
 31
0.0
 73
     1
 44
1.0
  0
POINT
  5
48D
330
485
100
AcDbEntity
  8
Defpoints
 62
     0
100
AcDbPoint
 10
-252.362326870285
 20
55.19460838338611
 30
0.0
  0
POINT
  5
48E
330
485
100
AcDbEntity
  8
Defpoints
 62
     0
100
AcDbPoint
 10
-254.2353268702851
 20
83.6446083833861
 30
0.0
  0
POINT
  5
48F
330
485
100
AcDbEntity
  8
Defpoints
 62
     0
100
AcDbPoint
 10
-235.3623268702851
 20
83.6446083833861
 30
0.0
  0
ENDBLK
  5
491
330
485
100
AcDbEntity
  8
0
100
AcDbBlockEnd
  0
BLOCK
  5
49E
330
493
100
AcDbEntity
  8
0
100
AcDbBlockBegin
  2
*D30
 70
     1
 10
0.0
 20
0.0
 30
0.0
  3
*D30
  1

  0
LINE
  5
494
330
493
100
AcDbEntity
  8
0
 62
     0
370
    -2
100
AcDbLine
 10
-250.7453268702851
 20
84.79460838338612
 30
0.0
 11
-233.362326870285
 21
84.79460838338612
 31
0.0
  0
LINE
  5
495
330
493
100
AcDbEntity
  8
0
 62
     0
370
    -2
100
AcDbLine
 10
-235.3623268702851
 20
84.79460838338612
 30
0.0
 11
-235.3623268702851
 21
89.57041359136181
 31
0.0
  0
LINE
  5
496
330
493
100
AcDbEntity
  8
0
 62
     0
370
    -2
100
AcDbLine
 10
-235.3623268702851
 20
83.6446083833861
 30
0.0
 11
-235.3623268702851
 21
84.79460838338612
 31
0.0
  0
LINE
  5
497
330
493
100
AcDbEntity
  8
0
 62
     0
370
    -2
100
AcDbLine
 10
-235.3623268702851
 20
85.79460838338612
 30
0.0
 11
-235.3623268702851
 21
86.79460838338612
 31
0.0
  0
INSERT
  5
498
330
493
100
AcDbEntity
  8
0
 62
     0
370
    -2
100
AcDbBlockReference
  2
_NONE
 10
-235.3623268702851
 20
83.6446083833861
 30
0.0
 50
90.0
  0
INSERT
  5
499
330
493
100
AcDbEntity
  8
0
 62
     0
370
    -2
100
AcDbBlockReference
  2
_DOT
 10
-235.3623268702851
 20
84.79460838338612
 30
0.0
 50
270.0
  0
MTEXT
  5
49A
330
493
100
AcDbEntity
  8
0
 62
     0
100
AcDbMText
 10
-237.2373268702851
 20
86.9216040675523
 30
0.0
 40
2.5
 41
0.0
 71
     5
 72
     1
  1
23
 11
0.0
 21
1.0
 31
0.0
 73
     1
 44
1.0
  0
POINT
  5
49B
330
493
100
AcDbEntity
  8
Defpoints
 62
     0
100
AcDbPoint
 10
-254.2353268702851
 20
83.6446083833861
 30
0.0
  0
POINT
  5
49C
330
493
100
AcDbEntity
  8
Defpoints
 62
     0
100
AcDbPoint
 10
-253.2853268702851
 20
84.79460838338612
 30
0.0
  0
POINT
  5
49D
330
493
100
AcDbEntity
  8
Defpoints
 62
     0
100
AcDbPoint
 10
-235.3623268702851
 20
84.79460838338612
 30
0.0
  0
ENDBLK
  5
49F
330
493
100
AcDbEntity
  8
0
100
AcDbBlockEnd
  0
BLOCK
  5
4AC
330
4A1
100
AcDbEntity
  8
0
100
AcDbBlockBegin
  2
*D31
 70
     1
 10
0.0
 20
0.0
 30
0.0
  3
*D31
  1

  0
LINE
  5
4A2
330
4A1
100
AcDbEntity
  8
0
 62
     0
370
    -2
100
AcDbLine
 10
-249.822326870285
 20
55.19460838338611
 30
0.0
 11
-228.362326870285
 21
55.1946083833861
 31
0.0
  0
LINE
  5
4A3
330
4A1
100
AcDbEntity
  8
0
 62
     0
370
    -2
100
AcDbLine
 10
-251.4453268702851
 20
89.34460838338615
 30
0.0
 11
-228.362326870285
 21
89.34460838338613
 31
0.0
  0
LINE
  5
4A4
330
4A1
100
AcDbEntity
  8
0
 62
     0
370
    -2
100
AcDbLine
 10
-230.3623268702851
 20
55.1946083833861
 30
0.0
 11
-230.3623268702851
 21
31.26050830752362
 31
0.0
  0
LINE
  5
4A5
330
4A1
100
AcDbEntity
  8
0
 62
     0
370
    -2
100
AcDbLine
 10
-230.3623268702851
 20
56.1946083833861
 30
0.0
 11
-230.3623268702851
 21
88.34460838338613
 31
0.0
  0
INSERT
  5
4A6
330
4A1
100
AcDbEntity
  8
0
 62
     0
370
    -2
100
AcDbBlockReference
  2
_DOT
 10
-230.3623268702851
 20
55.1946083833861
 30
0.0
 50
270.0
  0
INSERT
  5
4A7
330
4A1
100
AcDbEntity
  8
0
 62
     0
370
    -2
100
AcDbBlockReference
  2
_DOT
 10
-230.3623268702851
 20
89.34460838338613
 30
0.0
 50
90.0
  0
MTEXT
  5
4A8
330
4A1
100
AcDbEntity
  8
0
 62
     0
100
AcDbMText
 10
-232.2373268702851
 20
51.88550830752362
 30
0.0
 40
2.5
 41
0.0
 71
     5
 72
     1
  1
（手洗器キャビネット）　　　　　６８３
 11
0.0
 21
1.0
 31
0.0
 73
     1
 44
1.0
  0
POINT
  5
4A9
330
4A1
100
AcDbEntity
  8
Defpoints
 62
     0
100
AcDbPoint
 10
-252.362326870285
 20
55.19460838338611
 30
0.0
  0
POINT
  5
4AA
330
4A1
100
AcDbEntity
  8
Defpoints
 62
     0
100
AcDbPoint
 10
-253.9853268702851
 20
89.34460838338615
 30
0.0
  0
POINT
  5
4AB
330
4A1
100
AcDbEntity
  8
Defpoints
 62
     0
100
AcDbPoint
 10
-230.3623268702851
 20
89.34460838338615
 30
0.0
  0
ENDBLK
  5
4AD
330
4A1
100
AcDbEntity
  8
0
100
AcDbBlockEnd
  0
BLOCK
  5
4BC
330
4AF
100
AcDbEntity
  8
0
100
AcDbBlockBegin
  2
*D32
 70
     1
 10
0.0
 20
0.0
 30
0.0
  3
*D32
  1

  0
LINE
  5
4B0
330
4AF
100
AcDbEntity
  8
0
 62
     0
370
    -2
100
AcDbLine
 10
-252.362326870285
 20
195.7346083833862
 30
0.0
 11
-252.362326870285
 21
207.1946083833861
 31
0.0
  0
LINE
  5
4B1
330
4AF
100
AcDbEntity
  8
0
 62
     0
370
    -2
100
AcDbLine
 10
-252.612326870285
 20
201.5804443538506
 30
0.0
 11
-252.612326870285
 21
207.1946083833861
 31
0.0
  0
LINE
  5
4B2
330
4AF
100
AcDbEntity
  8
0
 62
     0
370
    -2
100
AcDbLine
 10
-252.362326870285
 20
205.1946083833861
 30
0.0
 11
-230.186790255812
 21
205.1946083833861
 31
0.0
  0
LINE
  5
4B3
330
4AF
100
AcDbEntity
  8
0
 62
     0
370
    -2
100
AcDbLine
 10
-252.362326870285
 20
205.1946083833861
 30
0.0
 11
-252.612326870285
 21
205.1946083833861
 31
0.0
  0
LINE
  5
4B4
330
4AF
100
AcDbEntity
  8
0
 62
     0
370
    -2
100
AcDbLine
 10
-251.362326870285
 20
205.1946083833861
 30
0.0
 11
-250.362326870285
 21
205.1946083833861
 31
0.0
  0
LINE
  5
4B5
330
4AF
100
AcDbEntity
  8
0
 62
     0
370
    -2
100
AcDbLine
 10
-253.612326870285
 20
205.1946083833861
 30
0.0
 11
-254.612326870285
 21
205.1946083833861
 31
0.0
  0
INSERT
  5
4B6
330
4AF
100
AcDbEntity
  8
0
 62
     0
370
    -2
100
AcDbBlockReference
  2
_DOT
 10
-252.362326870285
 20
205.1946083833861
 30
0.0
 50
180.0
  0
INSERT
  5
4B7
330
4AF
100
AcDbEntity
  8
0
 62
     0
370
    -2
100
AcDbBlockReference
  2
_DOT
 10
-252.612326870285
 20
205.1946083833861
 30
0.0
  0
MTEXT
  5
4B8
330
4AF
100
AcDbEntity
  8
0
 62
     0
100
AcDbMText
 10
-240.0975045415263
 20
207.0696083833861
 30
0.0
 40
2.5
 41
0.0
 71
     5
 72
     1
  1
５（クリアランス）
 73
     1
 44
1.0
  0
POINT
  5
4B9
330
4AF
100
AcDbEntity
  8
Defpoints
 62
     0
100
AcDbPoint
 10
-252.362326870285
 20
193.1946083833862
 30
0.0
  0
POINT
  5
4BA
330
4AF
100
AcDbEntity
  8
Defpoints
 62
     0
100
AcDbPoint
 10
-252.612326870285
 20
199.0404443538506
 30
0.0
  0
POINT
  5
4BB
330
4AF
100
AcDbEntity
  8
Defpoints
 62
     0
100
AcDbPoint
 10
-252.612326870285
 20
205.1946083833861
 30
0.0
  0
ENDBLK
  5
4BD
330
4AF
100
AcDbEntity
  8
0
100
AcDbBlockEnd
  0
BLOCK
  5
4C8
330
4BF
100
AcDbEntity
  8
0
100
AcDbBlockBegin
  2
*D33
 70
     1
 10
0.0
 20
0.0
 30
0.0
  3
*D33
  1

  0
LINE
  5
4C0
330
4BF
100
AcDbEntity
  8
0
 62
     0
370
    -2
100
AcDbLine
 10
-327.1123268702849
 20
195.734608383386
 30
0.0
 11
-327.1123268702849
 21
207.1946083833861
 31
0.0
  0
LINE
  5
4C1
330
4BF
100
AcDbEntity
  8
0
 62
     0
370
    -2
100
AcDbLine
 10
-252.612326870285
 20
205.1946083833861
 30
0.0
 11
-326.1123268702849
 21
205.1946083833861
 31
0.0
  0
INSERT
  5
4C2
330
4BF
100
AcDbEntity
  8
0
 62
     0
370
    -2
100
AcDbBlockReference
  2
_NONE
 10
-252.612326870285
 20
205.1946083833861
 30
0.0
  0
INSERT
  5
4C3
330
4BF
100
AcDbEntity
  8
0
 62
     0
370
    -2
100
AcDbBlockReference
  2
_DOT
 10
-327.1123268702849
 20
205.1946083833861
 30
0.0
 50
180.0
  0
MTEXT
  5
4C4
330
4BF
100
AcDbEntity
  8
0
 62
     0
100
AcDbMText
 10
-289.862326870285
 20
207.0696083833861
 30
0.0
 40
2.5
 41
0.0
 71
     5
 72
     1
  1
１４９０（カウンター長さ）
 73
     1
 44
1.0
  0
POINT
  5
4C5
330
4BF
100
AcDbEntity
  8
Defpoints
 62
     0
100
AcDbPoint
 10
-252.612326870285
 20
193.1946083833861
 30
0.0
  0
POINT
  5
4C6
330
4BF
100
AcDbEntity
  8
Defpoints
 62
     0
100
AcDbPoint
 10
-327.1123268702849
 20
193.1946083833861
 30
0.0
  0
POINT
  5
4C7
330
4BF
100
AcDbEntity
  8
Defpoints
 62
     0
100
AcDbPoint
 10
-327.1123268702849
 20
205.1946083833861
 30
0.0
  0
ENDBLK
  5
4C9
330
4BF
100
AcDbEntity
  8
0
100
AcDbBlockEnd
  0
BLOCK
  5
4D6
330
4CB
100
AcDbEntity
  8
0
100
AcDbBlockBegin
  2
*D34
 70
     1
 10
0.0
 20
0.0
 30
0.0
  3
*D34
  1

  0
LINE
  5
4CC
330
4CB
100
AcDbEntity
  8
0
 62
     0
370
    -2
100
AcDbLine
 10
-327.3623268702849
 20
195.7346083833862
 30
0.0
 11
-327.3623268702849
 21
207.1946083833861
 31
0.0
  0
LINE
  5
4CD
330
4CB
100
AcDbEntity
  8
0
 62
     0
370
    -2
100
AcDbLine
 10
-327.3623268702849
 20
205.1946083833861
 30
0.0
 11
-350.1138560290999
 21
205.1946083833861
 31
0.0
  0
LINE
  5
4CE
330
4CB
100
AcDbEntity
  8
0
 62
     0
370
    -2
100
AcDbLine
 10
-327.1123268702849
 20
205.1946083833861
 30
0.0
 11
-327.3623268702849
 21
205.1946083833861
 31
0.0
  0
LINE
  5
4CF
330
4CB
100
AcDbEntity
  8
0
 62
     0
370
    -2
100
AcDbLine
 10
-328.3623268702849
 20
205.1946083833861
 30
0.0
 11
-329.3623268702849
 21
205.1946083833861
 31
0.0
  0
INSERT
  5
4D0
330
4CB
100
AcDbEntity
  8
0
 62
     0
370
    -2
100
AcDbBlockReference
  2
_NONE
 10
-327.1123268702849
 20
205.1946083833861
 30
0.0
 50
180.0
  0
INSERT
  5
4D1
330
4CB
100
AcDbEntity
  8
0
 62
     0
370
    -2
100
AcDbBlockReference
  2
_DOT
 10
-327.3623268702849
 20
205.1946083833861
 30
0.0
  0
MTEXT
  5
4D2
330
4CB
100
AcDbEntity
  8
0
 62
     0
100
AcDbMText
 10
-340.2031417433856
 20
207.0696083833861
 30
0.0
 40
2.5
 41
0.0
 71
     5
 72
     1
  1
（クリアランス）５
 73
     1
 44
1.0
  0
POINT
  5
4D3
330
4CB
100
AcDbEntity
  8
Defpoints
 62
     0
100
AcDbPoint
 10
-327.1123268702849
 20
193.1946083833861
 30
0.0
  0
POINT
  5
4D4
330
4CB
100
AcDbEntity
  8
Defpoints
 62
     0
100
AcDbPoint
 10
-327.3623268702849
 20
193.1946083833862
 30
0.0
  0
POINT
  5
4D5
330
4CB
100
AcDbEntity
  8
Defpoints
 62
     0
100
AcDbPoint
 10
-327.3623268702849
 20
205.1946083833861
 30
0.0
  0
ENDBLK
  5
4D7
330
4CB
100
AcDbEntity
  8
0
100
AcDbBlockEnd
  0
BLOCK
  5
4E4
330
4D9
100
AcDbEntity
  8
0
100
AcDbBlockBegin
  2
*D35
 70
     1
 10
0.0
 20
0.0
 30
0.0
  3
*D35
  1

  0
LINE
  5
4DA
330
4D9
100
AcDbEntity
  8
0
 62
     0
370
    -2
100
AcDbLine
 10
-252.362326870285
 20
195.7346083833862
 30
0.0
 11
-252.362326870285
 21
202.1946083833861
 31
0.0
  0
LINE
  5
4DB
330
4D9
100
AcDbEntity
  8
0
 62
     0
370
    -2
100
AcDbLine
 10
-270.3123268702851
 20
195.7346083833864
 30
0.0
 11
-270.3123268702851
 21
202.1946083833861
 31
0.0
  0
LINE
  5
4DC
330
4D9
100
AcDbEntity
  8
0
 62
     0
370
    -2
100
AcDbLine
 10
-270.3123268702851
 20
200.1946083833861
 30
0.0
 11
-299.0963651421296
 21
200.1946083833861
 31
0.0
  0
LINE
  5
4DD
330
4D9
100
AcDbEntity
  8
0
 62
     0
370
    -2
100
AcDbLine
 10
-253.362326870285
 20
200.1946083833861
 30
0.0
 11
-269.3123268702851
 21
200.1946083833861
 31
0.0
  0
INSERT
  5
4DE
330
4D9
100
AcDbEntity
  8
0
 62
     0
370
    -2
100
AcDbBlockReference
  2
_DOT
 10
-252.362326870285
 20
200.1946083833861
 30
0.0
  0
INSERT
  5
4DF
330
4D9
100
AcDbEntity
  8
0
 62
     0
370
    -2
100
AcDbBlockReference
  2
_DOT
 10
-270.3123268702851
 20
200.1946083833861
 30
0.0
 50
180.0
  0
MTEXT
  5
4E0
330
4D9
100
AcDbEntity
  8
0
 62
     0
100
AcDbMText
 10
-279.5427937135582
 20
202.0696083833861
 30
0.0
 40
2.5
 41
0.0
 71
     5
 72
     1
  1
（手洗器キャビネット中心）　　３５９
 73
     1
 44
1.0
  0
POINT
  5
4E1
330
4D9
100
AcDbEntity
  8
Defpoints
 62
     0
100
AcDbPoint
 10
-252.362326870285
 20
193.1946083833862
 30
0.0
  0
POINT
  5
4E2
330
4D9
100
AcDbEntity
  8
Defpoints
 62
     0
100
AcDbPoint
 10
-270.3123268702851
 20
193.1946083833864
 30
0.0
  0
POINT
  5
4E3
330
4D9
100
AcDbEntity
  8
Defpoints
 62
     0
100
AcDbPoint
 10
-270.3123268702851
 20
200.1946083833861
 30
0.0
  0
ENDBLK
  5
4E5
330
4D9
100
AcDbEntity
  8
0
100
AcDbBlockEnd
  0
BLOCK
  5
4F1
330
4E7
100
AcDbEntity
  8
0
100
AcDbBlockBegin
  2
*D36
 70
     1
 10
0.0
 20
0.0
 30
0.0
  3
*D36
  1

  0
LINE
  5
4E8
330
4E7
100
AcDbEntity
  8
0
 62
     0
370
    -2
100
AcDbLine
 10
-249.822326870285
 20
193.1946083833861
 30
0.0
 11
-238.7048920274642
 21
193.1946083833861
 31
0.0
  0
LINE
  5
4E9
330
4E7
100
AcDbEntity
  8
0
 62
     0
370
    -2
100
AcDbLine
 10
-250.072326870285
 20
179.194608383386
 30
0.0
 11
-238.7048920274642
 21
179.194608383386
 31
0.0
  0
LINE
  5
4EA
330
4E7
100
AcDbEntity
  8
0
 62
     0
370
    -2
100
AcDbLine
 10
-240.7048920274641
 20
192.1946083833861
 30
0.0
 11
-240.7048920274641
 21
180.194608383386
 31
0.0
  0
INSERT
  5
4EB
330
4E7
100
AcDbEntity
  8
0
 62
     0
370
    -2
100
AcDbBlockReference
  2
_DOT
 10
-240.7048920274641
 20
193.1946083833861
 30
0.0
 50
90.0
  0
INSERT
  5
4EC
330
4E7
100
AcDbEntity
  8
0
 62
     0
370
    -2
100
AcDbBlockReference
  2
_DOT
 10
-240.7048920274641
 20
179.194608383386
 30
0.0
 50
270.0
  0
MTEXT
  5
4ED
330
4E7
100
AcDbEntity
  8
0
 62
     0
100
AcDbMText
 10
-242.5798920274641
 20
186.1946083833861
 30
0.0
 40
2.5
 41
0.0
 71
     5
 72
     1
  1
280
 11
0.0
 21
1.0
 31
0.0
 73
     1
 44
1.0
  0
POINT
  5
4EE
330
4E7
100
AcDbEntity
  8
Defpoints
 62
     0
100
AcDbPoint
 10
-252.362326870285
 20
193.1946083833861
 30
0.0
  0
POINT
  5
4EF
330
4E7
100
AcDbEntity
  8
Defpoints
 62
     0
100
AcDbPoint
 10
-252.612326870285
 20
179.194608383386
 30
0.0
  0
POINT
  5
4F0
330
4E7
100
AcDbEntity
  8
Defpoints
 62
     0
100
AcDbPoint
 10
-240.7048920274641
 20
179.194608383386
 30
0.0
  0
ENDBLK
  5
4F2
330
4E7
100
AcDbEntity
  8
0
100
AcDbBlockEnd
  0
BLOCK
  5
4FE
330
4F4
100
AcDbEntity
  8
0
100
AcDbBlockBegin
  2
*D37
 70
     1
 10
0.0
 20
0.0
 30
0.0
  3
*D37
  1

  0
LINE
  5
4F5
330
4F4
100
AcDbEntity
  8
0
 62
     0
370
    -2
100
AcDbLine
 10
-249.822326870285
 20
55.19460838338611
 30
0.0
 11
-223.362326870285
 21
55.1946083833861
 31
0.0
  0
LINE
  5
4F6
330
4F4
100
AcDbEntity
  8
0
 62
     0
370
    -2
100
AcDbLine
 10
-250.072326870285
 20
92.69460838338617
 30
0.0
 11
-223.362326870285
 21
92.69460838338615
 31
0.0
  0
LINE
  5
4F7
330
4F4
100
AcDbEntity
  8
0
 62
     0
370
    -2
100
AcDbLine
 10
-225.3623268702851
 20
56.1946083833861
 30
0.0
 11
-225.3623268702851
 21
91.69460838338615
 31
0.0
  0
INSERT
  5
4F8
330
4F4
100
AcDbEntity
  8
0
 62
     0
370
    -2
100
AcDbBlockReference
  2
_DOT
 10
-225.3623268702851
 20
55.1946083833861
 30
0.0
 50
270.0
  0
INSERT
  5
4F9
330
4F4
100
AcDbEntity
  8
0
 62
     0
370
    -2
100
AcDbBlockReference
  2
_DOT
 10
-225.3623268702851
 20
92.69460838338615
 30
0.0
 50
90.0
  0
MTEXT
  5
4FA
330
4F4
100
AcDbEntity
  8
0
 62
     0
100
AcDbMText
 10
-227.2373268702851
 20
73.94460838338614
 30
0.0
 40
2.5
 41
0.0
 71
     5
 72
     1
  1
７５０（７３８※３）
 11
0.0
 21
1.0
 31
0.0
 73
     1
 44
1.0
  0
POINT
  5
4FB
330
4F4
100
AcDbEntity
  8
Defpoints
 62
     0
100
AcDbPoint
 10
-252.362326870285
 20
55.19460838338611
 30
0.0
  0
POINT
  5
4FC
330
4F4
100
AcDbEntity
  8
Defpoints
 62
     0
100
AcDbPoint
 10
-252.612326870285
 20
92.69460838338617
 30
0.0
  0
POINT
  5
4FD
330
4F4
100
AcDbEntity
  8
Defpoints
 62
     0
100
AcDbPoint
 10
-225.3623268702851
 20
92.69460838338617
 30
0.0
  0
ENDBLK
  5
4FF
330
4F4
100
AcDbEntity
  8
0
100
AcDbBlockEnd
  0
BLOCK
  5
509
330
500
100
AcDbEntity
  8
0
100
AcDbBlockBegin
  2
VIS-ULNS3CRN0017
 70
     0
 10
0.0
 20
0.0
 30
0.0
  3
VIS-ULNS3CRN0017
  1

  0
LINE
  5
501
330
500
100
AcDbEntity
  8
0
  6
Continuous
 62
     7
100
AcDbLine
 10
0.0
 20
0.0
 30
0.0
 11
-6.360621287176343
 21
27.1805391987165
 31
0.0
  0
LINE
  5
502
330
500
100
AcDbEntity
  8
0
  6
Continuous
 62
     7
100
AcDbLine
 10
0.0
 20
0.0
 30
0.0
 11
-1.657268165940025
 21
2.693225246087252
 31
0.0
  0
LINE
  5
503
330
500
100
AcDbEntity
  8
0
  6
Continuous
 62
     7
100
AcDbLine
 10
0.0
 20
0.0
 30
0.0
 11
0.290120614900331
 21
3.14894109643383
 31
0.0
  0
LINE
  5
504
330
500
100
AcDbEntity
  8
0
  6
Continuous
 62
     7
100
AcDbLine
 10
-6.360621287176343
 20
27.18053919871647
 30
0.0
 11
-32.79505516092513
 21
27.18053919871647
 31
0.0
  0
MTEXT
  5
505
330
500
100
AcDbEntity
  8
0
 62
     7
100
AcDbMText
 10
-31.36162188322294
 20
27.80553919871676
 30
0.0
 40
2.5
 41
0.0
 71
     7
 72
     1
  1
{\W0.833333;ホースクランプ}
 73
     1
 44
1.0
  0
MTEXT
  5
506
330
500
100
AcDbEntity
  8
0
 62
     7
100
AcDbMText
 10
-31.36162188322294
 20
23.01387257178652
 30
0.0
 40
2.5
 41
0.0
 71
     7
 72
     1
  1
{\W0.833333;ハンドル式水栓の場合}
 73
     1
 44
1.0
  0
MTEXT
  5
507
330
500
100
AcDbEntity
  8
0
 62
     7
100
AcDbMText
 10
-31.36162188322294
 20
18.84720594485628
 30
0.0
 40
2.5
 41
0.0
 71
     7
 72
     1
  1
{\W0.833333;（位置は任意）}
 73
     1
 44
1.0
  0
ENDBLK
  5
50A
330
500
100
AcDbEntity
  8
0
100
AcDbBlockEnd
  0
BLOCK
  5
516
330
50C
100
AcDbEntity
  8
0
100
AcDbBlockBegin
  2
*D39
 70
     1
 10
0.0
 20
0.0
 30
0.0
  3
*D39
  1

  0
LINE
  5
50D
330
50C
100
AcDbEntity
  8
0
 62
     0
370
    -2
100
AcDbLine
 10
-322.612326870285
 20
94.03460838338583
 30
0.0
 11
-322.612326870285
 21
119.6946083833861
 31
0.0
  0
LINE
  5
50E
330
50C
100
AcDbEntity
  8
0
 62
     0
370
    -2
100
AcDbLine
 10
-327.362326870285
 20
117.6946083833861
 30
0.0
 11
-354.9417300328137
 21
117.6946083833861
 31
0.0
  0
LINE
  5
50F
330
50C
100
AcDbEntity
  8
0
 62
     0
370
    -2
100
AcDbLine
 10
-326.362326870285
 20
117.6946083833861
 30
0.0
 11
-323.612326870285
 21
117.6946083833861
 31
0.0
  0
INSERT
  5
510
330
50C
100
AcDbEntity
  8
0
 62
     0
370
    -2
100
AcDbBlockReference
  2
_DOT
 10
-327.362326870285
 20
117.6946083833861
 30
0.0
 50
180.0
  0
INSERT
  5
511
330
50C
100
AcDbEntity
  8
0
 62
     0
370
    -2
100
AcDbBlockReference
  2
_DOT
 10
-322.612326870285
 20
117.6946083833861
 30
0.0
  0
MTEXT
  5
512
330
50C
100
AcDbEntity
  8
0
 62
     0
 60
     1
100
AcDbMText
 10
-342.8881586042422
 20
121.6529417167194
 30
0.0
 40
2.5
 41
0.0
 71
     5
 72
     1
  1
（ブラケット中心）９５\P　　　　　　　　　※２
 73
     1
 44
1.0
  0
POINT
  5
513
330
50C
100
AcDbEntity
  8
Defpoints
 62
     0
100
AcDbPoint
 10
-327.362326870285
 20
157.6946083833861
 30
0.0
  0
POINT
  5
514
330
50C
100
AcDbEntity
  8
Defpoints
 62
     0
100
AcDbPoint
 10
-322.612326870285
 20
91.49460838338582
 30
0.0
  0
POINT
  5
515
330
50C
100
AcDbEntity
  8
Defpoints
 62
     0
100
AcDbPoint
 10
-322.612326870285
 20
117.6946083833861
 30
0.0
  0
MTEXT
  5
518
330
50C
100
AcDbEntity
  8
0
 62
     7
100
AcDbMText
 10
-356.2798256126422
 20
118.3196083833861
 30
0.0
 40
2.5
 41
0.0
 71
     7
 72
     1
  1
\W0.833333;(ブラケット中心)95
 73
     1
 44
1.0
  0
MTEXT
  5
519
330
50C
100
AcDbEntity
  8
0
 62
     7
100
AcDbMText
 10
-356.2798256126422
 20
113.9446083833861
 30
0.0
 40
2.5
 41
0.0
 71
     7
 72
     1
  1
\W0.833333;　　　　　　　　　※２
 73
     1
 44
1.0
  0
ENDBLK
  5
517
330
50C
100
AcDbEntity
  8
0
100
AcDbBlockEnd
  0
BLOCK
  5
528
330
51B
100
AcDbEntity
  8
0
100
AcDbBlockBegin
  2
*D40
 70
     1
 10
0.0
 20
0.0
 30
0.0
  3
*D40
  1

  0
LINE
  5
51C
330
51B
100
AcDbEntity
  8
0
 62
     0
 60
     1
370
    -2
100
AcDbLine
 10
-167.5111794015552
 20
259.2528597106101
 30
0.0
 11
-167.5111794015552
 21
265.7128597106101
 31
0.0
  0
LINE
  5
51D
330
51B
100
AcDbEntity
  8
0
 62
     0
 60
     1
370
    -2
100
AcDbLine
 10
-169.811179401555
 20
256.2608597106089
 30
0.0
 11
-169.811179401555
 21
265.7128597106101
 31
0.0
  0
LINE
  5
51E
330
51B
100
AcDbEntity
  8
0
 62
     0
 60
     1
370
    -2
100
AcDbLine
 10
-169.811179401555
 20
263.7128597106101
 30
0.0
 11
-180.8508601791632
 21
263.7128597106101
 31
0.0
  0
LINE
  5
51F
330
51B
100
AcDbEntity
  8
0
 62
     0
 60
     1
370
    -2
100
AcDbLine
 10
-167.5111794015552
 20
263.7128597106101
 30
0.0
 11
-169.811179401555
 21
263.7128597106101
 31
0.0
  0
LINE
  5
520
330
51B
100
AcDbEntity
  8
0
 62
     0
 60
     1
370
    -2
100
AcDbLine
 10
-166.5111794015552
 20
263.7128597106101
 30
0.0
 11
-165.5111794015552
 21
263.7128597106101
 31
0.0
  0
LINE
  5
521
330
51B
100
AcDbEntity
  8
0
 62
     0
 60
     1
370
    -2
100
AcDbLine
 10
-170.811179401555
 20
263.7128597106101
 30
0.0
 11
-171.811179401555
 21
263.7128597106101
 31
0.0
  0
INSERT
  5
522
330
51B
100
AcDbEntity
  8
0
 62
     0
 60
     1
370
    -2
100
AcDbBlockReference
  2
_DOT
 10
-167.5111794015552
 20
263.7128597106101
 30
0.0
 50
180.0
  0
INSERT
  5
523
330
51B
100
AcDbEntity
  8
0
 62
     0
 60
     1
370
    -2
100
AcDbBlockReference
  2
_DOT
 10
-169.811179401555
 20
263.7128597106101
 30
0.0
  0
MTEXT
  5
524
330
51B
100
AcDbEntity
  8
0
 62
     0
100
AcDbMText
 10
-176.5949077982108
 20
265.5878597106101
 30
0.0
 40
2.5
 41
0.0
 71
     5
 72
     1
  1
11.5
 73
     1
 44
1.0
  0
POINT
  5
525
330
51B
100
AcDbEntity
  8
Defpoints
 62
     0
100
AcDbPoint
 10
-167.5111794015552
 20
256.7128597106101
 30
0.0
  0
POINT
  5
526
330
51B
100
AcDbEntity
  8
Defpoints
 62
     0
100
AcDbPoint
 10
-169.811179401555
 20
253.7208597106089
 30
0.0
  0
POINT
  5
527
330
51B
100
AcDbEntity
  8
Defpoints
 62
     0
100
AcDbPoint
 10
-169.811179401555
 20
263.7128597106101
 30
0.0
  0
LINE
  5
52A
330
51B
100
AcDbEntity
  8
0
  6
Continuous
 62
     7
100
AcDbLine
 10
-167.5111794015552
 20
259.2528597106101
 30
0.0
 11
-167.5111794015552
 21
265.7128597106101
 31
0.0
  0
LINE
  5
52B
330
51B
100
AcDbEntity
  8
0
  6
Continuous
 62
     7
100
AcDbLine
 10
-169.811179401555
 20
256.2608597106089
 30
0.0
 11
-169.811179401555
 21
265.7128597106101
 31
0.0
  0
LINE
  5
52C
330
51B
100
AcDbEntity
  8
0
  6
Continuous
 62
     7
100
AcDbLine
 10
-167.5111794015552
 20
263.7128597106101
 30
0.0
 11
-169.811179401555
 21
263.7128597106101
 31
0.0
  0
LWPOLYLINE
  5
52D
330
51B
100
AcDbEntity
  8
0
  6
Continuous
 62
     7
100
AcDbPolyline
 90
        3
 70
     0
 10
-167.7611794015552
 20
263.7128597106101
 40
1.0
 41
1.0
 42
1.0
 10
-167.2611794015552
 20
263.7128597106101
 40
1.0
 41
1.0
 42
1.0
 10
-167.7611794015552
 20
263.7128597106101
 40
1.0
 41
1.0
 42
1.0
  0
LWPOLYLINE
  5
52E
330
51B
100
AcDbEntity
  8
0
  6
Continuous
 62
     7
100
AcDbPolyline
 90
        3
 70
     0
 10
-170.061179401555
 20
263.7128597106101
 40
1.0
 41
1.0
 42
1.0
 10
-169.561179401555
 20
263.7128597106101
 40
1.0
 41
1.0
 42
1.0
 10
-170.061179401555
 20
263.7128597106101
 40
1.0
 41
1.0
 42
1.0
  0
LINE
  5
52F
330
51B
100
AcDbEntity
  8
0
  6
Continuous
 62
     7
100
AcDbLine
 10
-169.811179401555
 20
263.7128597106101
 30
0.0
 11
-181.2365745979945
 21
263.7128597106101
 31
0.0
  0
ENDBLK
  5
529
330
51B
100
AcDbEntity
  8
0
100
AcDbBlockEnd
  0
BLOCK
  5
53E
330
531
100
AcDbEntity
  8
0
100
AcDbBlockBegin
  2
*D41
 70
     1
 10
0.0
 20
0.0
 30
0.0
  3
*D41
  1

  0
LINE
  5
532
330
531
100
AcDbEntity
  8
0
 62
     0
 60
     1
370
    -2
100
AcDbLine
 10
-165.2111794015552
 20
256.2608597106089
 30
0.0
 11
-165.2111794015552
 21
265.7128597106101
 31
0.0
  0
LINE
  5
533
330
531
100
AcDbEntity
  8
0
 62
     0
 60
     1
370
    -2
100
AcDbLine
 10
-167.5111794015552
 20
259.2528597106101
 30
0.0
 11
-167.5111794015552
 21
265.7128597106101
 31
0.0
  0
LINE
  5
534
330
531
100
AcDbEntity
  8
0
 62
     0
 60
     1
370
    -2
100
AcDbLine
 10
-165.2111794015552
 20
263.7128597106101
 30
0.0
 11
-155.4081221021934
 21
263.7128597106101
 31
0.0
  0
LINE
  5
535
330
531
100
AcDbEntity
  8
0
 62
     0
 60
     1
370
    -2
100
AcDbLine
 10
-165.2111794015552
 20
263.7128597106101
 30
0.0
 11
-167.5111794015552
 21
263.7128597106101
 31
0.0
  0
LINE
  5
536
330
531
100
AcDbEntity
  8
0
 62
     0
 60
     1
370
    -2
100
AcDbLine
 10
-164.2111794015552
 20
263.7128597106101
 30
0.0
 11
-163.2111794015552
 21
263.7128597106101
 31
0.0
  0
LINE
  5
537
330
531
100
AcDbEntity
  8
0
 62
     0
 60
     1
370
    -2
100
AcDbLine
 10
-168.5111794015552
 20
263.7128597106101
 30
0.0
 11
-169.5111794015552
 21
263.7128597106101
 31
0.0
  0
INSERT
  5
538
330
531
100
AcDbEntity
  8
0
 62
     0
 60
     1
370
    -2
100
AcDbBlockReference
  2
_DOT
 10
-165.2111794015552
 20
263.7128597106101
 30
0.0
 50
180.0
  0
INSERT
  5
539
330
531
100
AcDbEntity
  8
0
 62
     0
 60
     1
370
    -2
100
AcDbBlockReference
  2
_DOT
 10
-167.5111794015552
 20
263.7128597106101
 30
0.0
  0
MTEXT
  5
53A
330
531
100
AcDbEntity
  8
0
 62
     0
100
AcDbMText
 10
-159.6640744831458
 20
265.5878597106101
 30
0.0
 40
2.5
 41
0.0
 71
     5
 72
     1
  1
11.5
 73
     1
 44
1.0
  0
POINT
  5
53B
330
531
100
AcDbEntity
  8
Defpoints
 62
     0
100
AcDbPoint
 10
-165.2111794015552
 20
253.7208597106089
 30
0.0
  0
POINT
  5
53C
330
531
100
AcDbEntity
  8
Defpoints
 62
     0
100
AcDbPoint
 10
-167.5111794015552
 20
256.7128597106101
 30
0.0
  0
POINT
  5
53D
330
531
100
AcDbEntity
  8
Defpoints
 62
     0
100
AcDbPoint
 10
-167.5111794015552
 20
263.7128597106101
 30
0.0
  0
LINE
  5
540
330
531
100
AcDbEntity
  8
0
  6
Continuous
 62
     7
100
AcDbLine
 10
-165.2111794015552
 20
256.2608597106089
 30
0.0
 11
-165.2111794015552
 21
265.7128597106101
 31
0.0
  0
LINE
  5
541
330
531
100
AcDbEntity
  8
0
  6
Continuous
 62
     7
100
AcDbLine
 10
-167.5111794015552
 20
259.2528597106101
 30
0.0
 11
-167.5111794015552
 21
265.7128597106101
 31
0.0
  0
LINE
  5
542
330
531
100
AcDbEntity
  8
0
  6
Continuous
 62
     7
100
AcDbLine
 10
-165.2111794015552
 20
263.7128597106101
 30
0.0
 11
-167.5111794015552
 21
263.7128597106101
 31
0.0
  0
LWPOLYLINE
  5
543
330
531
100
AcDbEntity
  8
0
  6
Continuous
 62
     7
100
AcDbPolyline
 90
        3
 70
     0
 10
-165.4611794015552
 20
263.7128597106101
 40
1.0
 41
1.0
 42
1.0
 10
-164.9611794015552
 20
263.7128597106101
 40
1.0
 41
1.0
 42
1.0
 10
-165.4611794015552
 20
263.7128597106101
 40
1.0
 41
1.0
 42
1.0
  0
LWPOLYLINE
  5
544
330
531
100
AcDbEntity
  8
0
  6
Continuous
 62
     7
100
AcDbPolyline
 90
        3
 70
     0
 10
-167.7611794015552
 20
263.7128597106101
 40
1.0
 41
1.0
 42
1.0
 10
-167.2611794015552
 20
263.7128597106101
 40
1.0
 41
1.0
 42
1.0
 10
-167.7611794015552
 20
263.7128597106101
 40
1.0
 41
1.0
 42
1.0
  0
LINE
  5
545
330
531
100
AcDbEntity
  8
0
  6
Continuous
 62
     7
100
AcDbLine
 10
-165.2111794015552
 20
263.7128597106101
 30
0.0
 11
-155.0224076833621
 21
263.7128597106101
 31
0.0
  0
ENDBLK
  5
53F
330
531
100
AcDbEntity
  8
0
100
AcDbBlockEnd
  0
BLOCK
  5
550
330
547
100
AcDbEntity
  8
0
100
AcDbBlockBegin
  2
*D42
 70
     1
 10
0.0
 20
0.0
 30
0.0
  3
*D42
  1

  0
LINE
  5
548
330
547
100
AcDbEntity
  8
0
 62
     0
 60
     1
370
    -2
100
AcDbLine
 10
-206.9711794015558
 20
246.1128597106099
 30
0.0
 11
-196.0111794015539
 21
246.1128597106099
 31
0.0
  0
LINE
  5
549
330
547
100
AcDbEntity
  8
0
 62
     0
 60
     1
370
    -2
100
AcDbLine
 10
-198.011179401554
 20
206.7128597106101
 30
0.0
 11
-198.011179401554
 21
245.1128597106099
 31
0.0
  0
INSERT
  5
54A
330
547
100
AcDbEntity
  8
0
 62
     0
 60
     1
370
    -2
100
AcDbBlockReference
  2
_NONE
 10
-198.011179401554
 20
206.7128597106101
 30
0.0
 50
270.0
  0
INSERT
  5
54B
330
547
100
AcDbEntity
  8
0
 62
     0
 60
     1
370
    -2
100
AcDbBlockReference
  2
_DOT
 10
-198.011179401554
 20
246.1128597106099
 30
0.0
 50
90.0
  0
MTEXT
  5
54C
330
547
100
AcDbEntity
  8
0
 62
     0
100
AcDbMText
 10
-199.886179401554
 20
235.9718395110672
 30
0.0
 40
2.5
 41
0.0
 71
     5
 72
     1
  1
FL+673
 11
0.0
 21
1.0
 31
0.0
 73
     1
 44
1.0
  0
POINT
  5
54D
330
547
100
AcDbEntity
  8
Defpoints
 62
     0
100
AcDbPoint
 10
-192.5111794015545
 20
206.7128597106101
 30
0.0
  0
POINT
  5
54E
330
547
100
AcDbEntity
  8
Defpoints
 62
     0
100
AcDbPoint
 10
-209.5111794015558
 20
246.1128597106099
 30
0.0
  0
POINT
  5
54F
330
547
100
AcDbEntity
  8
Defpoints
 62
     0
100
AcDbPoint
 10
-198.011179401554
 20
246.1128597106099
 30
0.0
  0
LINE
  5
552
330
547
100
AcDbEntity
  8
0
  6
Continuous
 62
     7
100
AcDbLine
 10
-206.9711794015558
 20
246.1128597106099
 30
0.0
 11
-196.0111794015539
 21
246.1128597106099
 31
0.0
  0
LINE
  5
553
330
547
100
AcDbEntity
  8
0
  6
Continuous
 62
     7
100
AcDbLine
 10
-198.011179401554
 20
227.4330410015187
 30
0.0
 11
-198.011179401554
 21
246.1128597106099
 31
0.0
  0
LWPOLYLINE
  5
554
330
547
100
AcDbEntity
  8
0
  6
Continuous
 62
     7
100
AcDbPolyline
 90
        3
 70
     0
 10
-198.261179401554
 20
246.1128597106099
 40
1.0
 41
1.0
 42
1.0
 10
-197.761179401554
 20
246.1128597106099
 40
1.0
 41
1.0
 42
1.0
 10
-198.261179401554
 20
246.1128597106099
 40
1.0
 41
1.0
 42
1.0
  0
ENDBLK
  5
551
330
547
100
AcDbEntity
  8
0
100
AcDbBlockEnd
  0
BLOCK
  5
55E
330
556
100
AcDbEntity
  8
0
100
AcDbBlockBegin
  2
*D43
 70
     1
 10
0.0
 20
0.0
 30
0.0
  3
*D43
  1

  0
LINE
  5
557
330
556
100
AcDbEntity
  8
0
 62
     0
 60
     1
370
    -2
100
AcDbLine
 10
-153.7111794015551
 20
232.7128597106088
 30
0.0
 11
-153.7111794015551
 21
216.8621669461125
 31
0.0
  0
INSERT
  5
558
330
556
100
AcDbEntity
  8
0
 62
     0
 60
     1
370
    -2
100
AcDbBlockReference
  2
_DOT
 10
-153.7111794015551
 20
233.7128597106088
 30
0.0
 50
90.0
  0
INSERT
  5
559
330
556
100
AcDbEntity
  8
0
 62
     0
 60
     1
370
    -2
100
AcDbBlockReference
  2
_NONE
 10
-153.7111794015551
 20
216.8621669461125
 30
0.0
 50
270.0
  0
MTEXT
  5
55A
330
556
100
AcDbEntity
  8
0
 62
     0
100
AcDbMText
 10
-155.5861794015551
 20
225.2875133283606
 30
0.0
 40
2.5
 41
0.0
 71
     5
 72
     1
  1
FL+595
 11
0.0
 21
1.0
 31
0.0
 73
     1
 44
1.0
  0
POINT
  5
55B
330
556
100
AcDbEntity
  8
Defpoints
 62
     0
100
AcDbPoint
 10
-166.5031794015553
 20
233.7128597106088
 30
0.0
  0
POINT
  5
55C
330
556
100
AcDbEntity
  8
Defpoints
 62
     0
100
AcDbPoint
 10
-145.0111794015544
 20
216.8621669461125
 30
0.0
  0
POINT
  5
55D
330
556
100
AcDbEntity
  8
Defpoints
 62
     0
100
AcDbPoint
 10
-153.7111794015551
 20
216.8621669461125
 30
0.0
  0
LINE
  5
560
330
556
100
AcDbEntity
  8
0
  6
Continuous
 62
     7
100
AcDbLine
 10
-153.7111794015551
 20
233.7128597106088
 30
0.0
 11
-153.7111794015551
 21
217.8542339330511
 31
0.0
  0
LWPOLYLINE
  5
561
330
556
100
AcDbEntity
  8
0
  6
Continuous
 62
     7
100
AcDbPolyline
 90
        3
 70
     0
 10
-153.9611794015551
 20
233.7128597106088
 40
1.0
 41
1.0
 42
1.0
 10
-153.4611794015551
 20
233.7128597106088
 40
1.0
 41
1.0
 42
1.0
 10
-153.9611794015551
 20
233.7128597106088
 40
1.0
 41
1.0
 42
1.0
  0
ENDBLK
  5
55F
330
556
100
AcDbEntity
  8
0
100
AcDbBlockEnd
  0
BLOCK
  5
570
330
563
100
AcDbEntity
  8
0
100
AcDbBlockBegin
  2
*D44
 70
     1
 10
0.0
 20
0.0
 30
0.0
  3
*D44
  1

  0
LINE
  5
564
330
563
100
AcDbEntity
  8
0
 62
     0
 60
     1
370
    -2
100
AcDbLine
 10
-212.5111794015545
 20
259.2528597106101
 30
0.0
 11
-212.5111794015545
 21
265.7128597106101
 31
0.0
  0
LINE
  5
565
330
563
100
AcDbEntity
  8
0
 62
     0
 60
     1
370
    -2
100
AcDbLine
 10
-215.511179401555
 20
253.6528597106099
 30
0.0
 11
-215.511179401555
 21
265.7128597106101
 31
0.0
  0
LINE
  5
566
330
563
100
AcDbEntity
  8
0
 62
     0
 60
     1
370
    -2
100
AcDbLine
 10
-215.511179401555
 20
263.7128597106101
 30
0.0
 11
-221.9060550572655
 21
263.7128597106101
 31
0.0
  0
LINE
  5
567
330
563
100
AcDbEntity
  8
0
 62
     0
 60
     1
370
    -2
100
AcDbLine
 10
-212.5111794015545
 20
263.7128597106101
 30
0.0
 11
-215.511179401555
 21
263.7128597106101
 31
0.0
  0
LINE
  5
568
330
563
100
AcDbEntity
  8
0
 62
     0
 60
     1
370
    -2
100
AcDbLine
 10
-211.5111794015545
 20
263.7128597106101
 30
0.0
 11
-210.5111794015545
 21
263.7128597106101
 31
0.0
  0
LINE
  5
569
330
563
100
AcDbEntity
  8
0
 62
     0
 60
     1
370
    -2
100
AcDbLine
 10
-216.511179401555
 20
263.7128597106101
 30
0.0
 11
-217.511179401555
 21
263.7128597106101
 31
0.0
  0
INSERT
  5
56A
330
563
100
AcDbEntity
  8
0
 62
     0
 60
     1
370
    -2
100
AcDbBlockReference
  2
_DOT
 10
-212.5111794015545
 20
263.7128597106101
 30
0.0
 50
180.0
  0
INSERT
  5
56B
330
563
100
AcDbEntity
  8
0
 62
     0
 60
     1
370
    -2
100
AcDbBlockReference
  2
_DOT
 10
-215.511179401555
 20
263.7128597106101
 30
0.0
  0
MTEXT
  5
56C
330
563
100
AcDbEntity
  8
0
 62
     0
100
AcDbMText
 10
-219.4358169620274
 20
265.5878597106101
 30
0.0
 40
2.5
 41
0.0
 71
     5
 72
     1
  1
15
 73
     1
 44
1.0
  0
POINT
  5
56D
330
563
100
AcDbEntity
  8
Defpoints
 62
     0
100
AcDbPoint
 10
-212.5111794015545
 20
256.7128597106101
 30
0.0
  0
POINT
  5
56E
330
563
100
AcDbEntity
  8
Defpoints
 62
     0
100
AcDbPoint
 10
-215.511179401555
 20
251.1128597106099
 30
0.0
  0
POINT
  5
56F
330
563
100
AcDbEntity
  8
Defpoints
 62
     0
100
AcDbPoint
 10
-215.511179401555
 20
263.7128597106101
 30
0.0
  0
LINE
  5
572
330
563
100
AcDbEntity
  8
0
  6
Continuous
 62
     7
100
AcDbLine
 10
-212.5111794015545
 20
259.2528597106101
 30
0.0
 11
-212.5111794015545
 21
265.7128597106101
 31
0.0
  0
LINE
  5
573
330
563
100
AcDbEntity
  8
0
  6
Continuous
 62
     7
100
AcDbLine
 10
-215.511179401555
 20
253.6528597106099
 30
0.0
 11
-215.511179401555
 21
265.7128597106101
 31
0.0
  0
LINE
  5
574
330
563
100
AcDbEntity
  8
0
  6
Continuous
 62
     7
100
AcDbLine
 10
-212.5111794015544
 20
263.7128597106101
 30
0.0
 11
-215.5111794015548
 21
263.7128597106101
 31
0.0
  0
LWPOLYLINE
  5
575
330
563
100
AcDbEntity
  8
0
  6
Continuous
 62
     7
100
AcDbPolyline
 90
        3
 70
     0
 10
-212.7611794015544
 20
263.7128597106101
 40
1.0
 41
1.0
 42
1.0
 10
-212.2611794015544
 20
263.7128597106101
 40
1.0
 41
1.0
 42
1.0
 10
-212.7611794015544
 20
263.7128597106101
 40
1.0
 41
1.0
 42
1.0
  0
LWPOLYLINE
  5
576
330
563
100
AcDbEntity
  8
0
  6
Continuous
 62
     7
100
AcDbPolyline
 90
        3
 70
     0
 10
-215.7611794015548
 20
263.7128597106101
 40
1.0
 41
1.0
 42
1.0
 10
-215.2611794015548
 20
263.7128597106101
 40
1.0
 41
1.0
 42
1.0
 10
-215.7611794015548
 20
263.7128597106101
 40
1.0
 41
1.0
 42
1.0
  0
LINE
  5
577
330
563
100
AcDbEntity
  8
0
  6
Continuous
 62
     7
100
AcDbLine
 10
-215.5111794015548
 20
263.7128597106101
 30
0.0
 11
-221.5774837022065
 21
263.7128597106101
 31
0.0
  0
ENDBLK
  5
571
330
563
100
AcDbEntity
  8
0
100
AcDbBlockEnd
  0
BLOCK
  5
585
330
579
100
AcDbEntity
  8
0
100
AcDbBlockBegin
  2
*D45
 70
     1
 10
0.0
 20
0.0
 30
0.0
  3
*D45
  1

  0
LINE
  5
57A
330
579
100
AcDbEntity
  8
0
 62
     0
 60
     1
370
    -2
100
AcDbLine
 10
-209.5111794015559
 20
253.6528597106099
 30
0.0
 11
-209.5111794015559
 21
265.7128597106101
 31
0.0
  0
LINE
  5
57B
330
579
100
AcDbEntity
  8
0
 62
     0
 60
     1
370
    -2
100
AcDbLine
 10
-209.5111794015559
 20
263.7128597106101
 30
0.0
 11
-203.4583196294468
 21
263.7128597106101
 31
0.0
  0
LINE
  5
57C
330
579
100
AcDbEntity
  8
0
 62
     0
 60
     1
370
    -2
100
AcDbLine
 10
-212.5111794015545
 20
263.7128597106101
 30
0.0
 11
-209.5111794015559
 21
263.7128597106101
 31
0.0
  0
LINE
  5
57D
330
579
100
AcDbEntity
  8
0
 62
     0
 60
     1
370
    -2
100
AcDbLine
 10
-213.5111794015545
 20
263.7128597106101
 30
0.0
 11
-214.5111794015545
 21
263.7128597106101
 31
0.0
  0
LINE
  5
57E
330
579
100
AcDbEntity
  8
0
 62
     0
 60
     1
370
    -2
100
AcDbLine
 10
-208.5111794015559
 20
263.7128597106101
 30
0.0
 11
-207.5111794015559
 21
263.7128597106101
 31
0.0
  0
INSERT
  5
57F
330
579
100
AcDbEntity
  8
0
 62
     0
 60
     1
370
    -2
100
AcDbBlockReference
  2
_DOT
 10
-212.5111794015545
 20
263.7128597106101
 30
0.0
  0
INSERT
  5
580
330
579
100
AcDbEntity
  8
0
 62
     0
 60
     1
370
    -2
100
AcDbBlockReference
  2
_DOT
 10
-209.5111794015559
 20
263.7128597106101
 30
0.0
 50
180.0
  0
MTEXT
  5
581
330
579
100
AcDbEntity
  8
0
 62
     0
100
AcDbMText
 10
-205.9285577246849
 20
265.5878597106101
 30
0.0
 40
2.5
 41
0.0
 71
     5
 72
     1
  1
15
 73
     1
 44
1.0
  0
POINT
  5
582
330
579
100
AcDbEntity
  8
Defpoints
 62
     0
100
AcDbPoint
 10
-212.5111794015545
 20
256.7128597106101
 30
0.0
  0
POINT
  5
583
330
579
100
AcDbEntity
  8
Defpoints
 62
     0
100
AcDbPoint
 10
-209.5111794015559
 20
251.1128597106099
 30
0.0
  0
POINT
  5
584
330
579
100
AcDbEntity
  8
Defpoints
 62
     0
100
AcDbPoint
 10
-209.5111794015559
 20
263.7128597106101
 30
0.0
  0
LINE
  5
587
330
579
100
AcDbEntity
  8
0
  6
Continuous
 62
     7
100
AcDbLine
 10
-209.5111794015559
 20
253.6528597106099
 30
0.0
 11
-209.5111794015559
 21
265.7128597106101
 31
0.0
  0
LINE
  5
588
330
579
100
AcDbEntity
  8
0
  6
Continuous
 62
     7
100
AcDbLine
 10
-212.5111794015544
 20
263.7128597106101
 30
0.0
 11
-209.5111794015558
 21
263.7128597106101
 31
0.0
  0
LWPOLYLINE
  5
589
330
579
100
AcDbEntity
  8
0
  6
Continuous
 62
     7
100
AcDbPolyline
 90
        3
 70
     0
 10
-212.7611794015544
 20
263.7128597106101
 40
1.0
 41
1.0
 42
1.0
 10
-212.2611794015544
 20
263.7128597106101
 40
1.0
 41
1.0
 42
1.0
 10
-212.7611794015544
 20
263.7128597106101
 40
1.0
 41
1.0
 42
1.0
  0
LWPOLYLINE
  5
58A
330
579
100
AcDbEntity
  8
0
  6
Continuous
 62
     7
100
AcDbPolyline
 90
        3
 70
     0
 10
-209.7611794015558
 20
263.7128597106101
 40
1.0
 41
1.0
 42
1.0
 10
-209.2611794015558
 20
263.7128597106101
 40
1.0
 41
1.0
 42
1.0
 10
-209.7611794015558
 20
263.7128597106101
 40
1.0
 41
1.0
 42
1.0
  0
LINE
  5
58B
330
579
100
AcDbEntity
  8
0
  6
Continuous
 62
     7
100
AcDbLine
 10
-209.5111794015558
 20
263.7128597106101
 30
0.0
 11
-203.7868909845058
 21
263.7128597106101
 31
0.0
  0
ENDBLK
  5
586
330
579
100
AcDbEntity
  8
0
100
AcDbBlockEnd
  0
BLOCK
  5
597
330
58D
100
AcDbEntity
  8
0
100
AcDbBlockBegin
  2
*D46
 70
     1
 10
0.0
 20
0.0
 30
0.0
  3
*D46
  1

  0
LINE
  5
58E
330
58D
100
AcDbEntity
  8
0
 62
     0
 60
     1
370
    -2
100
AcDbLine
 10
-206.9711794015558
 20
251.1128597106099
 30
0.0
 11
-196.011179401554
 21
251.1128597106099
 31
0.0
  0
LINE
  5
58F
330
58D
100
AcDbEntity
  8
0
 62
     0
 60
     1
370
    -2
100
AcDbLine
 10
-198.011179401554
 20
251.1128597106099
 30
0.0
 11
-198.011179401554
 21
256.6723456543472
 31
0.0
  0
LINE
  5
590
330
58D
100
AcDbEntity
  8
0
 62
     0
 60
     1
370
    -2
100
AcDbLine
 10
-198.011179401554
 20
247.1128597106099
 30
0.0
 11
-198.011179401554
 21
250.1128597106099
 31
0.0
  0
INSERT
  5
591
330
58D
100
AcDbEntity
  8
0
 62
     0
 60
     1
370
    -2
100
AcDbBlockReference
  2
_DOT
 10
-198.011179401554
 20
246.1128597106099
 30
0.0
 50
270.0
  0
INSERT
  5
592
330
58D
100
AcDbEntity
  8
0
 62
     0
 60
     1
370
    -2
100
AcDbBlockReference
  2
_DOT
 10
-198.011179401554
 20
251.1128597106099
 30
0.0
 50
90.0
  0
MTEXT
  5
593
330
58D
100
AcDbEntity
  8
0
 62
     0
100
AcDbMText
 10
-199.886179401554
 20
254.0235361305377
 30
0.0
 40
2.5
 41
0.0
 71
     5
 72
     1
  1
25
 11
0.0
 21
1.0
 31
0.0
 73
     1
 44
1.0
  0
POINT
  5
594
330
58D
100
AcDbEntity
  8
Defpoints
 62
     0
100
AcDbPoint
 10
-209.5111794015558
 20
246.1128597106099
 30
0.0
  0
POINT
  5
595
330
58D
100
AcDbEntity
  8
Defpoints
 62
     0
100
AcDbPoint
 10
-209.5111794015558
 20
251.1128597106099
 30
0.0
  0
POINT
  5
596
330
58D
100
AcDbEntity
  8
Defpoints
 62
     0
100
AcDbPoint
 10
-198.011179401554
 20
251.1128597106099
 30
0.0
  0
LINE
  5
599
330
58D
100
AcDbEntity
  8
0
  6
Continuous
 62
     7
100
AcDbLine
 10
-206.9711794015558
 20
251.1128597106099
 30
0.0
 11
-196.011179401554
 21
251.1128597106099
 31
0.0
  0
LINE
  5
59A
330
58D
100
AcDbEntity
  8
0
  6
Continuous
 62
     7
100
AcDbLine
 10
-198.011179401554
 20
246.1128597106099
 30
0.0
 11
-198.011179401554
 21
251.1128597106099
 31
0.0
  0
LWPOLYLINE
  5
59B
330
58D
100
AcDbEntity
  8
0
  6
Continuous
 62
     7
100
AcDbPolyline
 90
        3
 70
     0
 10
-198.261179401554
 20
246.1128597106099
 40
1.0
 41
1.0
 42
1.0
 10
-197.761179401554
 20
246.1128597106099
 40
1.0
 41
1.0
 42
1.0
 10
-198.261179401554
 20
246.1128597106099
 40
1.0
 41
1.0
 42
1.0
  0
LWPOLYLINE
  5
59C
330
58D
100
AcDbEntity
  8
0
  6
Continuous
 62
     7
100
AcDbPolyline
 90
        3
 70
     0
 10
-198.261179401554
 20
251.1128597106099
 40
1.0
 41
1.0
 42
1.0
 10
-197.761179401554
 20
251.1128597106099
 40
1.0
 41
1.0
 42
1.0
 10
-198.261179401554
 20
251.1128597106099
 40
1.0
 41
1.0
 42
1.0
  0
LINE
  5
59D
330
58D
100
AcDbEntity
  8
0
  6
Continuous
 62
     7
100
AcDbLine
 10
-198.011179401554
 20
251.1128597106099
 30
0.0
 11
-198.011179401554
 21
256.1652028707168
 31
0.0
  0
ENDBLK
  5
598
330
58D
100
AcDbEntity
  8
0
100
AcDbBlockEnd
  0
BLOCK
  5
5A9
330
59F
100
AcDbEntity
  8
0
100
AcDbBlockBegin
  2
*D47
 70
     1
 10
0.0
 20
0.0
 30
0.0
  3
*D47
  1

  0
LINE
  5
5A0
330
59F
100
AcDbEntity
  8
0
 62
     0
 60
     1
370
    -2
100
AcDbLine
 10
-161.4631794015553
 20
252.7128597106088
 30
0.0
 11
-151.7111794015551
 21
252.7128597106088
 31
0.0
  0
LINE
  5
5A1
330
59F
100
AcDbEntity
  8
0
 62
     0
 60
     1
370
    -2
100
AcDbLine
 10
-163.9631794015553
 20
233.7128597106088
 30
0.0
 11
-151.7111794015551
 21
233.7128597106088
 31
0.0
  0
LINE
  5
5A2
330
59F
100
AcDbEntity
  8
0
 62
     0
 60
     1
370
    -2
100
AcDbLine
 10
-153.7111794015551
 20
251.7128597106088
 30
0.0
 11
-153.7111794015551
 21
234.7128597106088
 31
0.0
  0
INSERT
  5
5A3
330
59F
100
AcDbEntity
  8
0
 62
     0
 60
     1
370
    -2
100
AcDbBlockReference
  2
_DOT
 10
-153.7111794015551
 20
252.7128597106088
 30
0.0
 50
90.0
  0
INSERT
  5
5A4
330
59F
100
AcDbEntity
  8
0
 62
     0
 60
     1
370
    -2
100
AcDbBlockReference
  2
_DOT
 10
-153.7111794015551
 20
233.7128597106088
 30
0.0
 50
270.0
  0
MTEXT
  5
5A5
330
59F
100
AcDbEntity
  8
0
 62
     0
100
AcDbMText
 10
-155.5861794015551
 20
243.2128597106088
 30
0.0
 40
2.5
 41
0.0
 71
     5
 72
     1
  1
95
 11
0.0
 21
1.0
 31
0.0
 73
     1
 44
1.0
  0
POINT
  5
5A6
330
59F
100
AcDbEntity
  8
Defpoints
 62
     0
100
AcDbPoint
 10
-164.0031794015553
 20
252.7128597106088
 30
0.0
  0
POINT
  5
5A7
330
59F
100
AcDbEntity
  8
Defpoints
 62
     0
100
AcDbPoint
 10
-166.5031794015553
 20
233.7128597106088
 30
0.0
  0
POINT
  5
5A8
330
59F
100
AcDbEntity
  8
Defpoints
 62
     0
100
AcDbPoint
 10
-153.7111794015551
 20
233.7128597106088
 30
0.0
  0
LINE
  5
5AB
330
59F
100
AcDbEntity
  8
0
  6
Continuous
 62
     7
100
AcDbLine
 10
-161.4631794015553
 20
252.7128597106088
 30
0.0
 11
-151.7111794015551
 21
252.7128597106088
 31
0.0
  0
LINE
  5
5AC
330
59F
100
AcDbEntity
  8
0
  6
Continuous
 62
     7
100
AcDbLine
 10
-163.9631794015553
 20
233.7128597106088
 30
0.0
 11
-151.7111794015551
 21
233.7128597106088
 31
0.0
  0
LINE
  5
5AD
330
59F
100
AcDbEntity
  8
0
  6
Continuous
 62
     7
100
AcDbLine
 10
-153.7111794015551
 20
252.7128597106088
 30
0.0
 11
-153.7111794015551
 21
233.7128597106088
 31
0.0
  0
LWPOLYLINE
  5
5AE
330
59F
100
AcDbEntity
  8
0
  6
Continuous
 62
     7
100
AcDbPolyline
 90
        3
 70
     0
 10
-153.9611794015551
 20
252.7128597106088
 40
1.0
 41
1.0
 42
1.0
 10
-153.4611794015551
 20
252.7128597106088
 40
1.0
 41
1.0
 42
1.0
 10
-153.9611794015551
 20
252.7128597106088
 40
1.0
 41
1.0
 42
1.0
  0
LWPOLYLINE
  5
5AF
330
59F
100
AcDbEntity
  8
0
  6
Continuous
 62
     7
100
AcDbPolyline
 90
        3
 70
     0
 10
-153.9611794015551
 20
233.7128597106088
 40
1.0
 41
1.0
 42
1.0
 10
-153.4611794015551
 20
233.7128597106088
 40
1.0
 41
1.0
 42
1.0
 10
-153.9611794015551
 20
233.7128597106088
 40
1.0
 41
1.0
 42
1.0
  0
ENDBLK
  5
5AA
330
59F
100
AcDbEntity
  8
0
100
AcDbBlockEnd
  0
ENDSEC
  0
SECTION
  2
ENTITIES
  0
LINE
  5
380
330
1F
100
AcDbEntity
  8
0
  6
Continuous
 62
     7
100
AcDbLine
 10
-140.0111794015544
 20
281.8621669461125
 30
0.0
 11
-140.0111794015544
 21
216.8621669461125
 31
0.0
  0
LINE
  5
381
330
1F
100
AcDbEntity
  8
0
  6
Continuous
 62
     7
100
AcDbLine
 10
-140.0111794015545
 20
276.8621669461125
 30
0.0
 11
-15.01117940155453
 21
276.8621669461125
 31
0.0
  0
LINE
  5
382
330
1F
100
AcDbEntity
  8
0
  6
Continuous
 62
     7
100
AcDbLine
 10
-15.0111794015545
 20
281.8621669461125
 30
0.0
 11
-15.0111794015545
 21
216.8621669461125
 31
0.0
  0
LINE
  5
383
330
1F
100
AcDbEntity
  8
0
  6
Continuous
 62
     7
100
AcDbLine
 10
-140.0111794015545
 20
281.8621669461125
 30
0.0
 11
-15.01117940155453
 21
281.8621669461125
 31
0.0
  0
LINE
  5
384
330
1F
100
AcDbEntity
  8
0
  6
Continuous
 62
     7
100
AcDbLine
 10
-90.01117940155444
 20
281.8621669461125
 30
0.0
 11
-90.01117940155444
 21
216.8621669461125
 31
0.0
  0
LINE
  5
385
330
1F
100
AcDbEntity
  8
0
  6
Continuous
 62
     7
100
AcDbLine
 10
-140.0111794015545
 20
216.8621669461125
 30
0.0
 11
-15.01117940155453
 21
216.8621669461125
 31
0.0
  0
LINE
  5
386
330
1F
100
AcDbEntity
  8
0
  6
PHANTOM
 62
    20
100
AcDbLine
 10
-327.362326870285
 20
55.19460838338611
 30
0.0
 11
-327.362326870285
 21
157.6946083833861
 31
0.0
  0
LINE
  5
387
330
1F
100
AcDbEntity
  8
0
  6
PHANTOM
 62
    20
100
AcDbLine
 10
-191.8623268702849
 20
55.19460838338611
 30
0.0
 11
-209.2932742501127
 21
55.19460838338611
 31
0.0
  0
LINE
  5
388
330
1F
100
AcDbEntity
  8
0
  6
PHANTOM
 62
    20
100
AcDbLine
 10
-252.362326870285
 20
157.6946083833861
 30
0.0
 11
-327.3623268702849
 21
157.6946083833861
 31
0.0
  0
LINE
  5
389
330
1F
100
AcDbEntity
  8
0
  6
PHANTOM
 62
    20
100
AcDbLine
 10
-375.3623268702849
 20
55.19460838338611
 30
0.0
 11
-375.3623268702849
 21
157.6946083833861
 31
0.0
  0
LINE
  5
38A
330
1F
100
AcDbEntity
  8
0
  6
PHANTOM
 62
    20
100
AcDbLine
 10
-191.8623268702849
 20
55.19460838338611
 30
0.0
 11
-191.8623268702849
 21
157.6946083833861
 31
0.0
  0
LINE
  5
38B
330
1F
100
AcDbEntity
  8
0
  6
PHANTOM
 62
    20
100
AcDbLine
 10
-252.362326870285
 20
193.1946083833861
 30
0.0
 11
-327.3623268702849
 21
193.1946083833861
 31
0.0
  0
LINE
  5
38C
330
1F
100
AcDbEntity
  8
0
  6
PHANTOM
 62
    20
100
AcDbLine
 10
-252.362326870285
 20
55.19460838338611
 30
0.0
 11
-327.3623268702849
 21
55.19460838338611
 31
0.0
  0
LINE
  5
38D
330
1F
100
AcDbEntity
  8
0
  6
PHANTOM
 62
    20
100
AcDbLine
 10
-355.3623268702849
 20
55.19460838338611
 30
0.0
 11
-375.3623268702849
 21
55.19460838338611
 31
0.0
  0
LINE
  5
38E
330
1F
100
AcDbEntity
  8
0
  6
PHANTOM
 62
    20
100
AcDbLine
 10
-355.3623268702849
 20
157.6946083833861
 30
0.0
 11
-375.3623268702849
 21
157.6946083833861
 31
0.0
  0
LINE
  5
38F
330
1F
100
AcDbEntity
  8
0
  6
PHANTOM
 62
    20
100
AcDbLine
 10
-191.8623268702849
 20
157.6946083833861
 30
0.0
 11
-211.8623268702849
 21
157.6946083833861
 31
0.0
  0
LINE
  5
390
330
1F
100
AcDbEntity
  8
0
  6
PHANTOM
 62
    20
100
AcDbLine
 10
-327.3623268702849
 20
168.1946083833861
 30
0.0
 11
-327.3623268702849
 21
193.1946083833862
 31
0.0
  0
LINE
  5
391
330
1F
100
AcDbEntity
  8
0
  6
PHANTOM
 62
    20
100
AcDbLine
 10
-252.362326870285
 20
55.19460838338611
 30
0.0
 11
-252.362326870285
 21
157.6946083833861
 31
0.0
  0
LINE
  5
392
330
1F
100
AcDbEntity
  8
0
  6
PHANTOM
 62
    20
100
AcDbLine
 10
-252.362326870285
 20
168.1946083833861
 30
0.0
 11
-252.362326870285
 21
193.1946083833862
 31
0.0
  0
LINE
  5
393
330
1F
100
AcDbEntity
  8
0
  6
Continuous
 62
     7
100
AcDbLine
 10
-256.5623268702851
 20
77.15260838338612
 30
0.0
 11
-256.5623268702851
 21
48.88307525841198
 31
0.0
  0
LINE
  5
394
330
1F
100
AcDbEntity
  8
0
  6
Continuous
 62
     7
100
AcDbLine
 10
-255.7623268702851
 20
77.15260838338612
 30
0.0
 11
-255.7623268702851
 21
49.00272095413139
 31
0.0
  0
LINE
  5
395
330
1F
100
AcDbEntity
  8
0
  6
Continuous
 62
     7
100
AcDbLine
 10
-254.212326870285
 20
41.92321250208696
 30
0.0
 11
-254.212326870285
 21
39.04221678549108
 31
0.0
  0
LINE
  5
396
330
1F
100
AcDbEntity
  8
0
  6
Continuous
 62
     7
100
AcDbLine
 10
-254.212326870285
 20
86.57760838338613
 30
0.0
 11
-254.212326870285
 21
45.93781982336549
 31
0.0
  0
LINE
  5
397
330
1F
100
AcDbEntity
  8
0
  6
Continuous
 62
     7
100
AcDbLine
 10
-286.4123268702851
 20
86.57760838338613
 30
0.0
 11
-286.4123268702851
 21
47.614726890605
 31
0.0
  0
LINE
  5
398
330
1F
100
AcDbEntity
  8
0
  6
Continuous
 62
     7
100
AcDbLine
 10
-288.2623268702852
 20
52.65460838338605
 30
0.0
 11
-288.2623268702852
 21
47.614726890605
 31
0.0
  0
LINE
  5
399
330
1F
100
AcDbEntity
  8
0
  6
Continuous
 62
     7
100
AcDbLine
 10
-325.7185900844596
 20
148.6436202591593
 30
0.0
 11
-327.3123400844595
 21
147.7234682676384
 31
0.0
  0
LINE
  5
39A
330
1F
100
AcDbEntity
  8
0
  6
Continuous
 62
     7
100
AcDbLine
 10
-325.718590084459
 20
146.8033162761184
 30
0.0
 11
-327.3123400844589
 21
147.7234682676394
 31
0.0
  0
LINE
  5
39B
330
1F
100
AcDbEntity
  8
0
  6
Continuous
 62
     7
100
AcDbLine
 10
-325.7185900844596
 20
146.803316276117
 30
0.0
 11
-325.7185900844596
 21
148.643620259159
 31
0.0
  0
LINE
  5
39C
330
1F
100
AcDbEntity
  8
0
  6
Continuous
 62
     7
100
AcDbLine
 10
-193.5060636561105
 20
148.6436202591593
 30
0.0
 11
-191.9123136561106
 21
147.7234682676384
 31
0.0
  0
LINE
  5
39D
330
1F
100
AcDbEntity
  8
0
  6
Continuous
 62
     7
100
AcDbLine
 10
-193.5060636561112
 20
146.8033162761188
 30
0.0
 11
-191.9123136561113
 21
147.7234682676398
 31
0.0
  0
LINE
  5
39E
330
1F
100
AcDbEntity
  8
0
  6
Continuous
 62
     7
100
AcDbLine
 10
-193.5060636561103
 20
146.803316276117
 30
0.0
 11
-193.5060636561103
 21
148.643620259159
 31
0.0
  0
LINE
  5
39F
330
1F
100
AcDbEntity
  8
0
  6
Continuous
 62
     7
100
AcDbLine
 10
-204.297720705063
 20
56.78835838338566
 30
0.0
 11
-206.1380246881051
 21
56.78835838338566
 31
0.0
  0
LINE
  5
3A0
330
1F
100
AcDbEntity
  8
0
  6
Continuous
 62
     7
100
AcDbLine
 10
-204.2977207050631
 20
56.78835838338615
 30
0.0
 11
-205.2178726965841
 21
55.19460838338614
 31
0.0
  0
LINE
  5
3A1
330
1F
100
AcDbEntity
  8
0
  6
Continuous
 62
     7
100
AcDbLine
 10
-206.138024688105
 20
56.78835838338561
 30
0.0
 11
-205.217872696584
 21
55.19460838338547
 31
0.0
  0
LINE
  5
3A2
330
1F
100
AcDbEntity
  8
0
  6
Continuous
 62
     7
100
AcDbLine
 10
-254.0060636561104
 20
146.803316276117
 30
0.0
 11
-254.0060636561104
 21
148.643620259159
 31
0.0
  0
LINE
  5
3A3
330
1F
100
AcDbEntity
  8
0
  6
Continuous
 62
     7
100
AcDbLine
 10
-254.0060636561113
 20
146.8033162761188
 30
0.0
 11
-252.4123136561113
 21
147.7234682676398
 31
0.0
  0
LINE
  5
3A4
330
1F
100
AcDbEntity
  8
0
  6
Continuous
 62
     7
100
AcDbLine
 10
-254.0060636561106
 20
148.6436202591593
 30
0.0
 11
-252.4123136561107
 21
147.7234682676384
 31
0.0
  0
LINE
  5
3A5
330
1F
100
AcDbEntity
  8
0
  6
Continuous
 62
     7
100
AcDbLine
 10
-373.7185900844595
 20
148.6436202591593
 30
0.0
 11
-375.3123400844594
 21
147.7234682676384
 31
0.0
  0
LINE
  5
3A6
330
1F
100
AcDbEntity
  8
0
  6
Continuous
 62
     7
100
AcDbLine
 10
-373.7185900844589
 20
146.8033162761184
 30
0.0
 11
-375.3123400844588
 21
147.7234682676393
 31
0.0
  0
LINE
  5
3A7
330
1F
100
AcDbEntity
  8
0
  6
Continuous
 62
     7
100
AcDbLine
 10
-373.7185900844595
 20
146.803316276117
 30
0.0
 11
-373.7185900844595
 21
148.643620259159
 31
0.0
  0
LINE
  5
3A8
330
1F
100
AcDbEntity
  8
0
  6
Continuous
 62
     7
100
AcDbLine
 10
-362.9269330355068
 20
56.78835838338566
 30
0.0
 11
-361.0866290524647
 21
56.78835838338566
 31
0.0
  0
LINE
  5
3A9
330
1F
100
AcDbEntity
  8
0
  6
Continuous
 62
     7
100
AcDbLine
 10
-362.9269330355073
 20
56.78835838338577
 30
0.0
 11
-362.0067810439863
 21
55.19460838338574
 31
0.0
  0
LINE
  5
3AA
330
1F
100
AcDbEntity
  8
0
  6
Continuous
 62
     7
100
AcDbLine
 10
-361.0866290524648
 20
56.78835838338583
 30
0.0
 11
-362.0067810439859
 21
55.1946083833857
 31
0.0
  0
LINE
  5
3AB
330
1F
100
AcDbEntity
  8
0
  6
Continuous
 62
     7
100
AcDbLine
 10
-325.7185900844596
 20
172.6436202591593
 30
0.0
 11
-327.3123400844595
 21
171.7234682676384
 31
0.0
  0
LINE
  5
3AC
330
1F
100
AcDbEntity
  8
0
  6
Continuous
 62
     7
100
AcDbLine
 10
-325.7185900844589
 20
170.8033162761184
 30
0.0
 11
-327.3123400844589
 21
171.7234682676393
 31
0.0
  0
LINE
  5
3AD
330
1F
100
AcDbEntity
  8
0
  6
Continuous
 62
     7
100
AcDbLine
 10
-325.7185900844596
 20
170.8033162761169
 30
0.0
 11
-325.7185900844596
 21
172.6436202591589
 31
0.0
  0
LINE
  5
3AE
330
1F
100
AcDbEntity
  8
0
  6
Continuous
 62
     7
100
AcDbLine
 10
-254.0060636561104
 20
170.8033162761169
 30
0.0
 11
-254.0060636561104
 21
172.6436202591589
 31
0.0
  0
LINE
  5
3AF
330
1F
100
AcDbEntity
  8
0
  6
Continuous
 62
     7
100
AcDbLine
 10
-254.0060636561116
 20
170.8033162761194
 30
0.0
 11
-252.4123136561117
 21
171.7234682676404
 31
0.0
  0
LINE
  5
3B0
330
1F
100
AcDbEntity
  8
0
  6
Continuous
 62
     7
100
AcDbLine
 10
-254.0060636561105
 20
172.6436202591592
 30
0.0
 11
-252.4123136561107
 21
171.7234682676383
 31
0.0
  0
LINE
  5
3B1
330
1F
100
AcDbEntity
  8
0
  6
Continuous
 62
     7
100
AcDbLine
 10
-235.0111794015544
 20
216.8621669461125
 30
0.0
 11
-145.0111794015544
 21
216.8621669461125
 31
0.0
  0
LINE
  5
3B2
330
1F
100
AcDbEntity
  8
0
  6
PHANTOM
 62
     7
100
AcDbLine
 10
-177.5111794015544
 20
256.7128597106101
 30
0.0
 11
-157.5111794015544
 21
256.7128597106101
 31
0.0
  0
LINE
  5
3B3
330
1F
100
AcDbEntity
  8
0
  6
Continuous
 62
     7
100
AcDbLine
 10
-235.0111794015545
 20
281.8621669461125
 30
0.0
 11
-235.0111794015545
 21
216.8621669461125
 31
0.0
  0
LINE
  5
3B4
330
1F
100
AcDbEntity
  8
0
  6
PHANTOM
 62
     7
100
AcDbLine
 10
-222.5111794015544
 20
256.7128597106101
 30
0.0
 11
-202.5111794015544
 21
256.7128597106101
 31
0.0
  0
LINE
  5
3B5
330
1F
100
AcDbEntity
  8
0
  6
Continuous
 62
     7
100
AcDbLine
 10
-235.0111794015544
 20
281.8621669461125
 30
0.0
 11
-145.0111794015544
 21
281.8621669461125
 31
0.0
  0
LINE
  5
3B6
330
1F
100
AcDbEntity
  8
0
  6
Continuous
 62
     7
100
AcDbLine
 10
-145.0111794015544
 20
281.8621669461125
 30
0.0
 11
-145.0111794015544
 21
216.8621669461125
 31
0.0
  0
LINE
  5
3B7
330
1F
100
AcDbEntity
  8
0
  6
Continuous
 62
     7
100
AcDbLine
 10
-252.612326870285
 20
195.734608383386
 30
0.0
 11
-252.612326870285
 21
198.731206505719
 31
0.0
  0
LINE
  5
3B8
330
1F
100
AcDbEntity
  8
0
  6
Continuous
 62
     7
100
AcDbLine
 10
-314.9269330355069
 20
56.78835838338566
 30
0.0
 11
-313.0866290524648
 21
56.78835838338566
 31
0.0
  0
LINE
  5
3B9
330
1F
100
AcDbEntity
  8
0
  6
Continuous
 62
     7
100
AcDbLine
 10
-314.9269330355075
 20
56.78835838338571
 30
0.0
 11
-314.0067810439865
 21
55.19460838338568
 31
0.0
  0
LINE
  5
3BA
330
1F
100
AcDbEntity
  8
0
  6
Continuous
 62
     7
100
AcDbLine
 10
-313.086629052465
 20
56.78835838338581
 30
0.0
 11
-314.0067810439861
 21
55.19460838338568
 31
0.0
  0
LINE
  5
3BB
330
1F
100
AcDbEntity
  8
0
  6
Continuous
 62
     7
100
AcDbLine
 10
-240.362326870285
 20
55.19460838338611
 30
0.0
 11
-240.362326870285
 21
39.17603123012911
 31
0.0
  0
CIRCLE
  5
3BC
330
1F
100
AcDbEntity
  8
0
  6
PHANTOM
 62
     7
100
AcDbCircle
 10
-268.0569347201902
 20
78.23557964630693
 30
0.0
 40
2.5
  0
MTEXT
  5
3BD
330
1F
100
AcDbEntity
  8
0
 62
     7
100
AcDbMText
 10
-132.68560209801
 20
250.9685005527438
 30
0.0
 40
3.0
 41
0.0
 71
     7
 72
     1
  1
{\W0.833333;手洗器位置}
 73
     1
 44
1.0
  0
MTEXT
  5
3BE
330
1F
100
AcDbEntity
  8
0
 62
     7
100
AcDbMText
 10
-137.6045689873914
 20
272.9685005527439
 30
0.0
 40
3.0
 41
0.0
 71
     7
 72
     1
  1
{\W0.707114;ULNS3CRN1490***}
 73
     1
 44
1.0
  0
MTEXT
  5
3BF
330
1F
100
AcDbEntity
  8
0
 62
     7
100
AcDbMText
 10
-132.68560209801
 20
258.9685005527439
 30
0.0
 40
3.0
 41
0.0
 71
     7
 72
     1
  1
{\W0.833333;手洗器}
 73
     1
 44
1.0
  0
MTEXT
  5
3C0
330
1F
100
AcDbEntity
  8
0
 62
     7
100
AcDbMText
 10
-87.68560209800998
 20
272.9685005527439
 30
0.0
 40
3.0
 41
0.0
 71
     7
 72
     1
  1
{\W0.833333;プレミアムシリーズ　キャビネットセット}
 73
     1
 44
1.0
  0
MTEXT
  5
3C1
330
1F
100
AcDbEntity
  8
0
 62
     7
100
AcDbMText
 10
-87.6179092817525
 20
262.9685005527439
 30
0.0
 40
3.0
 41
0.0
 71
     7
 72
     1
  1
{\W0.727893;カウンターキャビネット（両扉）}
 73
     1
 44
1.0
  0
MTEXT
  5
3C2
330
1F
100
AcDbEntity
  8
0
 62
     7
100
AcDbMText
 10
-132.68560209801
 20
262.9685005527439
 30
0.0
 40
3.0
 41
0.0
 71
     7
 72
     1
  1
{\W0.833333;タイプ}
 73
     1
 44
1.0
  0
MTEXT
  5
3C3
330
1F
100
AcDbEntity
  8
0
 62
     7
100
AcDbMText
 10
-87.68560209800998
 20
222.9685005527438
 30
0.0
 40
3.0
 41
0.0
 71
     7
 72
     1
  1
{\W0.833333;＊＊＊}
 73
     1
 44
1.0
  0
MTEXT
  5
3C4
330
1F
100
AcDbEntity
  8
0
 62
     7
100
AcDbMText
 10
-87.68560209800998
 20
218.9685005527438
 30
0.0
 40
3.0
 41
0.0
 71
     7
 72
     1
  1
{\W0.833333;＊＊＊}
 73
     1
 44
1.0
  0
MTEXT
  5
3C5
330
1F
100
AcDbEntity
  8
0
 62
     7
100
AcDbMText
 10
-132.68560209801
 20
218.9685005527438
 30
0.0
 40
3.0
 41
0.0
 71
     7
 72
     1
  1
{\W0.833333;カウンターカラー}
 73
     1
 44
1.0
  0
MTEXT
  5
3C6
330
1F
100
AcDbEntity
  8
0
 62
     7
100
AcDbMText
 10
-132.68560209801
 20
222.9685005527438
 30
0.0
 40
3.0
 41
0.0
 71
     7
 72
     1
  1
{\W0.833333;キャビネットカラー}
 73
     1
 44
1.0
  0
MTEXT
  5
3C7
330
1F
100
AcDbEntity
  8
0
 62
     7
100
AcDbMText
 10
-132.68560209801
 20
226.9685005527438
 30
0.0
 40
3.0
 41
0.0
 71
     7
 72
     1
  1
{\W0.833333;手洗器カラー}
 73
     1
 44
1.0
  0
MTEXT
  5
3C8
330
1F
100
AcDbEntity
  8
0
 62
     7
100
AcDbMText
 10
-132.68560209801
 20
230.9685005527438
 30
0.0
 40
3.0
 41
0.0
 71
     7
 72
     1
  1
{\W0.833333;紙巻器}
 73
     1
 44
1.0
  0
MTEXT
  5
3C9
330
1F
100
AcDbEntity
  8
0
 62
     7
100
AcDbMText
 10
-132.68560209801
 20
234.9685005527438
 30
0.0
 40
3.0
 41
0.0
 71
     7
 72
     1
  1
{\W0.833333;給排水位置}
 73
     1
 44
1.0
  0
MTEXT
  5
3CA
330
1F
100
AcDbEntity
  8
0
 62
     7
100
AcDbMText
 10
-132.68560209801
 20
238.9685005527438
 30
0.0
 40
3.0
 41
0.0
 71
     7
 72
     1
  1
{\W0.833333;水栓金具}
 73
     1
 44
1.0
  0
MTEXT
  5
3CB
330
1F
100
AcDbEntity
  8
0
 62
     7
100
AcDbMText
 10
-87.68560209800998
 20
234.9685005527438
 30
0.0
 40
3.0
 41
0.0
 71
     7
 72
     1
  1
{\W0.833333;＊＊＊}
 73
     1
 44
1.0
  0
MTEXT
  5
3CC
330
1F
100
AcDbEntity
  8
0
 62
     7
100
AcDbMText
 10
-87.68560209800998
 20
230.9685005527438
 30
0.0
 40
3.0
 41
0.0
 71
     7
 72
     1
  1
{\W0.833333;なし}
 73
     1
 44
1.0
  0
MTEXT
  5
3CD
330
1F
100
AcDbEntity
  8
0
 62
     7
100
AcDbMText
 10
-132.68560209801
 20
254.9685005527439
 30
0.0
 40
3.0
 41
0.0
 71
     7
 72
     1
  1
{\W0.833333;エプロン形状}
 73
     1
 44
1.0
  0
MTEXT
  5
3CE
330
1F
100
AcDbEntity
  8
0
 62
     7
100
AcDbMText
 10
-87.68560209800998
 20
254.9685005527439
 30
0.0
 40
3.0
 41
0.0
 71
     7
 72
     1
  1
{\W0.833333;一方エプロン}
 73
     1
 44
1.0
  0
MTEXT
  5
3CF
330
1F
100
AcDbEntity
  8
0
 62
     7
100
AcDbMText
 10
-132.68560209801
 20
242.9685005527438
 30
0.0
 40
3.0
 41
0.0
 71
     7
 72
     1
  1
{\W0.833333;カウンター長さ}
 73
     1
 44
1.0
  0
MTEXT
  5
3D0
330
1F
100
AcDbEntity
  8
0
 62
     7
100
AcDbMText
 10
-132.68560209801
 20
246.9685005527438
 30
0.0
 40
3.0
 41
0.0
 71
     7
 72
     1
  1
{\W0.833333;ビルトインリモコン}
 73
     1
 44
1.0
  0
MTEXT
  5
3D1
330
1F
100
AcDbEntity
  8
0
 62
     7
100
AcDbMText
 10
-88.22060212423602
 20
250.9685005527438
 30
0.0
 40
3.0
 41
0.0
 71
     7
 72
     1
  1
{\W0.833333;右}
 73
     1
 44
1.0
  0
MTEXT
  5
3D2
330
1F
100
AcDbEntity
  8
0
 62
     7
100
AcDbMText
 10
-87.68560209800998
 20
246.9685005527438
 30
0.0
 40
3.0
 41
0.0
 71
     7
 72
     1
  1
{\W0.833333;なし}
 73
     1
 44
1.0
  0
MTEXT
  5
3D3
330
1F
100
AcDbEntity
  8
0
 62
     7
100
AcDbMText
 10
-87.68560209800998
 20
258.9685005527439
 30
0.0
 40
3.0
 41
0.0
 71
     7
 72
     1
  1
{\W0.833333;ベッセルタイプ（角形）}
 73
     1
 44
1.0
  0
MTEXT
  5
3D4
330
1F
100
AcDbEntity
  8
0
 62
     7
100
AcDbMText
 10
-87.68560209800998
 20
238.9685005527438
 30
0.0
 40
3.0
 41
0.0
 71
     7
 72
     1
  1
{\W0.833333;自動水栓（電気温水器付）一般地}
 73
     1
 44
1.0
  0
MTEXT
  5
3D5
330
1F
100
AcDbEntity
  8
0
 62
     7
100
AcDbMText
 10
-87.68560209800998
 20
242.9685005527439
 30
0.0
 40
3.0
 41
0.0
 71
     7
 72
     1
  1
{\W0.833333;1490ｍｍ}
 73
     1
 44
1.0
  0
MTEXT
  5
3D6
330
1F
100
AcDbEntity
  8
0
 62
     7
100
AcDbMText
 10
-87.68560209800998
 20
226.9685005527438
 30
0.0
 40
3.0
 41
0.0
 71
     7
 72
     1
  1
{\W0.833333;＊＊＊}
 73
     1
 44
1.0
  0
MTEXT
  5
3D7
330
1F
100
AcDbEntity
  8
0
 62
     7
100
AcDbMText
 10
-137.6045689873914
 20
268.9685005527439
 30
0.0
 40
3.0
 41
0.0
 71
     7
 72
     1
  1
{\W0.707114;ULPS3CRN1490＊}
 73
     1
 44
1.0
  0
MTEXT
  5
3D8
330
1F
100
AcDbEntity
  8
0
 62
     7
100
AcDbMText
 10
-87.68560209800998
 20
268.9685005527439
 30
0.0
 40
3.0
 41
0.0
 71
     7
 72
     1
  1
{\W0.833333;プレミアムシリーズ　カウンターセット}
 73
     1
 44
1.0
  0
MTEXT
  5
3D9
330
1F
100
AcDbEntity
  8
0
 62
     7
100
AcDbMText
 10
-139.2333476513177
 20
282.939002958641
 30
0.0
 40
3.0
 41
0.0
 71
     7
 72
     1
  1
{\W0.833333;仕様一覧}
 73
     1
 44
1.0
  0
MTEXT
  5
3DA
330
1F
100
AcDbEntity
  8
0
 62
     7
100
AcDbMText
 10
-56.58117957321593
 20
277.8621669461125
 30
0.0
 40
3.0
 41
0.0
 71
     7
 72
     1
  1
{\W0.833333;詳　細}
 73
     1
 44
1.0
  0
MTEXT
  5
3DB
330
1F
100
AcDbEntity
  8
0
 62
     7
100
AcDbMText
 10
-119.0811795732159
 20
277.8621669461125
 30
0.0
 40
3.0
 41
0.0
 71
     7
 72
     1
  1
{\W0.833333;品　番}
 73
     1
 44
1.0
  0
MTEXT
  5
3DC
330
1F
100
AcDbEntity
  8
0
 62
     7
100
AcDbMText
 10
-138.7488613056075
 20
212.2026045218842
 30
0.0
 40
3.0
 41
0.0
 71
     7
 72
     1
  1
{\W0.833333;※１　カウンター長さにより寸法が変わります}
 73
     1
 44
1.0
  0
MTEXT
  5
3DD
330
1F
100
AcDbEntity
  8
0
 62
     7
100
AcDbMText
 10
-138.7488613056075
 20
202.2026045218842
 30
0.0
 40
3.0
 41
0.0
 71
     7
 72
     1
  1
{\W0.833333;※3　クリスタルカウンターの場合}
 73
     1
 44
1.0
  0
MTEXT
  5
3DE
330
1F
100
AcDbEntity
  8
0
 62
     7
100
AcDbMText
 10
-325.0755380022046
 20
146.5532206861637
 30
0.0
 40
2.5
 41
0.0
 71
     7
 72
     1
  1
{\W0.575916;W.L}
 73
     1
 44
1.0
  0
MTEXT
  5
3DF
330
1F
100
AcDbEntity
  8
0
 62
     7
100
AcDbMText
 10
-198.9920478434298
 20
146.5532206861637
 30
0.0
 40
2.5
 41
0.0
 71
     7
 72
     1
  1
{\W0.575916;W.L}
 73
     1
 44
1.0
  0
MTEXT
  5
3E0
330
1F
100
AcDbEntity
  8
0
 62
     7
100
AcDbMText
 10
-207.0678726012163
 20
57.23960840007496
 30
0.0
 40
1.909999966621399
 41
0.0
 71
     7
 72
     1
  1
{\W0.691099;F.L}
 73
     1
 44
1.0
  0
MTEXT
  5
3E1
330
1F
100
AcDbEntity
  8
0
 62
     7
100
AcDbMText
 10
-259.4920478434299
 20
146.5532206861637
 30
0.0
 40
2.5
 41
0.0
 71
     7
 72
     1
  1
{\W0.575916;W.L}
 73
     1
 44
1.0
  0
MTEXT
  5
3E2
330
1F
100
AcDbEntity
  8
0
 62
     7
100
AcDbMText
 10
-373.0755380022044
 20
146.5532206861637
 30
0.0
 40
2.5
 41
0.0
 71
     7
 72
     1
  1
{\W0.575916;W.L}
 73
     1
 44
1.0
  0
MTEXT
  5
3E3
330
1F
100
AcDbEntity
  8
0
 62
     7
100
AcDbMText
 10
-363.8567809486187
 20
57.23960840007496
 30
0.0
 40
1.909999966621399
 41
0.0
 71
     7
 72
     1
  1
{\W0.691099;F.L}
 73
     1
 44
1.0
  0
MTEXT
  5
3E4
330
1F
100
AcDbEntity
  8
0
 62
     7
100
AcDbMText
 10
-259.4920478434299
 20
170.5532206861635
 30
0.0
 40
2.5
 41
0.0
 71
     7
 72
     1
  1
{\W0.575916;W.L}
 73
     1
 44
1.0
  0
MTEXT
  5
3E5
330
1F
100
AcDbEntity
  8
0
 62
     7
100
AcDbMText
 10
-325.0755380022046
 20
170.5532206861635
 30
0.0
 40
2.5
 41
0.0
 71
     7
 72
     1
  1
{\W0.575916;W.L}
 73
     1
 44
1.0
  0
MTEXT
  5
3E6
330
1F
100
AcDbEntity
  8
0
 62
     7
100
AcDbMText
 10
-138.7488613056075
 20
207.2026045218842
 30
0.0
 40
3.0
 41
0.0
 71
     7
 72
     1
  1
{\W0.833333;※２　カウンター長さにより不要な場合があります}
 73
     1
 44
1.0
  0
MTEXT
  5
3E7
330
1F
100
AcDbEntity
  8
0
 62
     7
100
AcDbMText
 10
-185.9028469463962
 20
271.6121669461125
 30
0.0
 40
2.5
 41
0.0
 71
     7
 72
     1
  1
{\W0.833333;＜クリスタルカウンターの場合＞}
 73
     1
 44
1.0
  0
MTEXT
  5
3E8
330
1F
100
AcDbEntity
  8
0
 62
     7
100
AcDbMText
 10
-233.4028470656056
 20
271.6121669461125
 30
0.0
 40
2.5
 41
0.0
 71
     7
 72
     1
  1
{\W0.833333;＜クリスタルカウンター以外の場合＞}
 73
     1
 44
1.0
  0
MTEXT
  5
3E9
330
1F
100
AcDbEntity
  8
0
 62
     7
100
AcDbMText
 10
-232.624544946028
 20
277.0222468271178
 30
0.0
 40
3.0
 41
0.0
 71
     7
 72
     1
  1
{\W0.833333;ブラケット固定位置詳細}
 73
     1
 44
1.0
  0
MTEXT
  5
3EA
330
1F
100
AcDbEntity
  8
0
 62
     7
100
AcDbMText
 10
-315.8567809486188
 20
57.23960840007496
 30
0.0
 40
1.909999966621399
 41
0.0
 71
     7
 72
     1
  1
{\W0.691099;F.L}
 73
     1
 44
1.0
  0
INSERT
  5
3EB
330
1F
100
AcDbEntity
  8
0
 62
     7
100
AcDbBlockReference
  2
VIS-ULNS3CRN0002
 10
0.0
 20
0.0
 30
0.0
  0
INSERT
  5
3EC
330
1F
100
AcDbEntity
  8
0
 62
     7
100
AcDbBlockReference
  2
VIS-ULNS3CRN0003
 10
0.0
 20
0.0
 30
0.0
  0
INSERT
  5
3ED
330
1F
100
AcDbEntity
  8
0
 62
     7
100
AcDbBlockReference
  2
VIS-ULNS3CRN0004
 10
0.0
 20
0.0
 30
0.0
  0
INSERT
  5
3EE
330
1F
100
AcDbEntity
  8
0
 62
     7
100
AcDbBlockReference
  2
VIS-ULNS3CRN0005
 10
0.0
 20
0.0
 30
0.0
  0
INSERT
  5
3EF
330
1F
100
AcDbEntity
  8
0
 62
     7
100
AcDbBlockReference
  2
VIS-ULNS3CRN0006
 10
0.0
 20
0.0
 30
0.0
  0
INSERT
  5
3F0
330
1F
100
AcDbEntity
  8
0
 62
     7
100
AcDbBlockReference
  2
VIS-ULNS3CRN0007
 10
0.0
 20
0.0
 30
0.0
  0
INSERT
  5
3F1
330
1F
100
AcDbEntity
  8
0
 62
     7
100
AcDbBlockReference
  2
VIS-ULNS3CRN0008
 10
0.0
 20
0.0
 30
0.0
  0
INSERT
  5
3F2
330
1F
100
AcDbEntity
  8
0
 62
     7
100
AcDbBlockReference
  2
VIS-ULNS3CRN0009
 10
0.0
 20
0.0
 30
0.0
  0
INSERT
  5
3F3
330
1F
100
AcDbEntity
  8
0
 62
     7
100
AcDbBlockReference
  2
VIS-ULNS3CRN0010
 10
0.0
 20
0.0
 30
0.0
  0
INSERT
  5
3F4
330
1F
100
AcDbEntity
  8
0
 62
     7
100
AcDbBlockReference
  2
VIS-ULNS3CRN0011
 10
0.0
 20
0.0
 30
0.0
  0
INSERT
  5
3F5
330
1F
100
AcDbEntity
  8
0
 62
     7
100
AcDbBlockReference
  2
VIS-ULNS3CRN0012
 10
0.0
 20
0.0
 30
0.0
  0
INSERT
  5
3F6
330
1F
100
AcDbEntity
  8
0
 62
     7
100
AcDbBlockReference
  2
VIS-ULNS3CRN0013
 10
0.0
 20
0.0
 30
0.0
  0
INSERT
  5
3F7
330
1F
100
AcDbEntity
  8
0
 62
     7
100
AcDbBlockReference
  2
VIS-ULNS3CRN0014
 10
0.0
 20
0.0
 30
0.0
  0
INSERT
  5
3F8
330
1F
100
AcDbEntity
  8
0
 62
     7
100
AcDbBlockReference
  2
VIS-ULNS3CRN0015
 10
0.0
 20
0.0
 30
0.0
  0
INSERT
  5
3F9
330
1F
100
AcDbEntity
  8
0
 62
     7
100
AcDbBlockReference
  2
VIS-ULNS3CRN0016
 10
0.0
 20
0.0
 30
0.0
  0
DIMENSION
  5
3FA
330
1F
100
AcDbEntity
  8
0
 62
     7
100
AcDbDimension
  2
*D19
 10
-288.2623268702852
 20
23.19460838338611
 30
0.0
 11
-270.3123268702851
 21
23.19460838338611
 31
0.0
 70
   160
  1
718
 71
     5
 42
35.9000000000002
  3
ISO-25
100
AcDbAlignedDimension
 13
-252.362326870285
 23
55.19460838338611
 33
0.0
 14
-288.2623268702852
 24
44.45622385508312
 34
0.0
100
AcDbRotatedDimension
1001
ACAD
1000
DSTYLE
1002
{
1070
   278
1070
    46
1070
   147
1040
0.625
1070
    77
1070
     1
1070
    74
1070
     0
1070
    73
1070
     0
1070
    42
1040
2.54
1070
    44
1040
2.0
1070
    76
1070
     0
1070
    75
1070
     0
1070
   279
1070
     0
1070
   271
1070
     0
1070
   173
1070
     1
1070
    41
1040
1.0
1070
   140
1040
2.5
1070
   344
1005
3FB
1070
   343
1005
3FB
1002
}
  0
DIMENSION
  5
410
330
1F
100
AcDbEntity
  8
0
 62
     7
100
AcDbDimension
  2
*D20
 10
-286.4123268702851
 20
28.19460838338611
 30
0.0
 11
-305.4982134567474
 21
28.19460838338611
 31
0.0
 70
   160
  1
（手洗器キャビネット）３７
 71
     5
 42
1.850000000000136
  3
ISO-25
100
AcDbAlignedDimension
 13
-288.2623268702852
 23
55.19460838338605
 33
0.0
 14
-286.4123268702851
 24
44.75439820763494
 34
0.0
 50
180.0
100
AcDbRotatedDimension
1001
ACAD
1000
DSTYLE
1002
{
1070
   278
1070
    46
1070
   147
1040
0.625
1070
    77
1070
     1
1070
    74
1070
     0
1070
    73
1070
     0
1070
    42
1040
2.54
1070
    44
1040
2.0
1070
    76
1070
     0
1070
    75
1070
     1
1070
   279
1070
     0
1070
   271
1070
     0
1070
   173
1070
     1
1070
    41
1040
1.0
1070
   140
1040
2.5
1070
   344
1005
3FB
1070
   343
1005
3FB
1002
}
  0
DIMENSION
  5
41F
330
1F
100
AcDbEntity
  8
0
 62
     7
100
AcDbDimension
  2
*D21
 10
-254.212326870285
 20
28.19460838338611
 30
0.0
 11
-270.3123268702851
 21
28.19460838338611
 31
0.0
 70
   160
  1
644
 71
     5
 42
32.20000000000005
  3
ISO-25
100
AcDbAlignedDimension
 13
-286.4123268702851
 23
89.11760838338614
 33
0.0
 14
-254.212326870285
 24
38.72787669821516
 34
0.0
 50
180.0
100
AcDbRotatedDimension
1001
ACAD
1000
DSTYLE
1002
{
1070
   278
1070
    46
1070
   147
1040
0.625
1070
    77
1070
     1
1070
    74
1070
     0
1070
    73
1070
     0
1070
    42
1040
2.54
1070
    44
1040
2.0
1070
    76
1070
     0
1070
    75
1070
     1
1070
   279
1070
     0
1070
   271
1070
     0
1070
   173
1070
     1
1070
    41
1040
1.0
1070
   140
1040
2.5
1070
   344
1005
3FB
1070
   343
1005
3FB
1002
}
  0
DIMENSION
  5
42B
330
1F
100
AcDbEntity
  8
0
 62
     7
100
AcDbDimension
  2
*D22
 10
-253.5123268702851
 20
43.19460838338611
 30
0.0
 11
-250.0890127095668
 21
43.19460838338611
 31
0.0
 70
   160
  1
23
 71
     5
 42
1.150000000000091
  3
ISO-25
100
AcDbAlignedDimension
 13
-252.362326870285
 23
55.19460838338611
 33
0.0
 14
-253.5123268702851
 24
84.56760838338614
 34
0.0
100
AcDbRotatedDimension
1001
ACAD
1000
DSTYLE
1002
{
1070
   278
1070
    46
1070
   147
1040
0.625
1070
    77
1070
     1
1070
    74
1070
     0
1070
    73
1070
     0
1070
    42
1040
2.54
1070
    44
1040
2.0
1070
    76
1070
     0
1070
    75
1070
     1
1070
   279
1070
     0
1070
   271
1070
     0
1070
   173
1070
     1
1070
    41
1040
1.0
1070
   140
1040
2.5
1070
   344
1005
3FB
1070
   343
1005
3FB
1002
}
  0
DIMENSION
  5
43A
330
1F
100
AcDbEntity
  8
0
 62
     7
100
AcDbDimension
  2
*D24
 10
-254.462326870285
 20
43.19460838338611
 30
0.0
 11
-260.8216472235654
 21
47.96773591229885
 31
0.0
 70
   160
  1
19
 71
     5
 42
0.949999999999932
  3
ISO-25
100
AcDbAlignedDimension
 13
-253.5123268702851
 23
84.56760838338614
 33
0.0
 14
-254.462326870285
 24
83.41760838338614
 34
0.0
100
AcDbRotatedDimension
1001
ACAD
1000
DSTYLE
1002
{
1070
   278
1070
    46
1070
   147
1040
0.625
1070
    77
1070
     1
1070
    74
1070
     0
1070
    73
1070
     0
1070
    42
1040
2.54
1070
    44
1040
2.0
1070
    76
1070
     0
1070
    75
1070
     1
1070
   279
1070
     1
1070
   271
1070
     0
1070
   173
1070
     1
1070
    41
1040
1.0
1070
   140
1040
2.5
1070
   344
1005
3FB
1070
   343
1005
43B
1002
}
  0
DIMENSION
  5
44E
330
1F
100
AcDbEntity
  8
0
 62
     7
100
AcDbDimension
  2
*D25
 10
-255.4123268702851
 20
43.19460838338611
 30
0.0
 11
-275.5294021776803
 21
43.19460838338611
 31
0.0
 70
   160
  1
（自動水栓コントローラ）１９
 71
     5
 42
0.950000000000045
  3
ISO-25
100
AcDbAlignedDimension
 13
-254.462326870285
 23
83.41760838338614
 33
0.0
 14
-255.4123268702851
 24
84.56760838338614
 34
0.0
100
AcDbRotatedDimension
1001
ACAD
1000
DSTYLE
1002
{
1070
   278
1070
    46
1070
   147
1040
0.625
1070
    77
1070
     1
1070
    74
1070
     0
1070
    73
1070
     0
1070
    42
1040
2.54
1070
    44
1040
2.0
1070
    76
1070
     0
1070
    75
1070
     1
1070
   279
1070
     0
1070
   271
1070
     0
1070
   173
1070
     1
1070
    41
1040
1.0
1070
   140
1040
2.5
1070
   344
1005
3FB
1070
   343
1005
43B
1002
}
  0
DIMENSION
  5
45C
330
1F
100
AcDbEntity
  8
0
 62
     7
100
AcDbDimension
  2
*D26
 10
-255.7623268702851
 20
38.19460838338611
 30
0.0
 11
-249.530807804611
 21
38.19460838338611
 31
0.0
 70
   160
  1
68
 71
     5
 42
3.400000000000091
  3
ISO-25
100
AcDbAlignedDimension
 13
-252.362326870285
 23
55.19460838338611
 33
0.0
 14
-255.7623268702851
 24
44.46321250208696
 34
0.0
100
AcDbRotatedDimension
1001
ACAD
1000
DSTYLE
1002
{
1070
   278
1070
    46
1070
   147
1040
0.625
1070
    77
1070
     1
1070
    74
1070
     0
1070
    73
1070
     0
1070
    42
1040
2.54
1070
    44
1040
2.0
1070
    76
1070
     0
1070
    75
1070
     1
1070
   279
1070
     0
1070
   271
1070
     0
1070
   173
1070
     1
1070
    41
1040
1.0
1070
   140
1040
2.5
1070
   344
1005
3FB
1070
   343
1005
3FB
1002
}
  0
DIMENSION
  5
469
330
1F
100
AcDbEntity
  8
0
 62
     7
100
AcDbDimension
  2
*D27
 10
-256.5623268702851
 20
38.19460838338611
 30
0.0
 11
-268.6986403340607
 21
38.19460838338611
 31
0.0
 70
   160
  1
（電気温水器）１６
 71
     5
 42
0.799999999999955
  3
ISO-25
100
AcDbAlignedDimension
 13
-255.7623268702851
 23
79.69260838338613
 33
0.0
 14
-256.5623268702851
 24
44.46321250208696
 34
0.0
100
AcDbRotatedDimension
1001
ACAD
1000
DSTYLE
1002
{
1070
   278
1070
    46
1070
   147
1040
0.625
1070
    77
1070
     1
1070
    74
1070
     0
1070
    73
1070
     0
1070
    42
1040
2.54
1070
    44
1040
2.0
1070
    76
1070
     0
1070
    75
1070
     1
1070
   279
1070
     0
1070
   271
1070
     0
1070
   173
1070
     1
1070
    41
1040
1.0
1070
   140
1040
2.5
1070
   344
1005
3FB
1070
   343
1005
43B
1002
}
  0
DIMENSION
  5
477
330
1F
100
AcDbEntity
  8
0
 62
     7
100
AcDbDimension
  2
*D28
 10
-240.362326870285
 20
79.91960838338606
 30
0.0
 11
-240.362326870285
 21
56.27158465450549
 31
0.0
 70
   160
  1
（電気温水器）　　４９４．５
 71
     5
 42
24.72499999999997
  3
ISO-25
100
AcDbAlignedDimension
 13
-252.362326870285
 23
55.19460838338611
 33
0.0
 14
-255.5353268702851
 24
79.91960838338608
 34
0.0
 50
270.0
100
AcDbRotatedDimension
1001
ACAD
1000
DSTYLE
1002
{
1070
   278
1070
    46
1070
   147
1040
0.625
1070
    77
1070
     1
1070
    74
1070
     0
1070
    73
1070
     0
1070
    42
1040
2.54
1070
    44
1040
1.999999999999943
1070
    76
1070
     0
1070
    75
1070
     0
1070
   279
1070
     0
1070
   271
1070
     1
1070
   173
1070
     1
1070
    41
1040
1.0
1070
   140
1040
2.5
1070
   344
1005
3FB
1070
   343
1005
3FB
1002
}
  0
DIMENSION
  5
484
330
1F
100
AcDbEntity
  8
0
 62
     7
100
AcDbDimension
  2
*D29
 10
-235.3623268702851
 20
83.6446083833861
 30
0.0
 11
-235.3623268702851
 21
49.53002286192228
 31
0.0
 70
   160
  1
（自動水栓コントローラ）　　　　５６９
 71
     5
 42
28.44999999999999
  3
ISO-25
100
AcDbAlignedDimension
 13
-252.362326870285
 23
55.19460838338611
 33
0.0
 14
-254.2353268702851
 24
83.6446083833861
 34
0.0
 50
270.0
100
AcDbRotatedDimension
1001
ACAD
1000
DSTYLE
1002
{
1070
   278
1070
    46
1070
   147
1040
0.625
1070
    77
1070
     1
1070
    74
1070
     0
1070
    73
1070
     0
1070
    42
1040
2.54
1070
    44
1040
2.000000000000028
1070
    76
1070
     0
1070
    75
1070
     0
1070
   279
1070
     0
1070
   271
1070
     0
1070
   173
1070
     1
1070
    41
1040
1.0
1070
   140
1040
2.5
1070
   344
1005
3FB
1070
   343
1005
3FB
1002
}
  0
DIMENSION
  5
492
330
1F
100
AcDbEntity
  8
0
 62
     7
100
AcDbDimension
  2
*D30
 10
-235.3623268702851
 20
84.79460838338612
 30
0.0
 11
-235.3623268702851
 21
86.9216040675523
 31
0.0
 70
   160
  1
23
 71
     5
 42
1.15000000000002
  3
ISO-25
100
AcDbAlignedDimension
 13
-254.2353268702851
 23
83.6446083833861
 33
0.0
 14
-253.2853268702851
 24
84.79460838338612
 34
0.0
 50
270.0
100
AcDbRotatedDimension
1001
ACAD
1000
DSTYLE
1002
{
1070
   278
1070
    46
1070
   147
1040
0.625
1070
    77
1070
     1
1070
    74
1070
     0
1070
    73
1070
     0
1070
    42
1040
2.54
1070
    44
1040
2.000000000000028
1070
    76
1070
     0
1070
    75
1070
     1
1070
   279
1070
     0
1070
   271
1070
     0
1070
   173
1070
     1
1070
    41
1040
1.0
1070
   140
1040
2.5
1070
   344
1005
3FB
1070
   343
1005
43B
1002
}
  0
DIMENSION
  5
4A0
330
1F
100
AcDbEntity
  8
0
 62
     7
100
AcDbDimension
  2
*D31
 10
-230.3623268702851
 20
89.34460838338613
 30
0.0
 11
-230.3623268702851
 21
51.88550830752362
 31
0.0
 70
   160
  1
（手洗器キャビネット）　　　　　６８３
 71
     5
 42
34.15000000000003
  3
ISO-25
100
AcDbAlignedDimension
 13
-252.362326870285
 23
55.19460838338611
 33
0.0
 14
-253.9853268702851
 24
89.34460838338615
 34
0.0
 50
270.0
100
AcDbRotatedDimension
1001
ACAD
1000
DSTYLE
1002
{
1070
   278
1070
    46
1070
   147
1040
0.625
1070
    77
1070
     1
1070
    74
1070
     0
1070
    73
1070
     0
1070
    42
1040
2.54
1070
    44
1040
2.000000000000028
1070
    76
1070
     0
1070
    75
1070
     0
1070
   279
1070
     0
1070
   271
1070
     0
1070
   173
1070
     1
1070
    41
1040
1.0
1070
   140
1040
2.5
1070
   344
1005
3FB
1070
   343
1005
3FB
1002
}
  0
DIMENSION
  5
4AE
330
1F
100
AcDbEntity
  8
0
 62
     7
100
AcDbDimension
  2
*D32
 10
-252.612326870285
 20
205.1946083833861
 30
0.0
 11
-240.0975045415263
 21
205.1946083833861
 31
0.0
 70
   160
  1
５（クリアランス）
 71
     5
 42
0.25
  3
ISO-25
100
AcDbAlignedDimension
 13
-252.362326870285
 23
193.1946083833862
 33
0.0
 14
-252.612326870285
 24
199.0404443538506
 34
0.0
100
AcDbRotatedDimension
1001
ACAD
1000
DSTYLE
1002
{
1070
   278
1070
    46
1070
   147
1040
0.625
1070
    77
1070
     1
1070
    74
1070
     0
1070
    73
1070
     0
1070
    42
1040
2.54
1070
    44
1040
2.0
1070
    76
1070
     0
1070
    75
1070
     0
1070
   279
1070
     0
1070
   271
1070
     0
1070
   173
1070
     1
1070
    41
1040
1.0
1070
   140
1040
2.5
1070
   344
1005
3FB
1070
   343
1005
3FB
1002
}
  0
DIMENSION
  5
4BE
330
1F
100
AcDbEntity
  8
0
 62
     7
100
AcDbDimension
  2
*D33
 10
-327.1123268702849
 20
205.1946083833861
 30
0.0
 11
-289.862326870285
 21
205.1946083833861
 31
0.0
 70
   160
  1
１４９０（カウンター長さ）
 71
     5
 42
74.49999999999989
  3
ISO-25
100
AcDbAlignedDimension
 13
-252.612326870285
 23
193.1946083833861
 33
0.0
 14
-327.1123268702849
 24
193.1946083833861
 34
0.0
100
AcDbRotatedDimension
1001
ACAD
1000
DSTYLE
1002
{
1070
   278
1070
    46
1070
   147
1040
0.625
1070
    77
1070
     1
1070
    74
1070
     0
1070
    73
1070
     0
1070
    42
1040
2.54
1070
    44
1040
2.0
1070
    76
1070
     0
1070
    75
1070
     1
1070
   279
1070
     0
1070
   271
1070
     0
1070
   173
1070
     1
1070
    41
1040
1.0
1070
   140
1040
2.5
1070
   344
1005
3FB
1070
   343
1005
43B
1002
}
  0
DIMENSION
  5
4CA
330
1F
100
AcDbEntity
  8
0
 62
     7
100
AcDbDimension
  2
*D34
 10
-327.3623268702849
 20
205.1946083833861
 30
0.0
 11
-340.2031417433856
 21
205.1946083833861
 31
0.0
 70
   160
  1
（クリアランス）５
 71
     5
 42
0.25
  3
ISO-25
100
AcDbAlignedDimension
 13
-327.1123268702849
 23
193.1946083833861
 33
0.0
 14
-327.3623268702849
 24
193.1946083833862
 34
0.0
100
AcDbRotatedDimension
1001
ACAD
1000
DSTYLE
1002
{
1070
   278
1070
    46
1070
   147
1040
0.625
1070
    77
1070
     1
1070
    74
1070
     0
1070
    73
1070
     0
1070
    42
1040
2.54
1070
    44
1040
2.0
1070
    76
1070
     0
1070
    75
1070
     1
1070
   279
1070
     0
1070
   271
1070
     0
1070
   173
1070
     1
1070
    41
1040
1.0
1070
   140
1040
2.5
1070
   344
1005
3FB
1070
   343
1005
43B
1002
}
  0
DIMENSION
  5
4D8
330
1F
100
AcDbEntity
  8
0
 62
     7
100
AcDbDimension
  2
*D35
 10
-270.3123268702851
 20
200.1946083833861
 30
0.0
 11
-279.5427937135582
 21
200.1946083833861
 31
0.0
 70
   160
  1
（手洗器キャビネット中心）　　３５９
 71
     5
 42
17.95000000000004
  3
ISO-25
100
AcDbAlignedDimension
 13
-252.362326870285
 23
193.1946083833862
 33
0.0
 14
-270.3123268702851
 24
193.1946083833864
 34
0.0
100
AcDbRotatedDimension
1001
ACAD
1000
DSTYLE
1002
{
1070
   278
1070
    46
1070
   147
1040
0.625
1070
    77
1070
     1
1070
    74
1070
     0
1070
    73
1070
     0
1070
    42
1040
2.54
1070
    44
1040
2.0
1070
    76
1070
     0
1070
    75
1070
     0
1070
   279
1070
     0
1070
   271
1070
     0
1070
   173
1070
     1
1070
    41
1040
1.0
1070
   140
1040
2.5
1070
   344
1005
3FB
1070
   343
1005
3FB
1002
}
  0
DIMENSION
  5
4E6
330
1F
100
AcDbEntity
  8
0
 62
     7
100
AcDbDimension
  2
*D36
 10
-240.7048920274641
 20
179.194608383386
 30
0.0
 11
-240.7048920274641
 21
186.1946083833861
 31
0.0
 70
   160
  1
280
 71
     5
 42
14.00000000000009
  3
ISO-25
100
AcDbAlignedDimension
 13
-252.362326870285
 23
193.1946083833861
 33
0.0
 14
-252.612326870285
 24
179.194608383386
 34
0.0
 50
90.00000000000003
100
AcDbRotatedDimension
1001
ACAD
1000
DSTYLE
1002
{
1070
   278
1070
    46
1070
   147
1040
0.625
1070
    77
1070
     1
1070
    74
1070
     0
1070
    73
1070
     0
1070
    42
1040
2.54
1070
    44
1040
1.999999999999915
1070
    76
1070
     0
1070
    75
1070
     0
1070
   279
1070
     0
1070
   271
1070
     0
1070
   173
1070
     1
1070
    41
1040
1.0
1070
   140
1040
2.5
1070
   344
1005
3FB
1070
   343
1005
3FB
1002
}
  0
DIMENSION
  5
4F3
330
1F
100
AcDbEntity
  8
0
 62
     7
100
AcDbDimension
  2
*D37
 10
-225.3623268702851
 20
92.69460838338615
 30
0.0
 11
-225.3623268702851
 21
73.94460838338614
 31
0.0
 70
   160
  1
７５０（７３８※３）
 71
     5
 42
37.50000000000006
  3
ISO-25
100
AcDbAlignedDimension
 13
-252.362326870285
 23
55.19460838338611
 33
0.0
 14
-252.612326870285
 24
92.69460838338617
 34
0.0
 50
270.0
100
AcDbRotatedDimension
1001
ACAD
1000
DSTYLE
1002
{
1070
   278
1070
    46
1070
   147
1040
0.625
1070
    77
1070
     1
1070
    74
1070
     0
1070
    73
1070
     0
1070
    42
1040
2.54
1070
    44
1040
2.000000000000028
1070
    76
1070
     0
1070
    75
1070
     0
1070
   279
1070
     0
1070
   271
1070
     0
1070
   173
1070
     1
1070
    41
1040
1.0
1070
   140
1040
2.5
1070
   344
1005
3FB
1070
   343
1005
3FB
1002
}
  0
INSERT
  5
508
330
1F
100
AcDbEntity
  8
0
 62
     7
100
AcDbBlockReference
  2
VIS-ULNS3CRN0017
 10
-269.7107642258278
 20
80.1103724258663
 30
0.0
  0
DIMENSION
  5
50B
330
1F
100
AcDbEntity
  8
0
 62
     7
100
AcDbDimension
  2
*D39
 10
-322.612326870285
 20
117.6946083833861
 30
0.0
 11
-342.8881586042422
 21
117.6946083833861
 31
0.0
 70
   160
  1
（ブラケット中心）９５\P　　　　　　　　　※２
 71
     5
 42
4.75
  3
ISO-25
100
AcDbAlignedDimension
 13
-327.362326870285
 23
157.6946083833861
 33
0.0
 14
-322.612326870285
 24
91.49460838338582
 34
0.0
 50
180.0
100
AcDbRotatedDimension
1001
ACAD
1000
DSTYLE
1002
{
1070
   278
1070
    46
1070
   147
1040
0.625
1070
    77
1070
     1
1070
    74
1070
     0
1070
    73
1070
     0
1070
    42
1040
2.54
1070
    44
1040
2.000000000000028
1070
    76
1070
     0
1070
    75
1070
     1
1070
   279
1070
     0
1070
   271
1070
     0
1070
   173
1070
     1
1070
    41
1040
1.0
1070
   140
1040
2.5
1070
   344
1005
3FB
1070
   343
1005
3FB
1002
}
  0
DIMENSION
  5
51A
330
1F
100
AcDbEntity
  8
0
 62
     7
100
AcDbDimension
  2
*D40
 10
-169.811179401555
 20
263.7128597106101
 30
0.0
 11
-176.5949077982108
 21
263.7128597106101
 31
0.0
 70
   160
  1
11.5
 71
     5
 42
2.299999999999727
  3
ISO-25
100
AcDbAlignedDimension
 13
-167.5111794015552
 23
256.7128597106101
 33
0.0
 14
-169.811179401555
 24
253.7208597106089
 34
0.0
100
AcDbRotatedDimension
1001
ACAD
1000
DSTYLE
1002
{
1070
   278
1070
    46
1070
   147
1040
0.625
1070
    77
1070
     1
1070
    74
1070
     0
1070
    73
1070
     0
1070
    42
1040
2.54
1070
    44
1040
2.0
1070
    76
1070
     0
1070
    75
1070
     0
1070
   279
1070
     0
1070
   271
1070
     1
1070
   173
1070
     1
1070
    41
1040
1.0
1070
   140
1040
2.5
1070
   344
1005
3FB
1070
   343
1005
3FB
1002
}
  0
DIMENSION
  5
530
330
1F
100
AcDbEntity
  8
0
 62
     7
100
AcDbDimension
  2
*D41
 10
-167.5111794015552
 20
263.7128597106101
 30
0.0
 11
-159.6640744831458
 21
263.7128597106101
 31
0.0
 70
   160
  1
11.5
 71
     5
 42
2.300000000000011
  3
ISO-25
100
AcDbAlignedDimension
 13
-165.2111794015552
 23
253.7208597106089
 33
0.0
 14
-167.5111794015552
 24
256.7128597106101
 34
0.0
100
AcDbRotatedDimension
1001
ACAD
1000
DSTYLE
1002
{
1070
   278
1070
    46
1070
   147
1040
0.625
1070
    77
1070
     1
1070
    74
1070
     0
1070
    73
1070
     0
1070
    42
1040
2.54
1070
    44
1040
2.0
1070
    76
1070
     0
1070
    75
1070
     0
1070
   279
1070
     0
1070
   271
1070
     1
1070
   173
1070
     1
1070
    41
1040
1.0
1070
   140
1040
2.5
1070
   344
1005
3FB
1070
   343
1005
3FB
1002
}
  0
DIMENSION
  5
546
330
1F
100
AcDbEntity
  8
0
 62
     7
100
AcDbDimension
  2
*D42
 10
-198.011179401554
 20
246.1128597106099
 30
0.0
 11
-198.011179401554
 21
235.9718395110672
 31
0.0
 70
   160
  1
FL+673
 71
     5
 42
39.39999999999986
  3
ISO-25
100
AcDbAlignedDimension
 13
-192.5111794015545
 23
206.7128597106101
 33
0.0
 14
-209.5111794015558
 24
246.1128597106099
 34
0.0
 50
270.0
100
AcDbRotatedDimension
1001
ACAD
1000
DSTYLE
1002
{
1070
   278
1070
    46
1070
   147
1040
0.625
1070
    77
1070
     1
1070
    74
1070
     0
1070
    73
1070
     0
1070
    42
1040
2.54
1070
    44
1040
2.000000000000114
1070
    76
1070
     0
1070
    75
1070
     1
1070
   279
1070
     0
1070
   271
1070
     0
1070
   173
1070
     1
1070
    41
1040
1.0
1070
   140
1040
2.5
1070
   344
1005
3FB
1070
   343
1005
43B
1002
}
  0
DIMENSION
  5
555
330
1F
100
AcDbEntity
  8
0
 62
     7
100
AcDbDimension
  2
*D43
 10
-153.7111794015551
 20
216.8621669461125
 30
0.0
 11
-153.7111794015551
 21
225.2875133283606
 31
0.0
 70
   160
  1
FL+595
 71
     5
 42
16.85069276449627
  3
ISO-25
100
AcDbAlignedDimension
 13
-166.5031794015553
 23
233.7128597106088
 33
0.0
 14
-145.0111794015544
 24
216.8621669461125
 34
0.0
 50
90.00000000000003
100
AcDbRotatedDimension
1001
ACAD
1000
DSTYLE
1002
{
1070
   278
1070
    46
1070
   147
1040
0.625
1070
    77
1070
     1
1070
    74
1070
     0
1070
    73
1070
     0
1070
    42
1040
2.54
1070
    44
1040
2.0
1070
    76
1070
     1
1070
    75
1070
     1
1070
   279
1070
     0
1070
   271
1070
     0
1070
   173
1070
     1
1070
    41
1040
1.0
1070
   140
1040
2.5
1070
   344
1005
43B
1070
   343
1005
3FB
1002
}
  0
DIMENSION
  5
562
330
1F
100
AcDbEntity
  8
0
 62
     7
100
AcDbDimension
  2
*D44
 10
-215.511179401555
 20
263.7128597106101
 30
0.0
 11
-219.4358169620274
 21
263.7128597106101
 31
0.0
 70
   160
  1
15
 71
     5
 42
3.000000000000455
  3
ISO-25
100
AcDbAlignedDimension
 13
-212.5111794015545
 23
256.7128597106101
 33
0.0
 14
-215.511179401555
 24
251.1128597106099
 34
0.0
100
AcDbRotatedDimension
1001
ACAD
1000
DSTYLE
1002
{
1070
   278
1070
    46
1070
   147
1040
0.625
1070
    77
1070
     1
1070
    74
1070
     0
1070
    73
1070
     0
1070
    42
1040
2.54
1070
    44
1040
2.0
1070
    76
1070
     0
1070
    75
1070
     0
1070
   279
1070
     0
1070
   271
1070
     0
1070
   173
1070
     1
1070
    41
1040
1.0
1070
   140
1040
2.5
1070
   344
1005
3FB
1070
   343
1005
3FB
1002
}
  0
DIMENSION
  5
578
330
1F
100
AcDbEntity
  8
0
 62
     7
100
AcDbDimension
  2
*D45
 10
-209.5111794015559
 20
263.7128597106101
 30
0.0
 11
-205.9285577246849
 21
263.7128597106101
 31
0.0
 70
   160
  1
15
 71
     5
 42
2.999999999998636
  3
ISO-25
100
AcDbAlignedDimension
 13
-212.5111794015545
 23
256.7128597106101
 33
0.0
 14
-209.5111794015559
 24
251.1128597106099
 34
0.0
 50
180.0
100
AcDbRotatedDimension
1001
ACAD
1000
DSTYLE
1002
{
1070
   278
1070
    46
1070
   147
1040
0.625
1070
    77
1070
     1
1070
    74
1070
     0
1070
    73
1070
     0
1070
    42
1040
2.54
1070
    44
1040
2.0
1070
    76
1070
     0
1070
    75
1070
     1
1070
   279
1070
     0
1070
   271
1070
     0
1070
   173
1070
     1
1070
    41
1040
1.0
1070
   140
1040
2.5
1070
   344
1005
3FB
1070
   343
1005
3FB
1002
}
  0
DIMENSION
  5
58C
330
1F
100
AcDbEntity
  8
0
 62
     7
100
AcDbDimension
  2
*D46
 10
-198.011179401554
 20
251.1128597106099
 30
0.0
 11
-198.011179401554
 21
254.0235361305377
 31
0.0
 70
   160
  1
25
 71
     5
 42
5.0
  3
ISO-25
100
AcDbAlignedDimension
 13
-209.5111794015558
 23
246.1128597106099
 33
0.0
 14
-209.5111794015558
 24
251.1128597106099
 34
0.0
 50
270.0
100
AcDbRotatedDimension
1001
ACAD
1000
DSTYLE
1002
{
1070
   278
1070
    46
1070
   147
1040
0.625
1070
    77
1070
     1
1070
    74
1070
     0
1070
    73
1070
     0
1070
    42
1040
2.54
1070
    44
1040
2.0
1070
    76
1070
     0
1070
    75
1070
     1
1070
   279
1070
     0
1070
   271
1070
     0
1070
   173
1070
     1
1070
    41
1040
1.0
1070
   140
1040
2.5
1070
   344
1005
3FB
1070
   343
1005
3FB
1002
}
  0
DIMENSION
  5
59E
330
1F
100
AcDbEntity
  8
0
 62
     7
100
AcDbDimension
  2
*D47
 10
-153.7111794015551
 20
233.7128597106088
 30
0.0
 11
-153.7111794015551
 21
243.2128597106088
 31
0.0
 70
   160
  1
95
 71
     5
 42
19.0
  3
ISO-25
100
AcDbAlignedDimension
 13
-164.0031794015553
 23
252.7128597106088
 33
0.0
 14
-166.5031794015553
 24
233.7128597106088
 34
0.0
 50
90.00000000000003
100
AcDbRotatedDimension
1001
ACAD
1000
DSTYLE
1002
{
1070
   278
1070
    46
1070
   147
1040
0.625
1070
    77
1070
     1
1070
    74
1070
     0
1070
    73
1070
     0
1070
    42
1040
2.54
1070
    44
1040
2.0
1070
    76
1070
     0
1070
    75
1070
     0
1070
   279
1070
     0
1070
   271
1070
     0
1070
   173
1070
     1
1070
    41
1040
1.0
1070
   140
1040
2.5
1070
   344
1005
3FB
1070
   343
1005
3FB
1002
}
  0
MTEXT
  5
5B1
330
1F
100
AcDbEntity
  8
AV
 62
     7
100
AcDbMText
 10
-158.2200000524521
 20
24.01667185549886
 30
0.0
 40
3.0
 41
0.0
 71
     7
 72
     1
  1
{\W0.833333;正}
 73
     1
 44
1.0
  0
MTEXT
  5
5B2
330
1F
100
AcDbEntity
  8
AV
 62
     7
100
AcDbMText
 10
-141.1431107210392
 20
26.01667185549886
 30
0.0
 40
3.0
 41
0.0
 71
     7
 72
     1
  1
{\W0.833333;橋}
 73
     1
 44
1.0
  0
MTEXT
  5
5B3
330
1F
100
AcDbEntity
  8
AV
 62
     7
100
AcDbMText
 10
-141.1431107210392
 20
22.01667185549886
 30
0.0
 40
3.0
 41
0.0
 71
     7
 72
     1
  1
{\W0.833333;本}
 73
     1
 44
1.0
  0
MTEXT
  5
5B4
330
1F
100
AcDbEntity
  8
AV
 62
     7
100
AcDbMText
 10
-135.2200000524521
 20
26.01667185549886
 30
0.0
 40
3.0
 41
0.0
 71
     7
 72
     1
  1
{\W0.833333;武}
 73
     1
 44
1.0
  0
MTEXT
  5
5B5
330
1F
100
AcDbEntity
  8
AV
 62
     7
100
AcDbMText
 10
-135.2200000524521
 20
22.01667185549886
 30
0.0
 40
3.0
 41
0.0
 71
     7
 72
     1
  1
{\W0.833333;藤}
 73
     1
 44
1.0
  0
MTEXT
  5
5B6
330
1F
100
AcDbEntity
  8
AV
 62
     7
100
AcDbMText
 10
-108.5130000412464
 20
22.48332832579763
 30
0.0
 40
2.700000047683716
 41
0.0
 71
     7
 72
     1
  1
{\W0.833333;1:20}
 73
     1
 44
1.0
  0
MTEXT
  5
5B7
330
1F
100
AcDbEntity
  8
AV
 62
     7
100
AcDbMText
 10
-128.4630000591278
 20
22.48332832579763
 30
0.0
 40
2.700000047683716
 41
0.0
 71
     7
 72
     1
  1
{\W0.617284;19.12.02}
 73
     1
 44
1.0
  0
MTEXT
  5
5B8
330
1F
100
AcDbEntity
  8
AV
 62
     7
100
AcDbMText
 10
-72.3629999756813
 20
25.95000009064825
 30
0.0
 40
2.700000047683716
 41
0.0
 71
     7
 72
     1
  1
{\W0.833333;ULNS3CRN1490＊＊＊}
 73
     1
 44
1.0
  0
MTEXT
  5
5B9
330
1F
100
AcDbEntity
  8
AV
 62
     7
100
AcDbMText
 10
-72.3629999756813
 20
22.35000006680639
 30
0.0
 40
2.700000047683716
 41
0.0
 71
     7
 72
     1
  1
{\W0.833333;ULPS3CRN1490*}
 73
     1
 44
1.0
  0
MTEXT
  5
5BA
330
1F
100
AcDbEntity
  8
AV
 62
     7
100
AcDbMText
 10
-77.46299993991852
 20
36.2833359671131
 30
0.0
 40
2.700000047683716
 41
0.0
 71
     7
 72
     1
  1
{\W0.833333;レストルームドレッサー　プレミアムシリーズ}
 73
     1
 44
1.0
  0
MTEXT
  5
5BB
330
1F
100
AcDbEntity
  8
AV
 62
     7
100
AcDbMText
 10
-77.46299993991852
 20
32.68333594327124
 30
0.0
 40
2.700000047683716
 41
0.0
 71
     7
 72
     1
  1
{\W0.833333;対面設置　カウンターキャビネット（両扉）}
 73
     1
 44
1.0
  0
MTEXT
  5
5BC
330
1F
100
AcDbEntity
  8
AV
 62
     7
100
AcDbMText
 10
-143.7630000114441
 20
13.81666372542531
 30
0.0
 40
2.700000047683716
 41
0.0
 71
     7
 72
     1
  1
{\W0.833333;ねじ固定位置詳細図}
 73
     1
 44
1.0
  0
MTEXT
  5
5BD
330
1F
100
AcDbEntity
  8
AV
 62
     7
100
AcDbMText
 10
-68.3129999935627
 20
13.81665657286794
 30
0.0
 40
2.700000047683716
 41
0.0
 71
     7
 72
     1
  1
{\W0.833333;VIS-ULNS3CRN}
 73
     1
 44
1.0
  0
INSERT
  5
5BE
330
1F
100
AcDbEntity
  8
AV
 62
     7
100
AcDbBlockReference
  2
VIS-ULNS3CRN0000
 10
0.0
 20
0.0
 30
0.0
  0
INSERT
  5
5BF
330
1F
100
AcDbEntity
  8
AV
 62
     7
100
AcDbBlockReference
  2
VIS-ULNS3CRN0001
 10
0.0
 20
0.0
 30
0.0
  0
ENDSEC
  0
SECTION
  2
OBJECTS
  0
DICTIONARY
  5
C
330
0
100
AcDbDictionary
281
     1
  3
ACAD_GROUP
350
D
  3
ACAD_LAYOUT
350
1A
  3
ACAD_MLEADERSTYLE
350
5C2
  3
ACAD_MLINESTYLE
350
17
  3
ACAD_PLOTSETTINGS
350
19
  3
ACAD_PLOTSTYLENAME
350
E
  3
ACAD_SCALELIST
350
D7
  3
ACAD_VISUALSTYLE
350
2A
  3
AcDbVariableDictionary
350
5C0
  0
DICTIONARY
  5
D
102
{ACAD_REACTORS
330
C
102
}
330
C
100
AcDbDictionary
281
     1
  0
DICTIONARY
  5
1A
102
{ACAD_REACTORS
330
C
102
}
330
C
100
AcDbDictionary
281
     1
  3
Layout1
350
1E
  3
Layout2
350
26
  3
Model
350
22
  0
DICTIONARY
  5
5C2
102
{ACAD_REACTORS
330
C
102
}
330
C
100
AcDbDictionary
281
     1
  0
DICTIONARY
  5
17
102
{ACAD_REACTORS
330
C
102
}
330
C
100
AcDbDictionary
281
     1
  3
Standard
350
18
  0
DICTIONARY
  5
19
102
{ACAD_REACTORS
330
C
102
}
330
C
100
AcDbDictionary
281
     1
  0
ACDBDICTIONARYWDFLT
  5
E
102
{ACAD_REACTORS
330
C
102
}
330
C
100
AcDbDictionary
281
     1
  3
Normal
350
F
100
AcDbDictionaryWithDefault
340
F
  0
DICTIONARY
  5
D7
102
{ACAD_REACTORS
330
C
102
}
330
C
100
AcDbDictionary
281
     1
  3
A0
350
D8
  3
A1
350
D9
  3
A2
350
DA
  3
A3
350
DB
  3
A4
350
DC
  3
A5
350
DD
  3
A6
350
DE
  3
A7
350
DF
  3
A8
350
E0
  3
A9
350
E1
  3
B0
350
E2
  3
B1
350
E3
  3
B2
350
E4
  3
B3
350
E5
  3
B4
350
E6
  3
B5
350
E7
  3
B6
350
E8
  3
B7
350
E9
  3
B8
350
EA
  3
B9
350
EB
  3
C0
350
EC
  3
C1
350
ED
  3
C2
350
EE
  3
C3
350
EF
  3
C4
350
F0
  3
C5
350
F1
  3
C6
350
F2
  3
C7
350
F3
  3
C8
350
F4
  3
C9
350
F5
  3
D0
350
F6
  3
D1
350
F7
  3
D2
350
F8
  0
DICTIONARY
  5
2A
102
{ACAD_REACTORS
330
C
102
}
330
C
100
AcDbDictionary
281
     1
  3
2dWireframe
350
2F
  3
3D Hidden
350
31
  3
3dWireframe
350
30
  3
Basic
350
32
  3
Brighten
350
36
  3
ColorChange
350
3A
  3
Conceptual
350
34
  3
Dim
350
35
  3
Facepattern
350
39
  3
Flat
350
2B
  3
FlatWithEdges
350
2C
  3
Gouraud
350
2D
  3
GouraudWithEdges
350
2E
  3
Linepattern
350
38
  3
Realistic
350
33
  3
Thicken
350
37
  0
DICTIONARY
  5
5C0
102
{ACAD_REACTORS
330
C
102
}
330
C
100
AcDbDictionary
281
     1
  3
CANNOSCALE
350
5C5
  3
PSOLHEIGHT
350
5C4
  3
PSOLWIDTH
350
5C3
  0
LAYOUT
  5
1E
102
{ACAD_REACTORS
330
1A
102
}
330
1A
100
AcDbPlotSettings
  1

  2
none_device
  4

  6

 40
0.0
 41
0.0
 42
0.0
 43
0.0
 44
0.0
 45
0.0
 46
0.0
 47
0.0
 48
0.0
 49
0.0
140
0.0
141
0.0
142
1.0
143
1.0
 70
   688
 72
     0
 73
     0
 74
     5
  7

 75
    16
147
1.0
148
0.0
149
0.0
100
AcDbLayout
  1
Layout1
 70
     1
 71
     1
 10
-420.0
 20
0.0
 11
0.0
 21
297.0
 12
0.0
 22
0.0
 32
0.0
 14
1.000000000000000E+20
 24
1.000000000000000E+20
 34
1.000000000000000E+20
 15
-1.000000000000000E+20
 25
-1.000000000000000E+20
 35
-1.000000000000000E+20
146
0.0
 13
0.0
 23
0.0
 33
0.0
 16
1.0
 26
0.0
 36
0.0
 17
0.0
 27
1.0
 37
0.0
 76
     0
330
1B
  0
LAYOUT
  5
26
102
{ACAD_REACTORS
330
1A
102
}
330
1A
100
AcDbPlotSettings
  1

  2
none_device
  4

  6

 40
0.0
 41
0.0
 42
0.0
 43
0.0
 44
0.0
 45
0.0
 46
0.0
 47
0.0
 48
0.0
 49
0.0
140
0.0
141
0.0
142
1.0
143
1.0
 70
   688
 72
     0
 73
     0
 74
     5
  7

 75
    16
147
1.0
148
0.0
149
0.0
100
AcDbLayout
  1
Layout2
 70
     1
 71
     2
 10
0.0
 20
0.0
 11
0.0
 21
0.0
 12
0.0
 22
0.0
 32
0.0
 14
0.0
 24
0.0
 34
0.0
 15
0.0
 25
0.0
 35
0.0
146
0.0
 13
0.0
 23
0.0
 33
0.0
 16
1.0
 26
0.0
 36
0.0
 17
0.0
 27
1.0
 37
0.0
 76
     0
330
23
  0
LAYOUT
  5
22
102
{ACAD_REACTORS
330
1A
102
}
330
1A
100
AcDbPlotSettings
  1

  2
none_device
  4

  6

 40
0.0
 41
0.0
 42
0.0
 43
0.0
 44
0.0
 45
0.0
 46
0.0
 47
0.0
 48
0.0
 49
0.0
140
0.0
141
0.0
142
1.0
143
1.0
 70
  1712
 72
     0
 73
     0
 74
     0
  7

 75
     0
147
1.0
148
0.0
149
0.0
100
AcDbLayout
  1
Model
 70
     1
 71
     0
 10
-420.0
 20
0.0
 11
0.0
 21
297.0
 12
0.0
 22
0.0
 32
0.0
 14
-420.0
 24
0.0
 34
0.0
 15
0.0
 25
297.0
 35
0.0
146
0.0
 13
0.0
 23
0.0
 33
0.0
 16
1.0
 26
0.0
 36
0.0
 17
0.0
 27
1.0
 37
0.0
 76
     0
330
1F
331
29
  0
MLINESTYLE
  5
18
102
{ACAD_REACTORS
330
17
102
}
330
17
100
AcDbMlineStyle
  2
Standard
 70
     0
  3

 62
   256
 51
90.0
 52
90.0
 71
     2
 49
0.5
 62
   256
  6
BYLAYER
 49
-0.5
 62
   256
  6
BYLAYER
  0
ACDBPLACEHOLDER
  5
F
102
{ACAD_REACTORS
330
E
102
}
330
E
  0
SCALE
  5
D8
102
{ACAD_REACTORS
330
D7
102
}
330
D7
100
AcDbScale
 70
     0
300
1:1
140
1.0
141
1.0
290
     1
  0
SCALE
  5
D9
102
{ACAD_REACTORS
330
D7
102
}
330
D7
100
AcDbScale
 70
     0
300
1:2
140
1.0
141
2.0
290
     0
  0
SCALE
  5
DA
102
{ACAD_REACTORS
330
D7
102
}
330
D7
100
AcDbScale
 70
     0
300
1:4
140
1.0
141
4.0
290
     0
  0
SCALE
  5
DB
102
{ACAD_REACTORS
330
D7
102
}
330
D7
100
AcDbScale
 70
     0
300
1:5
140
1.0
141
5.0
290
     0
  0
SCALE
  5
DC
102
{ACAD_REACTORS
330
D7
102
}
330
D7
100
AcDbScale
 70
     0
300
1:8
140
1.0
141
8.0
290
     0
  0
SCALE
  5
DD
102
{ACAD_REACTORS
330
D7
102
}
330
D7
100
AcDbScale
 70
     0
300
1:10
140
1.0
141
10.0
290
     0
  0
SCALE
  5
DE
102
{ACAD_REACTORS
330
D7
102
}
330
D7
100
AcDbScale
 70
     0
300
1:16
140
1.0
141
16.0
290
     0
  0
SCALE
  5
DF
102
{ACAD_REACTORS
330
D7
102
}
330
D7
100
AcDbScale
 70
     0
300
1:20
140
1.0
141
20.0
290
     0
  0
SCALE
  5
E0
102
{ACAD_REACTORS
330
D7
102
}
330
D7
100
AcDbScale
 70
     0
300
1:30
140
1.0
141
30.0
290
     0
  0
SCALE
  5
E1
102
{ACAD_REACTORS
330
D7
102
}
330
D7
100
AcDbScale
 70
     0
300
1:40
140
1.0
141
40.0
290
     0
  0
SCALE
  5
E2
102
{ACAD_REACTORS
330
D7
102
}
330
D7
100
AcDbScale
 70
     0
300
1:50
140
1.0
141
50.0
290
     0
  0
SCALE
  5
E3
102
{ACAD_REACTORS
330
D7
102
}
330
D7
100
AcDbScale
 70
     0
300
1:100
140
1.0
141
100.0
290
     0
  0
SCALE
  5
E4
102
{ACAD_REACTORS
330
D7
102
}
330
D7
100
AcDbScale
 70
     0
300
2:1
140
2.0
141
1.0
290
     0
  0
SCALE
  5
E5
102
{ACAD_REACTORS
330
D7
102
}
330
D7
100
AcDbScale
 70
     0
300
4:1
140
4.0
141
1.0
290
     0
  0
SCALE
  5
E6
102
{ACAD_REACTORS
330
D7
102
}
330
D7
100
AcDbScale
 70
     0
300
8:1
140
8.0
141
1.0
290
     0
  0
SCALE
  5
E7
102
{ACAD_REACTORS
330
D7
102
}
330
D7
100
AcDbScale
 70
     0
300
10:1
140
10.0
141
1.0
290
     0
  0
SCALE
  5
E8
102
{ACAD_REACTORS
330
D7
102
}
330
D7
100
AcDbScale
 70
     0
300
100:1
140
100.0
141
1.0
290
     0
  0
SCALE
  5
E9
102
{ACAD_REACTORS
330
D7
102
}
330
D7
100
AcDbScale
 70
     0
300
1/128" = 1'-0"
140
0.0078125
141
12.0
290
     0
  0
SCALE
  5
EA
102
{ACAD_REACTORS
330
D7
102
}
330
D7
100
AcDbScale
 70
     0
300
1/64" = 1'-0"
140
0.015625
141
12.0
290
     0
  0
SCALE
  5
EB
102
{ACAD_REACTORS
330
D7
102
}
330
D7
100
AcDbScale
 70
     0
300
1/32" = 1'-0"
140
0.03125
141
12.0
290
     0
  0
SCALE
  5
EC
102
{ACAD_REACTORS
330
D7
102
}
330
D7
100
AcDbScale
 70
     0
300
1/16" = 1'-0"
140
0.0625
141
12.0
290
     0
  0
SCALE
  5
ED
102
{ACAD_REACTORS
330
D7
102
}
330
D7
100
AcDbScale
 70
     0
300
3/32" = 1'-0"
140
0.09375
141
12.0
290
     0
  0
SCALE
  5
EE
102
{ACAD_REACTORS
330
D7
102
}
330
D7
100
AcDbScale
 70
     0
300
1/8" = 1'-0"
140
0.125
141
12.0
290
     0
  0
SCALE
  5
EF
102
{ACAD_REACTORS
330
D7
102
}
330
D7
100
AcDbScale
 70
     0
300
3/16" = 1'-0"
140
0.1875
141
12.0
290
     0
  0
SCALE
  5
F0
102
{ACAD_REACTORS
330
D7
102
}
330
D7
100
AcDbScale
 70
     0
300
1/4" = 1'-0"
140
0.25
141
12.0
290
     0
  0
SCALE
  5
F1
102
{ACAD_REACTORS
330
D7
102
}
330
D7
100
AcDbScale
 70
     0
300
3/8" = 1'-0"
140
0.375
141
12.0
290
     0
  0
SCALE
  5
F2
102
{ACAD_REACTORS
330
D7
102
}
330
D7
100
AcDbScale
 70
     0
300
1/2" = 1'-0"
140
0.5
141
12.0
290
     0
  0
SCALE
  5
F3
102
{ACAD_REACTORS
330
D7
102
}
330
D7
100
AcDbScale
 70
     0
300
3/4" = 1'-0"
140
0.75
141
12.0
290
     0
  0
SCALE
  5
F4
102
{ACAD_REACTORS
330
D7
102
}
330
D7
100
AcDbScale
 70
     0
300
1" = 1'-0"
140
1.0
141
12.0
290
     0
  0
SCALE
  5
F5
102
{ACAD_REACTORS
330
D7
102
}
330
D7
100
AcDbScale
 70
     0
300
1-1/2" = 1'-0"
140
1.5
141
12.0
290
     0
  0
SCALE
  5
F6
102
{ACAD_REACTORS
330
D7
102
}
330
D7
100
AcDbScale
 70
     0
300
3" = 1'-0"
140
3.0
141
12.0
290
     0
  0
SCALE
  5
F7
102
{ACAD_REACTORS
330
D7
102
}
330
D7
100
AcDbScale
 70
     0
300
6" = 1'-0"
140
6.0
141
12.0
290
     0
  0
SCALE
  5
F8
102
{ACAD_REACTORS
330
D7
102
}
330
D7
100
AcDbScale
 70
     0
300
1'-0" = 1'-0"
140
12.0
141
12.0
290
     0
  0
VISUALSTYLE
  5
2F
102
{ACAD_REACTORS
330
2A
102
}
330
2A
100
AcDbVisualStyle
  2
2dWireframe
 70
     4
 71
     0
 72
     2
 73
     0
 90
        0
 40
-0.6
 41
-30.0
 62
     5
 63
     7
 74
     1
 91
        4
 64
     7
 65
   257
 75
     1
175
     1
 42
1.0
 92
        0
 66
   257
 43
1.0
 76
     1
 77
     6
 78
     2
 67
     7
 79
     5
170
     0
171
     0
290
     0
174
     0
 93
        1
 44
0.0
173
     0
291
     0
 45
0.0
1001
ACAD
1000
AcDbSavedByObjectVersion
1070
     0
  0
VISUALSTYLE
  5
31
102
{ACAD_REACTORS
330
2A
102
}
330
2A
100
AcDbVisualStyle
  2
3D Hidden
 70
     6
 71
     1
 72
     2
 73
     2
 90
        0
 40
-0.6
 41
-30.0
 62
     5
 63
     7
 74
     2
 91
        2
 64
     7
 65
   257
 75
     2
175
     1
 42
40.0
 92
        0
 66
   257
 43
1.0
 76
     1
 77
     6
 78
     2
 67
     7
 79
     3
170
     0
171
     0
290
     0
174
     0
 93
        1
 44
0.0
173
     0
291
     0
 45
0.0
1001
ACAD
1000
AcDbSavedByObjectVersion
1070
     0
  0
VISUALSTYLE
  5
30
102
{ACAD_REACTORS
330
2A
102
}
330
2A
100
AcDbVisualStyle
  2
3dWireframe
 70
     5
 71
     0
 72
     2
 73
     0
 90
        0
 40
-0.6
 41
-30.0
 62
     5
 63
     7
 74
     1
 91
        4
 64
     7
 65
   257
 75
     1
175
     1
 42
1.0
 92
        0
 66
   257
 43
1.0
 76
     1
 77
     6
 78
     2
 67
     7
 79
     5
170
     0
171
     0
290
     0
174
     0
 93
        1
 44
0.0
173
     0
291
     0
 45
0.0
1001
ACAD
1000
AcDbSavedByObjectVersion
1070
     0
  0
VISUALSTYLE
  5
32
102
{ACAD_REACTORS
330
2A
102
}
330
2A
100
AcDbVisualStyle
  2
Basic
 70
     7
 71
     1
 72
     0
 73
     1
 90
        0
 40
-0.6
 41
-30.0
 62
     5
 63
     7
 74
     0
 91
        4
 64
     7
 65
   257
 75
     1
175
     1
 42
1.0
 92
        8
 66
     7
 43
1.0
 76
     1
 77
     6
 78
     2
 67
     7
 79
     5
170
     0
171
     0
290
     0
174
     0
 93
        1
 44
0.0
173
     0
291
     1
 45
0.0
1001
ACAD
1000
AcDbSavedByObjectVersion
1070
     0
  0
VISUALSTYLE
  5
36
102
{ACAD_REACTORS
330
2A
102
}
330
2A
100
AcDbVisualStyle
  2
Brighten
 70
    12
 71
     2
 72
     2
 73
     0
 90
        0
 40
-0.6
 41
-30.0
 62
     5
 63
     7
 74
     1
 91
        4
 64
     7
 65
   257
 75
     1
175
     1
 42
1.0
 92
        8
 66
     7
 43
1.0
 76
     1
 77
     6
 78
     2
 67
     7
 79
     5
170
     0
171
     0
290
     0
174
     0
 93
        1
 44
50.0
173
     0
291
     1
 45
0.0
1001
ACAD
1000
AcDbSavedByObjectVersion
1070
     0
  0
VISUALSTYLE
  5
3A
102
{ACAD_REACTORS
330
2A
102
}
330
2A
100
AcDbVisualStyle
  2
ColorChange
 70
    16
 71
     2
 72
     2
 73
     3
 90
        0
 40
-0.6
 41
-30.0
 62
     5
 63
     8
 74
     1
 91
        4
 64
     7
 65
   257
 75
     1
175
     1
 42
1.0
 92
        8
 66
     8
 43
1.0
 76
     1
 77
     6
 78
     2
 67
     7
 79
     5
170
     0
171
     0
290
     0
174
     0
 93
        1
 44
0.0
173
     0
291
     1
 45
0.0
1001
ACAD
1000
AcDbSavedByObjectVersion
1070
     0
  0
VISUALSTYLE
  5
34
102
{ACAD_REACTORS
330
2A
102
}
330
2A
100
AcDbVisualStyle
  2
Conceptual
 70
     9
 71
     3
 72
     2
 73
     0
 90
        0
 40
-0.6
 41
-30.0
 62
     5
 63
     7
 74
     2
 91
        2
 64
     7
 65
   257
 75
     1
175
     1
 42
40.0
 92
        8
 66
     7
 43
1.0
 76
     1
 77
     6
 78
     2
 67
     7
 79
     3
170
     0
171
     0
290
     0
174
     0
 93
        1
 44
0.0
173
     0
291
     0
 45
0.0
1001
ACAD
1000
AcDbSavedByObjectVersion
1070
     0
  0
VISUALSTYLE
  5
35
102
{ACAD_REACTORS
330
2A
102
}
330
2A
100
AcDbVisualStyle
  2
Dim
 70
    11
 71
     2
 72
     2
 73
     0
 90
        0
 40
-0.6
 41
-30.0
 62
     5
 63
     7
 74
     1
 91
        4
 64
     7
 65
   257
 75
     1
175
     1
 42
1.0
 92
        8
 66
     7
 43
1.0
 76
     1
 77
     6
 78
     2
 67
     7
 79
     5
170
     0
171
     0
290
     0
174
     0
 93
        1
 44
-50.0
173
     0
291
     1
 45
0.0
1001
ACAD
1000
AcDbSavedByObjectVersion
1070
     0
  0
VISUALSTYLE
  5
39
102
{ACAD_REACTORS
330
2A
102
}
330
2A
100
AcDbVisualStyle
  2
Facepattern
 70
    15
 71
     2
 72
     2
 73
     0
 90
        0
 40
-0.6
 41
-30.0
 62
     5
 63
     7
 74
     1
 91
        4
 64
     7
 65
   257
 75
     1
175
     1
 42
1.0
 92
        8
 66
     7
 43
1.0
 76
     1
 77
     6
 78
     2
 67
     7
 79
     5
170
     0
171
     0
290
     0
174
     0
 93
        1
 44
0.0
173
     0
291
     1
 45
0.0
1001
ACAD
1000
AcDbSavedByObjectVersion
1070
     0
  0
VISUALSTYLE
  5
2B
102
{ACAD_REACTORS
330
2A
102
}
330
2A
100
AcDbVisualStyle
  2
Flat
 70
     0
 71
     2
 72
     1
 73
     1
 90
        2
 40
-0.6
 41
30.0
 62
     5
 63
     7
 74
     0
 91
        4
 64
     7
 65
   257
 75
     1
175
     1
 42
1.0
 92
        8
 66
     7
 43
1.0
 76
     1
 77
     6
 78
     2
 67
     7
 79
     5
170
     0
171
     0
290
     0
174
     0
 93
       13
 44
0.0
173
     0
291
     1
 45
0.0
1001
ACAD
1000
AcDbSavedByObjectVersion
1070
     0
  0
VISUALSTYLE
  5
2C
102
{ACAD_REACTORS
330
2A
102
}
330
2A
100
AcDbVisualStyle
  2
FlatWithEdges
 70
     1
 71
     2
 72
     1
 73
     1
 90
        2
 40
-0.6
 41
30.0
 62
     5
 63
     7
 74
     1
 91
        4
 64
     7
 65
   257
 75
     1
175
     1
 42
1.0
 92
        0
 66
   257
 43
1.0
 76
     1
 77
     6
 78
     2
 67
     7
 79
     5
170
     0
171
     0
290
     0
174
     0
 93
       13
 44
0.0
173
     0
291
     1
 45
0.0
1001
ACAD
1000
AcDbSavedByObjectVersion
1070
     0
  0
VISUALSTYLE
  5
2D
102
{ACAD_REACTORS
330
2A
102
}
330
2A
100
AcDbVisualStyle
  2
Gouraud
 70
     2
 71
     2
 72
     2
 73
     1
 90
        2
 40
-0.6
 41
30.0
 62
     5
 63
     7
 74
     0
 91
        4
 64
     7
 65
   257
 75
     1
175
     1
 42
1.0
 92
        0
 66
     7
 43
1.0
 76
     1
 77
     6
 78
     2
 67
     7
 79
     5
170
     0
171
     0
290
     0
174
     0
 93
       13
 44
0.0
173
     0
291
     1
 45
0.0
1001
ACAD
1000
AcDbSavedByObjectVersion
1070
     0
  0
VISUALSTYLE
  5
2E
102
{ACAD_REACTORS
330
2A
102
}
330
2A
100
AcDbVisualStyle
  2
GouraudWithEdges
 70
     3
 71
     2
 72
     2
 73
     1
 90
        2
 40
-0.6
 41
30.0
 62
     5
 63
     7
 74
     1
 91
        4
 64
     7
 65
   257
 75
     1
175
     1
 42
1.0
 92
        0
 66
   257
 43
1.0
 76
     1
 77
     6
 78
     2
 67
     7
 79
     5
170
     0
171
     0
290
     0
174
     0
 93
       13
 44
0.0
173
     0
291
     1
 45
0.0
1001
ACAD
1000
AcDbSavedByObjectVersion
1070
     0
  0
VISUALSTYLE
  5
38
102
{ACAD_REACTORS
330
2A
102
}
330
2A
100
AcDbVisualStyle
  2
Linepattern
 70
    14
 71
     2
 72
     2
 73
     0
 90
        0
 40
-0.6
 41
-30.0
 62
     5
 63
     7
 74
     1
 91
        4
 64
     7
 65
   257
 75
     7
175
     7
 42
1.0
 92
        8
 66
     7
 43
1.0
 76
     1
 77
     6
 78
     2
 67
     7
 79
     5
170
     0
171
     0
290
     0
174
     0
 93
        1
 44
0.0
173
     0
291
     1
 45
0.0
1001
ACAD
1000
AcDbSavedByObjectVersion
1070
     0
  0
VISUALSTYLE
  5
33
102
{ACAD_REACTORS
330
2A
102
}
330
2A
100
AcDbVisualStyle
  2
Realistic
 70
     8
 71
     2
 72
     2
 73
     0
 90
        0
 40
-0.6
 41
-30.0
 62
     5
 63
     7
 74
     1
 91
        0
 64
     7
 65
   257
 75
     1
175
     1
 42
1.0
 92
        8
 66
     8
 43
1.0
 76
     1
 77
     6
 78
     2
 67
     7
 79
     5
170
     0
171
     0
290
     0
174
     0
 93
       13
 44
0.0
173
     0
291
     0
 45
0.0
1001
ACAD
1000
AcDbSavedByObjectVersion
1070
     0
  0
VISUALSTYLE
  5
37
102
{ACAD_REACTORS
330
2A
102
}
330
2A
100
AcDbVisualStyle
  2
Thicken
 70
    13
 71
     2
 72
     2
 73
     0
 90
        0
 40
-0.6
 41
-30.0
 62
     5
 63
     7
 74
     1
 91
        4
 64
     7
 65
   257
 75
     1
175
     1
 42
1.0
 92
       12
 66
     7
 43
1.0
 76
     1
 77
     6
 78
     2
 67
     7
 79
     5
170
     0
171
     0
290
     0
174
     0
 93
        1
 44
0.0
173
     0
291
     1
 45
0.0
1001
ACAD
1000
AcDbSavedByObjectVersion
1070
     0
  0
DICTIONARYVAR
  5
5C5
102
{ACAD_REACTORS
330
5C0
102
}
330
5C0
100
DictionaryVariables
280
     0
  1
1:1
  0
DICTIONARYVAR
  5
5C4
102
{ACAD_REACTORS
330
5C0
102
}
330
5C0
100
DictionaryVariables
280
     0
  1
80.000000
  0
DICTIONARYVAR
  5
5C3
102
{ACAD_REACTORS
330
5C0
102
}
330
5C0
100
DictionaryVariables
280
     0
  1
5.000000
  0
ENDSEC
  0
EOF
