  0
SECTION
  2
HEADER
  9
$ACADVER
  1
AC1015
  9
$ACADMAINTVER
 70
     6
  9
$DWGCODEPAGE
  3
ANSI_932
  9
$INSBASE
 10
0.0
 20
0.0
 30
0.0
  9
$EXTMIN
 10
-420.0
 20
0.0
 30
0.0
  9
$EXTMAX
 10
0.0
 20
297.0
 30
0.0
  9
$LIMMIN
 10
-420.0
 20
0.0
  9
$LIMMAX
 10
0.0
 20
297.0
  9
$ORTHOMODE
 70
     0
  9
$REGENMODE
 70
     1
  9
$FILLMODE
 70
     1
  9
$QTEXTMODE
 70
     0
  9
$MIRRTEXT
 70
     1
  9
$LTSCALE
 40
1.0
  9
$ATTMODE
 70
     1
  9
$TEXTSIZE
 40
2.5
  9
$TRACEWID
 40
1.0
  9
$TEXTSTYLE
  7
Standard
  9
$CLAYER
  8
0
  9
$CELTYPE
  6
ByLayer
  9
$CECOLOR
 62
   256
  9
$CELTSCALE
 40
1.0
  9
$DISPSILH
 70
     0
  9
$DIMSCALE
 40
1.0
  9
$DIMASZ
 40
2.5
  9
$DIMEXO
 40
0.625
  9
$DIMDLI
 40
3.75
  9
$DIMRND
 40
0.0
  9
$DIMDLE
 40
0.0
  9
$DIMEXE
 40
1.25
  9
$DIMTP
 40
0.0
  9
$DIMTM
 40
0.0
  9
$DIMTXT
 40
2.5
  9
$DIMCEN
 40
2.5
  9
$DIMTSZ
 40
0.0
  9
$DIMTOL
 70
     0
  9
$DIMLIM
 70
     0
  9
$DIMTIH
 70
     0
  9
$DIMTOH
 70
     0
  9
$DIMSE1
 70
     0
  9
$DIMSE2
 70
     0
  9
$DIMTAD
 70
     1
  9
$DIMZIN
 70
     8
  9
$DIMBLK
  1

  9
$DIMASO
 70
     1
  9
$DIMSHO
 70
     1
  9
$DIMPOST
  1

  9
$DIMAPOST
  1

  9
$DIMALT
 70
     0
  9
$DIMALTD
 70
     3
  9
$DIMALTF
 40
0.03937007874016
  9
$DIMLFAC
 40
1.0
  9
$DIMTOFL
 70
     1
  9
$DIMTVP
 40
0.0
  9
$DIMTIX
 70
     0
  9
$DIMSOXD
 70
     0
  9
$DIMSAH
 70
     0
  9
$DIMBLK1
  1

  9
$DIMBLK2
  1

  9
$DIMSTYLE
  2
ISO-25
  9
$DIMCLRD
 70
     0
  9
$DIMCLRE
 70
     0
  9
$DIMCLRT
 70
     0
  9
$DIMTFAC
 40
1.0
  9
$DIMGAP
 40
0.625
  9
$DIMJUST
 70
     0
  9
$DIMSD1
 70
     0
  9
$DIMSD2
 70
     0
  9
$DIMTOLJ
 70
     0
  9
$DIMTZIN
 70
     8
  9
$DIMALTZ
 70
     0
  9
$DIMALTTZ
 70
     0
  9
$DIMUPT
 70
     0
  9
$DIMDEC
 70
     2
  9
$DIMTDEC
 70
     2
  9
$DIMALTU
 70
     2
  9
$DIMALTTD
 70
     3
  9
$DIMTXSTY
  7
Standard
  9
$DIMAUNIT
 70
     0
  9
$DIMADEC
 70
     0
  9
$DIMALTRND
 40
0.0
  9
$DIMAZIN
 70
     0
  9
$DIMDSEP
 70
    44
  9
$DIMATFIT
 70
     3
  9
$DIMFRAC
 70
     0
  9
$DIMLDRBLK
  1

  9
$DIMLUNIT
 70
     2
  9
$DIMLWD
 70
    -2
  9
$DIMLWE
 70
    -2
  9
$DIMTMOVE
 70
     0
  9
$LUNITS
 70
     2
  9
$LUPREC
 70
     4
  9
$SKETCHINC
 40
1.0
  9
$FILLETRAD
 40
10.0
  9
$AUNITS
 70
     0
  9
$AUPREC
 70
     0
  9
$MENU
  1
.
  9
$ELEVATION
 40
0.0
  9
$PELEVATION
 40
0.0
  9
$THICKNESS
 40
0.0
  9
$LIMCHECK
 70
     0
  9
$CHAMFERA
 40
10.0
  9
$CHAMFERB
 40
10.0
  9
$CHAMFERC
 40
20.0
  9
$CHAMFERD
 40
0.0
  9
$SKPOLY
 70
     0
  9
$TDCREATE
 40
2458767.828856945
  9
$TDUCREATE
 40
2458767.453856945
  9
$TDUPDATE
 40
2458767.828856956
  9
$TDUUPDATE
 40
2458767.453856956
  9
$TDINDWG
 40
0.0000000116
  9
$TDUSRTIMER
 40
0.0000000116
  9
$USRTIMER
 70
     1
  9
$ANGBASE
 50
0.0
  9
$ANGDIR
 70
     0
  9
$PDMODE
 70
     0
  9
$PDSIZE
 40
0.0
  9
$PLINEWID
 40
0.0
  9
$SPLFRAME
 70
     0
  9
$SPLINETYPE
 70
     6
  9
$SPLINESEGS
 70
     8
  9
$HANDSEED
  5
273
  9
$SURFTAB1
 70
     6
  9
$SURFTAB2
 70
     6
  9
$SURFTYPE
 70
     6
  9
$SURFU
 70
     6
  9
$SURFV
 70
     6
  9
$UCSBASE
  2

  9
$UCSNAME
  2

  9
$UCSORG
 10
0.0
 20
0.0
 30
0.0
  9
$UCSXDIR
 10
1.0
 20
0.0
 30
0.0
  9
$UCSYDIR
 10
0.0
 20
1.0
 30
0.0
  9
$UCSORTHOREF
  2

  9
$UCSORTHOVIEW
 70
     0
  9
$UCSORGTOP
 10
0.0
 20
0.0
 30
0.0
  9
$UCSORGBOTTOM
 10
0.0
 20
0.0
 30
0.0
  9
$UCSORGLEFT
 10
0.0
 20
0.0
 30
0.0
  9
$UCSORGRIGHT
 10
0.0
 20
0.0
 30
0.0
  9
$UCSORGFRONT
 10
0.0
 20
0.0
 30
0.0
  9
$UCSORGBACK
 10
0.0
 20
0.0
 30
0.0
  9
$PUCSBASE
  2

  9
$PUCSNAME
  2

  9
$PUCSORG
 10
0.0
 20
0.0
 30
0.0
  9
$PUCSXDIR
 10
1.0
 20
0.0
 30
0.0
  9
$PUCSYDIR
 10
0.0
 20
1.0
 30
0.0
  9
$PUCSORTHOREF
  2

  9
$PUCSORTHOVIEW
 70
     0
  9
$PUCSORGTOP
 10
0.0
 20
0.0
 30
0.0
  9
$PUCSORGBOTTOM
 10
0.0
 20
0.0
 30
0.0
  9
$PUCSORGLEFT
 10
0.0
 20
0.0
 30
0.0
  9
$PUCSORGRIGHT
 10
0.0
 20
0.0
 30
0.0
  9
$PUCSORGFRONT
 10
0.0
 20
0.0
 30
0.0
  9
$PUCSORGBACK
 10
0.0
 20
0.0
 30
0.0
  9
$USERI1
 70
     0
  9
$USERI2
 70
     0
  9
$USERI3
 70
     0
  9
$USERI4
 70
     0
  9
$USERI5
 70
     0
  9
$USERR1
 40
0.0
  9
$USERR2
 40
0.0
  9
$USERR3
 40
0.0
  9
$USERR4
 40
0.0
  9
$USERR5
 40
0.0
  9
$WORLDVIEW
 70
     1
  9
$SHADEDGE
 70
     3
  9
$SHADEDIF
 70
    70
  9
$TILEMODE
 70
     1
  9
$MAXACTVP
 70
    64
  9
$PINSBASE
 10
0.0
 20
0.0
 30
0.0
  9
$PLIMCHECK
 70
     0
  9
$PEXTMIN
 10
1.000000000000000E+20
 20
1.000000000000000E+20
 30
1.000000000000000E+20
  9
$PEXTMAX
 10
-1.000000000000000E+20
 20
-1.000000000000000E+20
 30
-1.000000000000000E+20
  9
$PLIMMIN
 10
-420.0
 20
0.0
  9
$PLIMMAX
 10
0.0
 20
297.0
  9
$UNITMODE
 70
     0
  9
$VISRETAIN
 70
     1
  9
$PLINEGEN
 70
     0
  9
$PSLTSCALE
 70
     1
  9
$TREEDEPTH
 70
  3020
  9
$CMLSTYLE
  2
Standard
  9
$CMLJUST
 70
     0
  9
$CMLSCALE
 40
20.0
  9
$PROXYGRAPHICS
 70
     1
  9
$MEASUREMENT
 70
     1
  9
$CELWEIGHT
370
    -1
  9
$ENDCAPS
280
     0
  9
$JOINSTYLE
280
     0
  9
$LWDISPLAY
290
     0
  9
$INSUNITS
 70
     4
  9
$HYPERLINKBASE
  1

  9
$STYLESHEET
  1

  9
$XEDIT
290
     1
  9
$CEPSNTYPE
380
     0
  9
$PSTYLEMODE
290
     1
  9
$FINGERPRINTGUID
  2
{88CCF768-945E-49FB-B4C2-64CE7ACB5240}
  9
$VERSIONGUID
  2
{FAEB1C32-E019-11D5-929B-00C0DF256EC4}
  9
$EXTNAMES
290
     1
  9
$PSVPSCALE
 40
0.0
  9
$OLESTARTUP
290
     0
  0
ENDSEC
  0
SECTION
  2
CLASSES
  0
CLASS
  1
ACDBDICTIONARYWDFLT
  2
AcDbDictionaryWithDefault
  3
ObjectDBX Classes
 90
        0
280
     0
281
     0
  0
CLASS
  1
VISUALSTYLE
  2
AcDbVisualStyle
  3
ObjectDBX Classes
 90
     4095
280
     0
281
     0
  0
CLASS
  1
SCALE
  2
AcDbScale
  3
ObjectDBX Classes
 90
     1153
280
     0
281
     0
  0
CLASS
  1
DICTIONARYVAR
  2
AcDbDictionaryVar
  3
ObjectDBX Classes
 90
        0
280
     0
281
     0
  0
CLASS
  1
ACDBPLACEHOLDER
  2
AcDbPlaceHolder
  3
ObjectDBX Classes
 90
        0
280
     0
281
     0
  0
CLASS
  1
LAYOUT
  2
AcDbLayout
  3
ObjectDBX Classes
 90
        0
280
     0
281
     0
  0
ENDSEC
  0
SECTION
  2
TABLES
  0
TABLE
  2
VPORT
  5
8
330
0
100
AcDbSymbolTable
 70
     1
  0
VPORT
  5
29
330
8
100
AcDbSymbolTableRecord
100
AcDbViewportTableRecord
  2
*Active
 70
     0
 10
0.0
 20
0.0
 11
1.0
 21
1.0
 12
344.1869158878504
 22
148.5
 13
0.0
 23
0.0
 14
10.0
 24
10.0
 15
10.0
 25
10.0
 16
0.0
 26
0.0
 36
1.0
 17
0.0
 27
0.0
 37
0.0
 40
297.0
 41
1.972972972850329
 42
50.0
 43
0.0
 44
0.0
 50
0.0
 51
0.0
 71
     0
 72
   100
 73
     1
 74
     3
 75
     0
 76
     0
 77
     0
 78
     0
281
     0
 65
     1
110
0.0
120
0.0
130
0.0
111
1.0
121
0.0
131
0.0
112
0.0
122
1.0
132
0.0
 79
     0
146
0.0
  0
ENDTAB
  0
TABLE
  2
LTYPE
  5
5
330
0
100
AcDbSymbolTable
 70
     5
  0
LTYPE
  5
14
330
5
100
AcDbSymbolTableRecord
100
AcDbLinetypeTableRecord
  2
ByBlock
 70
     0
  3

 72
    65
 73
     0
 40
0.0
  0
LTYPE
  5
15
330
5
100
AcDbSymbolTableRecord
100
AcDbLinetypeTableRecord
  2
ByLayer
 70
     0
  3

 72
    65
 73
     0
 40
0.0
  0
LTYPE
  5
16
330
5
100
AcDbSymbolTableRecord
100
AcDbLinetypeTableRecord
  2
Continuous
 70
     0
  3
Solid line
 72
    65
 73
     0
 40
0.0
  0
LTYPE
  5
3B
330
5
100
AcDbSymbolTableRecord
100
AcDbLinetypeTableRecord
  2
CONTINOUS
 70
     0
  3
______________________________
 72
    65
 73
     0
 40
0.0
  0
LTYPE
  5
3C
330
5
100
AcDbSymbolTableRecord
100
AcDbLinetypeTableRecord
  2
DASHED
 70
     0
  3
__ __ __ __ __ __ __ __ __ __ __ __ __ __ __ __
 72
    65
 73
     2
 40
4.5
 49
3.0
 74
     0
 49
-1.5
 74
     0
  0
LTYPE
  5
3D
330
5
100
AcDbSymbolTableRecord
100
AcDbLinetypeTableRecord
  2
PHANTOM
 70
     0
  3
______  __  __  ______  __  __  _____
 72
    65
 73
     6
 40
15.0
 49
7.5
 74
     0
 49
-1.5
 74
     0
 49
1.5
 74
     0
 49
-1.5
 74
     0
 49
1.5
 74
     0
 49
-1.5
 74
     0
  0
LTYPE
  5
3E
330
5
100
AcDbSymbolTableRecord
100
AcDbLinetypeTableRecord
  2
CENTER
 70
     0
  3
____ _ ____ _ ____ _ ____ _ ____ _ ____
 72
    65
 73
     4
 40
12.0
 49
7.5
 74
     0
 49
-1.5
 74
     0
 49
1.5
 74
     0
 49
-1.5
 74
     0
  0
ENDTAB
  0
TABLE
  2
LAYER
  5
2
330
0
100
AcDbSymbolTable
 70
     3
  0
LAYER
  5
10
330
2
100
AcDbSymbolTableRecord
100
AcDbLayerTableRecord
  2
0
 70
     0
 62
     7
  6
Continuous
370
    -3
390
F
  0
LAYER
  5
235
330
2
100
AcDbSymbolTableRecord
100
AcDbLayerTableRecord
  2
Defpoints
 70
     0
 62
     7
  6
Continuous
290
     0
370
    -3
390
F
  0
LAYER
  5
25F
330
2
100
AcDbSymbolTableRecord
100
AcDbLayerTableRecord
  2
AV
 70
     0
 62
     7
  6
Continuous
370
    -3
390
F
  0
ENDTAB
  0
TABLE
  2
STYLE
  5
3
330
0
100
AcDbSymbolTable
 70
     1
  0
STYLE
  5
11
330
3
100
AcDbSymbolTableRecord
100
AcDbTextStyleTableRecord
  2
Standard
 70
     0
 40
0.0
 41
1.0
 50
0.0
 71
     0
 42
2.5
  3
ROMANS
  4
BIGFONT
  0
ENDTAB
  0
TABLE
  2
VIEW
  5
6
330
0
100
AcDbSymbolTable
 70
     0
  0
ENDTAB
  0
TABLE
  2
UCS
  5
7
330
0
100
AcDbSymbolTable
 70
     0
  0
ENDTAB
  0
TABLE
  2
APPID
  5
9
330
0
100
AcDbSymbolTable
 70
     1
  0
APPID
  5
12
330
9
100
AcDbSymbolTableRecord
100
AcDbRegAppTableRecord
  2
ACAD
 70
     0
  0
ENDTAB
  0
TABLE
  2
DIMSTYLE
  5
A
330
0
100
AcDbSymbolTable
 70
     1
100
AcDbDimStyleTable
  0
DIMSTYLE
105
27
102
{ACAD_REACTORS
330
22C
330
245
330
253
102
}
330
A
100
AcDbSymbolTableRecord
100
AcDbDimStyleTableRecord
  2
ISO-25
 70
     0
 41
2.5
 42
0.625
 43
3.75
 44
1.25
 73
     0
 74
     0
 77
     1
 78
     8
140
2.5
141
2.5
143
0.03937007874016
147
0.625
171
     3
172
     1
271
     2
272
     2
274
     3
278
    44
283
     0
284
     8
340
11
  0
ENDTAB
  0
TABLE
  2
BLOCK_RECORD
  5
1
330
0
100
AcDbSymbolTable
 70
    19
  0
BLOCK_RECORD
  5
1F
330
1
100
AcDbSymbolTableRecord
100
AcDbBlockTableRecord
  2
*Model_Space
340
22
  0
BLOCK_RECORD
  5
1B
330
1
100
AcDbSymbolTableRecord
100
AcDbBlockTableRecord
  2
*Paper_Space
340
1E
  0
BLOCK_RECORD
  5
23
330
1
100
AcDbSymbolTableRecord
100
AcDbBlockTableRecord
  2
*Paper_Space0
340
26
  0
BLOCK_RECORD
  5
3F
330
1
100
AcDbSymbolTableRecord
100
AcDbBlockTableRecord
  2
VIS_ULD26R___DN0000
340
0
102
{BLKREFS
331
26B
102
}
  0
BLOCK_RECORD
  5
42
330
1
100
AcDbSymbolTableRecord
100
AcDbBlockTableRecord
  2
VIS_ULD26R___DN0001
340
0
102
{BLKREFS
331
26C
102
}
  0
BLOCK_RECORD
  5
45
330
1
100
AcDbSymbolTableRecord
100
AcDbBlockTableRecord
  2
VIS_ULD26R___DN0002
340
0
102
{BLKREFS
331
220
102
}
  0
BLOCK_RECORD
  5
48
330
1
100
AcDbSymbolTableRecord
100
AcDbBlockTableRecord
  2
VIS_ULD26R___DN0003
340
0
102
{BLKREFS
331
221
102
}
  0
BLOCK_RECORD
  5
4B
330
1
100
AcDbSymbolTableRecord
100
AcDbBlockTableRecord
  2
VIS_ULD26R___DN0004
340
0
102
{BLKREFS
331
222
102
}
  0
BLOCK_RECORD
  5
4E
330
1
100
AcDbSymbolTableRecord
100
AcDbBlockTableRecord
  2
VIS_ULD26R___DN0005
340
0
102
{BLKREFS
331
223
102
}
  0
BLOCK_RECORD
  5
51
330
1
100
AcDbSymbolTableRecord
100
AcDbBlockTableRecord
  2
VIS_ULD26R___DN0006
340
0
102
{BLKREFS
331
224
102
}
  0
BLOCK_RECORD
  5
54
330
1
100
AcDbSymbolTableRecord
100
AcDbBlockTableRecord
  2
VIS_ULD26R___DN0007
340
0
102
{BLKREFS
331
225
102
}
  0
BLOCK_RECORD
  5
57
330
1
100
AcDbSymbolTableRecord
100
AcDbBlockTableRecord
  2
VIS_ULD26R___DN0008
340
0
102
{BLKREFS
331
226
102
}
  0
BLOCK_RECORD
  5
5A
330
1
100
AcDbSymbolTableRecord
100
AcDbBlockTableRecord
  2
VIS_ULD26R___DN0009
340
0
102
{BLKREFS
331
227
102
}
  0
BLOCK_RECORD
  5
5D
330
1
100
AcDbSymbolTableRecord
100
AcDbBlockTableRecord
  2
VIS_ULD26R___DN0010
340
0
102
{BLKREFS
331
228
102
}
  0
BLOCK_RECORD
  5
60
330
1
100
AcDbSymbolTableRecord
100
AcDbBlockTableRecord
  2
VIS_ULD26R___DN0011
340
0
102
{BLKREFS
331
229
102
}
  0
BLOCK_RECORD
  5
63
330
1
100
AcDbSymbolTableRecord
100
AcDbBlockTableRecord
  2
VIS_ULD26R___DN0012
340
0
102
{BLKREFS
331
22A
102
}
  0
BLOCK_RECORD
  5
66
330
1
100
AcDbSymbolTableRecord
100
AcDbBlockTableRecord
  2
VIS_ULD26R___DN0013
340
0
102
{BLKREFS
331
22B
102
}
  0
BLOCK_RECORD
  5
22D
330
1
100
AcDbSymbolTableRecord
100
AcDbBlockTableRecord
  2
_DOT
340
0
102
{BLKREFS
331
23E
331
23D
331
24C
331
24B
331
258
331
257
102
}
  0
BLOCK_RECORD
  5
236
330
1
100
AcDbSymbolTableRecord
100
AcDbBlockTableRecord
  2
*D16
340
0
  0
BLOCK_RECORD
  5
246
330
1
100
AcDbSymbolTableRecord
100
AcDbBlockTableRecord
  2
*D17
340
0
  0
BLOCK_RECORD
  5
254
330
1
100
AcDbSymbolTableRecord
100
AcDbBlockTableRecord
  2
*D18
340
0
  0
ENDTAB
  0
ENDSEC
  0
SECTION
  2
BLOCKS
  0
BLOCK
  5
20
330
1F
100
AcDbEntity
  8
0
100
AcDbBlockBegin
  2
*Model_Space
 70
     0
 10
0.0
 20
0.0
 30
0.0
  3
*Model_Space
  1

  0
ENDBLK
  5
21
330
1F
100
AcDbEntity
  8
0
100
AcDbBlockEnd
  0
BLOCK
  5
1C
330
1B
100
AcDbEntity
 67
     1
  8
0
100
AcDbBlockBegin
  2
*Paper_Space
 70
     0
 10
0.0
 20
0.0
 30
0.0
  3
*Paper_Space
  1

  0
ENDBLK
  5
1D
330
1B
100
AcDbEntity
 67
     1
  8
0
100
AcDbBlockEnd
  0
BLOCK
  5
24
330
23
100
AcDbEntity
  8
0
100
AcDbBlockBegin
  2
*Paper_Space0
 70
     0
 10
0.0
 20
0.0
 30
0.0
  3
*Paper_Space0
  1

  0
ENDBLK
  5
25
330
23
100
AcDbEntity
  8
0
100
AcDbBlockEnd
  0
BLOCK
  5
40
330
3F
100
AcDbEntity
  8
0
100
AcDbBlockBegin
  2
VIS_ULD26R___DN0000
 70
     0
 10
0.0
 20
0.0
 30
0.0
  3
VIS_ULD26R___DN0000
  1

  0
LINE
  5
69
330
3F
100
AcDbEntity
  8
0
  6
Continuous
 62
     0
100
AcDbLine
 10
-145.5263158099998
 20
37.57017807403395
 30
0.0
 11
-144.9122718411737
 21
37.57017807403395
 31
0.0
  0
LINE
  5
6A
330
3F
100
AcDbEntity
  8
0
  6
Continuous
 62
     0
100
AcDbLine
 10
-144.2140351159998
 20
36.60526579903396
 30
0.0
 11
-144.2140351159998
 21
36.41228334403397
 31
0.0
  0
LINE
  5
6B
330
3F
100
AcDbEntity
  8
0
  6
Continuous
 62
     0
100
AcDbLine
 10
-144.5614035350001
 20
34.09649388403395
 30
0.0
 11
-144.5614035350001
 21
33.51754651903397
 31
0.0
  0
LINE
  5
6C
330
3F
100
AcDbEntity
  8
0
  6
Continuous
 62
     0
100
AcDbLine
 10
-145.5263158099999
 20
37.57017807403392
 30
0.0
 11
-145.5263158099999
 21
34.40526581203395
 31
0.0
  0
LINE
  5
6D
330
3F
100
AcDbEntity
  8
0
  6
Continuous
 62
     0
100
AcDbLine
 10
-143.5964912599999
 20
38.14912543903395
 30
0.0
 11
-143.5964912599999
 21
36.41228334403397
 31
0.0
  0
LINE
  5
6E
330
3F
100
AcDbEntity
  8
0
  6
Continuous
 62
     0
100
AcDbLine
 10
-144.5614035350001
 20
34.09649388403398
 30
0.0
 11
-145.2175438820001
 21
34.09649388403398
 31
0.0
  0
LINE
  5
6F
330
3F
100
AcDbEntity
  8
0
  6
Continuous
 62
     0
100
AcDbLine
 10
-143.5964912599999
 20
36.41228334403399
 30
0.0
 11
-144.2140351159998
 21
36.41228334403399
 31
0.0
  0
LINE
  5
70
330
3F
100
AcDbEntity
  8
0
  6
Continuous
 62
     0
100
AcDbLine
 10
-147.2982545088263
 20
37.57017807403395
 30
0.0
 11
-146.6842105399998
 21
37.57017807403395
 31
0.0
  0
LINE
  5
71
330
3F
100
AcDbEntity
  8
0
  6
Continuous
 62
     0
100
AcDbLine
 10
-147.6491228149999
 20
34.09649388403398
 30
0.0
 11
-146.9929824679999
 21
34.09649388403398
 31
0.0
  0
LINE
  5
72
330
3F
100
AcDbEntity
  8
0
  6
Continuous
 62
     0
100
AcDbLine
 10
-146.6842105399998
 20
37.57017807403392
 30
0.0
 11
-146.6842105399998
 21
34.40526581203395
 31
0.0
  0
LINE
  5
73
330
3F
100
AcDbEntity
  8
0
  6
Continuous
 62
     0
100
AcDbLine
 10
-147.6491228149999
 20
33.517546519034
 30
0.0
 11
-144.5614035350001
 21
33.517546519034
 31
0.0
  0
LINE
  5
74
330
3F
100
AcDbEntity
  8
0
  6
Continuous
 62
     0
100
AcDbLine
 10
-148.6140350900001
 20
38.14912543903404
 30
0.0
 11
-143.5964912599999
 21
38.14912543903404
 31
0.0
  0
LINE
  5
75
330
3F
100
AcDbEntity
  8
0
  6
Continuous
 62
     0
100
AcDbLine
 10
-147.9964912339998
 20
36.60526579903396
 30
0.0
 11
-147.9964912339998
 21
36.41228334403397
 31
0.0
  0
LINE
  5
76
330
3F
100
AcDbEntity
  8
0
  6
Continuous
 62
     0
100
AcDbLine
 10
-148.6140350899997
 20
38.14912543903395
 30
0.0
 11
-148.6140350899997
 21
36.41228334403397
 31
0.0
  0
LINE
  5
77
330
3F
100
AcDbEntity
  8
0
  6
Continuous
 62
     0
100
AcDbLine
 10
-147.649122815
 20
34.09649388403395
 30
0.0
 11
-147.649122815
 21
33.51754651903397
 31
0.0
  0
LINE
  5
78
330
3F
100
AcDbEntity
  8
0
  6
Continuous
 62
     0
100
AcDbLine
 10
-148.6140350900001
 20
36.41228334403399
 30
0.0
 11
-147.9964912339998
 21
36.41228334403399
 31
0.0
  0
LINE
  5
79
330
3F
100
AcDbEntity
  8
0
  6
Continuous
 62
     0
100
AcDbLine
 10
-156.7192981999998
 20
37.57017807403395
 30
0.0
 11
-156.1052542311737
 21
37.57017807403395
 31
0.0
  0
LINE
  5
7A
330
3F
100
AcDbEntity
  8
0
  6
Continuous
 62
     0
100
AcDbLine
 10
-155.4070175059998
 20
36.60526579903396
 30
0.0
 11
-155.4070175059998
 21
36.41228334403397
 31
0.0
  0
LINE
  5
7B
330
3F
100
AcDbEntity
  8
0
  6
Continuous
 62
     0
100
AcDbLine
 10
-155.7543859250001
 20
34.09649388403395
 30
0.0
 11
-155.7543859250001
 21
33.51754651903397
 31
0.0
  0
LINE
  5
7C
330
3F
100
AcDbEntity
  8
0
  6
Continuous
 62
     0
100
AcDbLine
 10
-156.7192981999999
 20
37.57017807403392
 30
0.0
 11
-156.7192981999999
 21
34.40526581203395
 31
0.0
  0
LINE
  5
7D
330
3F
100
AcDbEntity
  8
0
  6
Continuous
 62
     0
100
AcDbLine
 10
-154.7894736499999
 20
38.14912543903395
 30
0.0
 11
-154.7894736499999
 21
36.41228334403397
 31
0.0
  0
LINE
  5
7E
330
3F
100
AcDbEntity
  8
0
  6
Continuous
 62
     0
100
AcDbLine
 10
-155.7543859250001
 20
34.09649388403398
 30
0.0
 11
-156.4105262720001
 21
34.09649388403398
 31
0.0
  0
LINE
  5
7F
330
3F
100
AcDbEntity
  8
0
  6
Continuous
 62
     0
100
AcDbLine
 10
-154.7894736499999
 20
36.41228334403399
 30
0.0
 11
-155.4070175059998
 21
36.41228334403399
 31
0.0
  0
LINE
  5
80
330
3F
100
AcDbEntity
  8
0
  6
Continuous
 62
     0
100
AcDbLine
 10
-158.4912368988263
 20
37.57017807403395
 30
0.0
 11
-157.8771929299998
 21
37.57017807403395
 31
0.0
  0
LINE
  5
81
330
3F
100
AcDbEntity
  8
0
  6
Continuous
 62
     0
100
AcDbLine
 10
-158.8421052049999
 20
34.09649388403398
 30
0.0
 11
-158.1859648579999
 21
34.09649388403398
 31
0.0
  0
LINE
  5
82
330
3F
100
AcDbEntity
  8
0
  6
Continuous
 62
     0
100
AcDbLine
 10
-157.8771929299998
 20
37.57017807403392
 30
0.0
 11
-157.8771929299998
 21
34.40526581203395
 31
0.0
  0
LINE
  5
83
330
3F
100
AcDbEntity
  8
0
  6
Continuous
 62
     0
100
AcDbLine
 10
-158.8421052049999
 20
33.517546519034
 30
0.0
 11
-155.7543859250001
 21
33.517546519034
 31
0.0
  0
LINE
  5
84
330
3F
100
AcDbEntity
  8
0
  6
Continuous
 62
     0
100
AcDbLine
 10
-159.8070174800001
 20
38.14912543903404
 30
0.0
 11
-154.7894736499999
 21
38.14912543903404
 31
0.0
  0
LINE
  5
85
330
3F
100
AcDbEntity
  8
0
  6
Continuous
 62
     0
100
AcDbLine
 10
-159.1894736239998
 20
36.60526579903396
 30
0.0
 11
-159.1894736239998
 21
36.41228334403397
 31
0.0
  0
LINE
  5
86
330
3F
100
AcDbEntity
  8
0
  6
Continuous
 62
     0
100
AcDbLine
 10
-159.8070174799997
 20
38.14912543903395
 30
0.0
 11
-159.8070174799997
 21
36.41228334403397
 31
0.0
  0
LINE
  5
87
330
3F
100
AcDbEntity
  8
0
  6
Continuous
 62
     0
100
AcDbLine
 10
-158.842105205
 20
34.09649388403395
 30
0.0
 11
-158.842105205
 21
33.51754651903397
 31
0.0
  0
LINE
  5
88
330
3F
100
AcDbEntity
  8
0
  6
Continuous
 62
     0
100
AcDbLine
 10
-159.8070174800001
 20
36.41228334403399
 30
0.0
 11
-159.1894736239998
 21
36.41228334403399
 31
0.0
  0
ARC
  5
89
330
3F
100
AcDbEntity
  8
0
  6
Continuous
 62
     0
100
AcDbCircle
 10
-140.4122807524997
 20
35.32000264873398
 30
0.0
 40
1.428070167
100
AcDbArc
 50
192.0827302854394
 51
233.9554528511133
  0
ARC
  5
8A
330
3F
100
AcDbEntity
  8
0
  6
Continuous
 62
     0
100
AcDbCircle
 10
-140.6052632074999
 20
35.32000264873398
 30
0.0
 40
1.428070167
100
AcDbArc
 50
306.0445471488867
 51
347.9172697145606
  0
ARC
  5
8B
330
3F
100
AcDbEntity
  8
0
  6
Continuous
 62
     0
100
AcDbCircle
 10
-140.1035088245
 20
35.69052896233404
 30
0.0
 40
2.2964912145
100
AcDbArc
 50
288.7954866020262
 51
350.1090987889145
  0
ARC
  5
8C
330
3F
100
AcDbEntity
  8
0
  6
Continuous
 62
     0
100
AcDbCircle
 10
-142.3421053025001
 20
35.77544124253404
 30
0.0
 40
3.2228069985
100
AcDbArc
 50
346.4630945364886
 51
1.029320866956506
  0
ARC
  5
8D
330
3F
100
AcDbEntity
  8
0
  6
Continuous
 62
     0
100
AcDbCircle
 10
-138.6754386575
 20
35.89123071553399
 30
0.0
 40
3.2228069985
100
AcDbArc
 50
164.150078722529
 51
181.0293208669565
  0
ARC
  5
8E
330
3F
100
AcDbEntity
  8
0
  6
Continuous
 62
     0
100
AcDbCircle
 10
-138.6754386575
 20
35.77544124253404
 30
0.0
 40
3.2228069985
100
AcDbArc
 50
178.9706791330434
 51
193.5369054635114
  0
ARC
  5
8F
330
3F
100
AcDbEntity
  8
0
  6
Continuous
 62
     0
100
AcDbCircle
 10
-140.5087719800001
 20
36.37368685303397
 30
0.0
 40
1.350877185
100
AcDbArc
 50
56.59118530601407
 51
123.4088146939859
  0
ARC
  5
90
330
3F
100
AcDbEntity
  8
0
  6
Continuous
 62
     0
100
AcDbCircle
 10
-140.9140351355001
 20
35.69052896233404
 30
0.0
 40
2.2964912145
100
AcDbArc
 50
189.8909012110854
 51
251.2045133979737
  0
ARC
  5
91
330
3F
100
AcDbEntity
  8
0
  6
Continuous
 62
     0
100
AcDbCircle
 10
-140.4122807524997
 20
36.34666930933406
 30
0.0
 40
1.428070167
100
AcDbArc
 50
126.0445471488867
 51
162.6959035444569
  0
ARC
  5
92
330
3F
100
AcDbEntity
  8
0
  6
Continuous
 62
     0
100
AcDbCircle
 10
-142.05263162
 20
35.83333597903402
 30
0.0
 40
4.245614010000001
100
AcDbArc
 50
352.7297389265646
 51
7.270261073435491
  0
ARC
  5
93
330
3F
100
AcDbEntity
  8
0
  6
Continuous
 62
     0
100
AcDbCircle
 10
-140.9140351355001
 20
35.97614299573399
 30
0.0
 40
2.2964912145
100
AcDbArc
 50
108.7954866020263
 51
170.1090987889146
  0
ARC
  5
94
330
3F
100
AcDbEntity
  8
0
  6
Continuous
 62
     0
100
AcDbCircle
 10
-140.1035088245
 20
35.97614299573399
 30
0.0
 40
2.2964912145
100
AcDbArc
 50
9.890901211085497
 51
71.20451339797377
  0
ARC
  5
95
330
3F
100
AcDbEntity
  8
0
  6
Continuous
 62
     0
100
AcDbCircle
 10
-140.6052632074999
 20
36.34666930933406
 30
0.0
 40
1.428070167
100
AcDbArc
 50
17.30409645554312
 51
53.95545285111331
  0
ARC
  5
96
330
3F
100
AcDbEntity
  8
0
  6
Continuous
 62
     0
100
AcDbCircle
 10
-138.9649123400001
 20
35.83333597903402
 30
0.0
 40
4.245614010000001
100
AcDbArc
 50
172.7297389265646
 51
187.2702610734354
  0
ARC
  5
97
330
3F
100
AcDbEntity
  8
0
  6
Continuous
 62
     0
100
AcDbCircle
 10
-140.5087719800001
 20
34.82982721303404
 30
0.0
 40
3.512280681
100
AcDbArc
 50
70.08847837174153
 51
109.9115216282585
  0
ARC
  5
98
330
3F
100
AcDbEntity
  8
0
  6
Continuous
 62
     0
100
AcDbCircle
 10
-140.5087719800001
 20
36.836844745034
 30
0.0
 40
3.512280681
100
AcDbArc
 50
250.0884783717415
 51
289.9115216282585
  0
ARC
  5
99
330
3F
100
AcDbEntity
  8
0
  6
Continuous
 62
     0
100
AcDbCircle
 10
-142.3421053025001
 20
35.89123071553399
 30
0.0
 40
3.2228069985
100
AcDbArc
 50
358.9706791330435
 51
15.84992127747103
  0
ARC
  5
9A
330
3F
100
AcDbEntity
  8
0
  6
Continuous
 62
     0
100
AcDbCircle
 10
-140.5087719800001
 20
35.29298510503395
 30
0.0
 40
1.350877185
100
AcDbArc
 50
236.5911853060141
 51
303.408814693986
  0
ARC
  5
9B
330
3F
100
AcDbEntity
  8
0
  6
Continuous
 62
     0
100
AcDbCircle
 10
-145.5842105465001
 20
36.60526579903399
 30
0.0
 40
1.3701754305
100
AcDbArc
 50
0.000000000000051
 51
15.47863944165359
  0
ARC
  5
9C
330
3F
100
AcDbEntity
  8
0
  6
Continuous
 62
     0
100
AcDbCircle
 10
-145.0824561635001
 20
36.74421316663404
 30
0.0
 40
0.8495375219467715
100
AcDbArc
 50
15.47863610704422
 51
66.2505055071333
  0
ARC
  5
9D
330
3F
100
AcDbEntity
  8
0
  6
Continuous
 62
     0
100
AcDbCircle
 10
-144.9975438833
 20
36.93719562163403
 30
0.0
 40
0.6387003258295056
100
AcDbArc
 50
66.2505055071333
 51
82.32760665635566
  0
ARC
  5
9E
330
3F
100
AcDbEntity
  8
0
  6
Continuous
 62
     0
100
AcDbCircle
 10
-145.2175438820001
 20
34.40526581203403
 30
0.0
 40
0.308771928
100
AcDbArc
 50
180.0000000000001
 51
270.0000000000001
  0
ARC
  5
9F
330
3F
100
AcDbEntity
  8
0
  6
Continuous
 62
     0
100
AcDbCircle
 10
-146.6263158035001
 20
36.60526579903399
 30
0.0
 40
1.3701754305
100
AcDbArc
 50
164.5213605583465
 51
180.0
  0
ARC
  5
A0
330
3F
100
AcDbEntity
  8
0
  6
Continuous
 62
     0
100
AcDbCircle
 10
-147.1280701865
 20
36.74421316663404
 30
0.0
 40
0.8495375219467715
100
AcDbArc
 50
113.7494944928667
 51
164.5213638929558
  0
ARC
  5
A1
330
3F
100
AcDbEntity
  8
0
  6
Continuous
 62
     0
100
AcDbCircle
 10
-147.2129824667001
 20
36.93719562163403
 30
0.0
 40
0.6387003258295056
100
AcDbArc
 50
97.6723933436444
 51
113.7494944928667
  0
ARC
  5
A2
330
3F
100
AcDbEntity
  8
0
  6
Continuous
 62
     0
100
AcDbCircle
 10
-146.992982468
 20
34.40526581203403
 30
0.0
 40
0.308771928
100
AcDbArc
 50
270.0
 51
0.0
  0
ARC
  5
A3
330
3F
100
AcDbEntity
  8
0
  6
Continuous
 62
     0
100
AcDbCircle
 10
-151.6052631425002
 20
35.32000264873398
 30
0.0
 40
1.428070167
100
AcDbArc
 50
192.0827302854394
 51
233.9554528511133
  0
ARC
  5
A4
330
3F
100
AcDbEntity
  8
0
  6
Continuous
 62
     0
100
AcDbCircle
 10
-151.7982455974999
 20
35.32000264873398
 30
0.0
 40
1.428070167
100
AcDbArc
 50
306.0445471488867
 51
347.9172697145606
  0
ARC
  5
A5
330
3F
100
AcDbEntity
  8
0
  6
Continuous
 62
     0
100
AcDbCircle
 10
-151.2964912145
 20
35.69052896233404
 30
0.0
 40
2.2964912145
100
AcDbArc
 50
288.7954866020262
 51
350.1090987889145
  0
ARC
  5
A6
330
3F
100
AcDbEntity
  8
0
  6
Continuous
 62
     0
100
AcDbCircle
 10
-153.5350876925001
 20
35.77544124253404
 30
0.0
 40
3.2228069985
100
AcDbArc
 50
346.4630945364886
 51
1.029320866956506
  0
ARC
  5
A7
330
3F
100
AcDbEntity
  8
0
  6
Continuous
 62
     0
100
AcDbCircle
 10
-149.8684210475
 20
35.89123071553399
 30
0.0
 40
3.2228069985
100
AcDbArc
 50
164.150078722529
 51
181.0293208669565
  0
ARC
  5
A8
330
3F
100
AcDbEntity
  8
0
  6
Continuous
 62
     0
100
AcDbCircle
 10
-149.8684210475
 20
35.77544124253404
 30
0.0
 40
3.2228069985
100
AcDbArc
 50
178.9706791330434
 51
193.5369054635114
  0
ARC
  5
A9
330
3F
100
AcDbEntity
  8
0
  6
Continuous
 62
     0
100
AcDbCircle
 10
-151.7017543700001
 20
36.37368685303397
 30
0.0
 40
1.350877185
100
AcDbArc
 50
56.59118530601407
 51
123.4088146939859
  0
ARC
  5
AA
330
3F
100
AcDbEntity
  8
0
  6
Continuous
 62
     0
100
AcDbCircle
 10
-152.1070175255001
 20
35.69052896233404
 30
0.0
 40
2.2964912145
100
AcDbArc
 50
189.8909012110854
 51
251.2045133979737
  0
ARC
  5
AB
330
3F
100
AcDbEntity
  8
0
  6
Continuous
 62
     0
100
AcDbCircle
 10
-151.6052631425002
 20
36.34666930933406
 30
0.0
 40
1.428070167
100
AcDbArc
 50
126.0445471488867
 51
162.6959035444569
  0
ARC
  5
AC
330
3F
100
AcDbEntity
  8
0
  6
Continuous
 62
     0
100
AcDbCircle
 10
-153.24561401
 20
35.83333597903402
 30
0.0
 40
4.245614010000001
100
AcDbArc
 50
352.7297389265646
 51
7.270261073435491
  0
ARC
  5
AD
330
3F
100
AcDbEntity
  8
0
  6
Continuous
 62
     0
100
AcDbCircle
 10
-152.1070175255001
 20
35.97614299573399
 30
0.0
 40
2.2964912145
100
AcDbArc
 50
108.7954866020263
 51
170.1090987889146
  0
ARC
  5
AE
330
3F
100
AcDbEntity
  8
0
  6
Continuous
 62
     0
100
AcDbCircle
 10
-151.2964912145
 20
35.97614299573399
 30
0.0
 40
2.2964912145
100
AcDbArc
 50
9.890901211085497
 51
71.20451339797377
  0
ARC
  5
AF
330
3F
100
AcDbEntity
  8
0
  6
Continuous
 62
     0
100
AcDbCircle
 10
-151.7982455974999
 20
36.34666930933406
 30
0.0
 40
1.428070167
100
AcDbArc
 50
17.30409645554312
 51
53.95545285111331
  0
ARC
  5
B0
330
3F
100
AcDbEntity
  8
0
  6
Continuous
 62
     0
100
AcDbCircle
 10
-150.1578947300001
 20
35.83333597903402
 30
0.0
 40
4.245614010000001
100
AcDbArc
 50
172.7297389265646
 51
187.2702610734354
  0
ARC
  5
B1
330
3F
100
AcDbEntity
  8
0
  6
Continuous
 62
     0
100
AcDbCircle
 10
-151.7017543700001
 20
34.82982721303404
 30
0.0
 40
3.512280681
100
AcDbArc
 50
70.08847837174153
 51
109.9115216282585
  0
ARC
  5
B2
330
3F
100
AcDbEntity
  8
0
  6
Continuous
 62
     0
100
AcDbCircle
 10
-151.7017543700001
 20
36.836844745034
 30
0.0
 40
3.512280681
100
AcDbArc
 50
250.0884783717415
 51
289.9115216282585
  0
ARC
  5
B3
330
3F
100
AcDbEntity
  8
0
  6
Continuous
 62
     0
100
AcDbCircle
 10
-153.5350876925001
 20
35.89123071553399
 30
0.0
 40
3.2228069985
100
AcDbArc
 50
358.9706791330435
 51
15.84992127747103
  0
ARC
  5
B4
330
3F
100
AcDbEntity
  8
0
  6
Continuous
 62
     0
100
AcDbCircle
 10
-151.7017543700001
 20
35.29298510503395
 30
0.0
 40
1.350877185
100
AcDbArc
 50
236.5911853060141
 51
303.408814693986
  0
ARC
  5
B5
330
3F
100
AcDbEntity
  8
0
  6
Continuous
 62
     0
100
AcDbCircle
 10
-156.7771929365001
 20
36.60526579903399
 30
0.0
 40
1.3701754305
100
AcDbArc
 50
0.000000000000051
 51
15.47863944165359
  0
ARC
  5
B6
330
3F
100
AcDbEntity
  8
0
  6
Continuous
 62
     0
100
AcDbCircle
 10
-156.2754385535001
 20
36.74421316663404
 30
0.0
 40
0.8495375219467715
100
AcDbArc
 50
15.47863610704422
 51
66.2505055071333
  0
ARC
  5
B7
330
3F
100
AcDbEntity
  8
0
  6
Continuous
 62
     0
100
AcDbCircle
 10
-156.1905262733
 20
36.93719562163403
 30
0.0
 40
0.6387003258295056
100
AcDbArc
 50
66.2505055071333
 51
82.32760665635566
  0
ARC
  5
B8
330
3F
100
AcDbEntity
  8
0
  6
Continuous
 62
     0
100
AcDbCircle
 10
-156.4105262720001
 20
34.40526581203403
 30
0.0
 40
0.308771928
100
AcDbArc
 50
180.0000000000001
 51
270.0000000000001
  0
ARC
  5
B9
330
3F
100
AcDbEntity
  8
0
  6
Continuous
 62
     0
100
AcDbCircle
 10
-157.8192981935001
 20
36.60526579903399
 30
0.0
 40
1.3701754305
100
AcDbArc
 50
164.5213605583465
 51
180.0
  0
ARC
  5
BA
330
3F
100
AcDbEntity
  8
0
  6
Continuous
 62
     0
100
AcDbCircle
 10
-158.3210525765
 20
36.74421316663404
 30
0.0
 40
0.8495375219467715
100
AcDbArc
 50
113.7494944928667
 51
164.5213638929558
  0
ARC
  5
BB
330
3F
100
AcDbEntity
  8
0
  6
Continuous
 62
     0
100
AcDbCircle
 10
-158.4059648567001
 20
36.93719562163403
 30
0.0
 40
0.6387003258295056
100
AcDbArc
 50
97.6723933436444
 51
113.7494944928667
  0
ARC
  5
BC
330
3F
100
AcDbEntity
  8
0
  6
Continuous
 62
     0
100
AcDbCircle
 10
-158.185964858
 20
34.40526581203403
 30
0.0
 40
0.308771928
100
AcDbArc
 50
270.0
 51
0.0
  0
HATCH
  5
BD
330
3F
100
AcDbEntity
  8
0
 62
     0
100
AcDbHatch
 10
0.0
 20
0.0
 30
0.0
210
0.0
220
0.0
230
1.0
  2
SOLID
 70
     1
 71
     0
 91
        1
 92
        3
 72
     1
 73
     1
 93
       24
 10
-159.8070174799997
 20
38.14912543903395
 42
0.0
 10
-159.8070174799997
 20
36.41228334403399
 42
0.0
 10
-159.1894736239998
 20
36.41228334403397
 42
0.0
 10
-159.1894736239998
 20
36.60526503064828
 42
-0.0676413187077701
 10
-159.1397773911111
 20
36.97093696144946
 42
-0.2252307504847608
 10
-158.6631941408562
 20
37.52180763107899
 42
-0.0702648821362087
 10
-158.4912368988265
 20
37.57017807403395
 42
0.0
 10
-157.8771929299998
 20
37.57017807403392
 42
0.0
 10
-157.87719293
 20
34.40526581203403
 42
-0.4142135890519601
 10
-158.1859648861251
 20
34.09649388403398
 42
0.0
 10
-158.842105205
 20
34.09649388403395
 42
0.0
 10
-158.8421052049999
 20
33.517546519034
 42
0.0
 10
-155.7543859250001
 20
33.51754651903397
 42
0.0
 10
-155.7543859250001
 20
34.09649388403398
 42
0.0
 10
-156.4105262438749
 20
34.09649388403403
 42
-0.4142139873442889
 10
-156.7192981999999
 20
34.405266231919
 42
0.0
 10
-156.7192981999998
 20
37.57017807403395
 42
0.0
 10
-156.1052542311735
 20
37.57017807403402
 42
-0.0702648821362087
 10
-155.933296989144
 20
37.52180763107896
 42
-0.2252307504847608
 10
-155.456713738889
 20
36.97093696144942
 42
-0.0676411778678971
 10
-155.4070175059998
 20
36.60526579903396
 42
0.0
 10
-155.4070175059998
 20
36.41228334403399
 42
0.0
 10
-154.7894736499999
 20
36.41228334403397
 42
0.0
 10
-154.7894736499999
 20
38.14912543903404
 42
0.0
 97
        0
 75
     0
 76
     1
 98
        0
  0
HATCH
  5
BE
330
3F
100
AcDbEntity
  8
0
 62
     0
100
AcDbHatch
 10
0.0
 20
0.0
 30
0.0
210
0.0
220
0.0
230
1.0
  2
SOLID
 70
     1
 71
     0
 91
        2
 92
        3
 72
     1
 73
     1
 93
       10
 10
-153.0016963773777
 20
35.0210735226776
 42
0.1847646747456769
 10
-152.4455597370917
 20
34.16532259131845
 42
0.3000982261761373
 10
-150.9579490029083
 20
34.16532259131847
 42
0.1847646747456769
 10
-150.4018123626225
 20
35.02107352267767
 42
0.0636428707226487
 10
-150.3128007485632
 20
35.83333597903399
 42
0.0737830421103821
 10
-150.4348105492269
 20
36.77143897752607
 42
0.1612991339525331
 10
-150.9579490029084
 20
37.50134936674947
 42
0.3000982261761372
 10
-152.4455597370918
 20
37.50134936674957
 42
0.1612991339525331
 10
-152.9686981907731
 20
36.77143897752601
 42
0.073783042110382
 10
-153.0907079914369
 20
35.83333597903405
 42
0.0636428707226491
 97
        0
 92
        3
 72
     1
 73
     1
 93
        8
 10
-152.8724798829412
 20
38.14130794963854
 42
0.2709388272086841
 10
-154.3693751109069
 20
36.37061739798095
 42
0.063530261590154
 10
-154.3693751109069
 20
35.29605456008711
 42
0.2709388272086841
 10
-152.8724615049099
 20
33.52541599200353
 42
0.1715646227653607
 10
-150.5310288570589
 20
33.5253640084295
 42
0.270938827208684
 10
-149.0341336290932
 20
35.29605456008709
 42
0.063530261590154
 10
-149.0341336290932
 20
36.37061739798092
 42
0.2709388272086841
 10
-150.5310472350902
 20
38.14125596606451
 42
0.1715646227653607
 97
        0
 75
     0
 76
     1
 98
        0
  0
HATCH
  5
BF
330
3F
100
AcDbEntity
  8
0
 62
     0
100
AcDbHatch
 10
0.0
 20
0.0
 30
0.0
210
0.0
220
0.0
230
1.0
  2
SOLID
 70
     1
 71
     0
 91
        1
 92
        3
 72
     1
 73
     1
 93
       24
 10
-148.6140350899997
 20
38.14912543903395
 42
0.0
 10
-148.6140350899997
 20
36.41228334403399
 42
0.0
 10
-147.9964912339998
 20
36.41228334403397
 42
0.0
 10
-147.9964912339998
 20
36.60526503064828
 42
-0.0676413187077701
 10
-147.9467950011111
 20
36.97093696144946
 42
-0.2252307504847608
 10
-147.4702117508562
 20
37.52180763107899
 42
-0.0702648821362087
 10
-147.2982545088265
 20
37.57017807403395
 42
0.0
 10
-146.6842105399998
 20
37.57017807403392
 42
0.0
 10
-146.68421054
 20
34.40526581203403
 42
-0.4142135890519601
 10
-146.9929824961251
 20
34.09649388403398
 42
0.0
 10
-147.649122815
 20
34.09649388403395
 42
0.0
 10
-147.6491228149999
 20
33.517546519034
 42
0.0
 10
-144.5614035350001
 20
33.51754651903397
 42
0.0
 10
-144.5614035350001
 20
34.09649388403398
 42
0.0
 10
-145.2175438538749
 20
34.09649388403403
 42
-0.4142139873442889
 10
-145.5263158099999
 20
34.405266231919
 42
0.0
 10
-145.5263158099998
 20
37.57017807403395
 42
0.0
 10
-144.9122718411735
 20
37.57017807403402
 42
-0.0702648821362087
 10
-144.740314599144
 20
37.52180763107896
 42
-0.2252307504847608
 10
-144.263731348889
 20
36.97093696144942
 42
-0.0676411778678971
 10
-144.2140351159998
 20
36.60526579903396
 42
0.0
 10
-144.2140351159998
 20
36.41228334403399
 42
0.0
 10
-143.5964912599999
 20
36.41228334403397
 42
0.0
 10
-143.5964912599999
 20
38.14912543903404
 42
0.0
 97
        0
 75
     0
 76
     1
 98
        0
  0
HATCH
  5
C0
330
3F
100
AcDbEntity
  8
0
 62
     0
100
AcDbHatch
 10
0.0
 20
0.0
 30
0.0
210
0.0
220
0.0
230
1.0
  2
SOLID
 70
     1
 71
     0
 91
        2
 92
        3
 72
     1
 73
     1
 93
       10
 10
-141.8087139873773
 20
35.0210735226776
 42
0.1847646747456769
 10
-141.2525773470917
 20
34.16532259131845
 42
0.3000982261761373
 10
-139.7649666129083
 20
34.16532259131847
 42
0.1847646747456769
 10
-139.2088299726225
 20
35.02107352267767
 42
0.0636428707226487
 10
-139.1198183585632
 20
35.83333597903399
 42
0.0737830421103821
 10
-139.2418281592269
 20
36.77143897752607
 42
0.1612991339525331
 10
-139.7649666129084
 20
37.50134936674947
 42
0.3000982261761372
 10
-141.2525773470914
 20
37.50134936674957
 42
0.1612991339525331
 10
-141.7757158007731
 20
36.77143897752601
 42
0.073783042110382
 10
-141.8977256014369
 20
35.83333597903405
 42
0.0636428707226491
 97
        0
 92
        3
 72
     1
 73
     1
 93
        8
 10
-137.8411512390932
 20
35.29605456008709
 42
0.063530261590154
 10
-137.8411512390932
 20
36.37061739798092
 42
0.2709388272086841
 10
-139.3380648450902
 20
38.14125596606451
 42
0.1715646227653607
 10
-141.6794974929412
 20
38.14130794963854
 42
0.2709388272086841
 10
-143.1763927209069
 20
36.37061739798095
 42
0.063530261590154
 10
-143.1763927209069
 20
35.29605456008711
 42
0.2709388272086841
 10
-141.6794791149099
 20
33.52541599200353
 42
0.1715646227653607
 10
-139.3380464670589
 20
33.5253640084295
 42
0.270938827208684
 97
        0
 75
     0
 76
     1
 98
        0
  0
ENDBLK
  5
41
330
3F
100
AcDbEntity
  8
0
100
AcDbBlockEnd
  0
BLOCK
  5
43
330
42
100
AcDbEntity
  8
0
100
AcDbBlockBegin
  2
VIS_ULD26R___DN0001
 70
     0
 10
0.0
 20
0.0
 30
0.0
  3
VIS_ULD26R___DN0001
  1

  0
LINE
  5
C1
330
42
100
AcDbEntity
  8
0
  6
Continuous
 62
     0
370
    50
100
AcDbLine
 10
-395.0
 20
287.0000001025692
 30
0.0
 11
-395.0
 21
9.999999148894858
 31
0.0
  0
LINE
  5
C2
330
42
100
AcDbEntity
  8
0
  6
Continuous
 62
     0
370
    50
100
AcDbLine
 10
-10.0
 20
9.999999148894858
 30
0.0
 11
-10.0
 21
287.0000001025692
 31
0.0
  0
LINE
  5
C3
330
42
100
AcDbEntity
  8
0
  6
Continuous
 62
     0
370
    50
100
AcDbLine
 10
-395.0
 20
9.999999148894858
 30
0.0
 11
-10.0
 21
9.999999148894858
 31
0.0
  0
LINE
  5
C4
330
42
100
AcDbEntity
  8
0
  6
Continuous
 62
     0
370
    50
100
AcDbLine
 10
-169.0
 20
41.00000010256917
 30
0.0
 11
-10.0
 21
41.00000010256917
 31
0.0
  0
LINE
  5
C5
330
42
100
AcDbEntity
  8
0
  6
Continuous
 62
     0
370
    50
100
AcDbLine
 10
-169.0
 20
9.999999148894858
 30
0.0
 11
-169.0
 21
41.00000010256917
 31
0.0
  0
LINE
  5
C6
330
42
100
AcDbEntity
  8
0
  6
Continuous
 62
     0
370
    50
100
AcDbLine
 10
-395.0
 20
287.0000001025692
 30
0.0
 11
-10.0
 21
287.0000001025692
 31
0.0
  0
LINE
  5
C7
330
42
100
AcDbEntity
  8
0
  6
Continuous
 62
     0
100
AcDbLine
 10
-10.0
 20
20.33332834963949
 30
0.0
 11
-169.0
 21
20.33332834963949
 31
0.0
  0
LINE
  5
C8
330
42
100
AcDbEntity
  8
0
  6
Continuous
 62
     0
100
AcDbLine
 10
-95.0
 20
9.999999148894858
 30
0.0
 11
-95.0
 21
41.00000010256917
 31
0.0
  0
LINE
  5
C9
330
42
100
AcDbEntity
  8
0
  6
Continuous
 62
     0
100
AcDbLine
 10
-112.0
 20
20.33332834963949
 30
0.0
 11
-112.0
 21
41.00000010256917
 31
0.0
  0
LINE
  5
CA
330
42
100
AcDbEntity
  8
0
  6
Continuous
 62
     0
100
AcDbLine
 10
-129.0
 20
20.33332834963949
 30
0.0
 11
-129.0
 21
41.00000010256917
 31
0.0
  0
LINE
  5
CB
330
42
100
AcDbEntity
  8
0
  6
Continuous
 62
     0
100
AcDbLine
 10
-10.0
 20
30.66667185549886
 30
0.0
 11
-169.0
 21
30.66667185549886
 31
0.0
  0
LINE
  5
CC
330
42
100
AcDbEntity
  8
0
  6
Continuous
 62
     0
100
AcDbLine
 10
-152.0
 20
20.33332834963949
 30
0.0
 11
-152.0
 21
30.66667185549886
 31
0.0
  0
MTEXT
  5
CD
330
42
100
AcDbEntity
  8
0
 62
     0
100
AcDbMText
 10
-126.0700000524521
 20
34.33333597903402
 30
0.0
 40
3.0
 41
0.0
 71
     7
 72
     1
  1
{\W0.833333;第三角法}
 73
     1
 44
1.0
  0
MTEXT
  5
F0
330
42
100
AcDbEntity
  8
0
 62
     0
100
AcDbMText
 10
-105.8130000531673
 20
32.816671831657
 30
0.0
 40
2.700000047683716
 41
0.0
 71
     7
 72
     1
  1
{\W0.833333;mm}
 73
     1
 44
1.0
  0
MTEXT
  5
F1
330
42
100
AcDbEntity
  8
0
 62
     0
100
AcDbMText
 10
-166.9815000295639
 20
26.816671831657
 30
0.0
 40
2.700000047683716
 41
0.0
 71
     7
 72
     1
  1
{\W0.833333;製図}
 73
     1
 44
1.0
  0
MTEXT
  5
F2
330
42
100
AcDbEntity
  8
0
 62
     0
100
AcDbMText
 10
-149.9815000295639
 20
26.816671831657
 30
0.0
 40
2.700000047683716
 41
0.0
 71
     7
 72
     1
  1
{\W0.833333;検図}
 73
     1
 44
1.0
  0
MTEXT
  5
F3
330
42
100
AcDbEntity
  8
0
 62
     0
100
AcDbMText
 10
-126.9815000295639
 20
26.816671831657
 30
0.0
 40
2.700000047683716
 41
0.0
 71
     7
 72
     1
  1
{\W0.833333;日付}
 73
     1
 44
1.0
  0
MTEXT
  5
F4
330
42
100
AcDbEntity
  8
0
 62
     0
100
AcDbMText
 10
-109.9815000295639
 20
26.816671831657
 30
0.0
 40
2.700000047683716
 41
0.0
 71
     7
 72
     1
  1
{\W0.833333;尺度}
 73
     1
 44
1.0
  0
MTEXT
  5
F5
330
42
100
AcDbEntity
  8
0
 62
     0
100
AcDbMText
 10
-109.9815000295639
 20
37.15000007872732
 30
0.0
 40
2.700000047683716
 41
0.0
 71
     7
 72
     1
  1
{\W0.833333;単位}
 73
     1
 44
1.0
  0
MTEXT
  5
F6
330
42
100
AcDbEntity
  8
0
 62
     0
100
AcDbMText
 10
-92.9815000295639
 20
37.15000007872732
 30
0.0
 40
2.700000047683716
 41
0.0
 71
     7
 72
     1
  1
{\W0.833333;名称}
 73
     1
 44
1.0
  0
MTEXT
  5
F7
330
42
100
AcDbEntity
  8
0
 62
     0
100
AcDbMText
 10
-92.9815000295639
 20
26.816671831657
 30
0.0
 40
2.700000047683716
 41
0.0
 71
     7
 72
     1
  1
{\W0.833333;品番}
 73
     1
 44
1.0
  0
MTEXT
  5
F8
330
42
100
AcDbEntity
  8
0
 62
     0
100
AcDbMText
 10
-92.9815000295639
 20
16.48332832579763
 30
0.0
 40
2.700000047683716
 41
0.0
 71
     7
 72
     1
  1
{\W0.833333;図番}
 73
     1
 44
1.0
  0
MTEXT
  5
F9
330
42
100
AcDbEntity
  8
0
 62
     0
100
AcDbMText
 10
-166.9815000295639
 20
16.48332832579763
 30
0.0
 40
2.700000047683716
 41
0.0
 71
     7
 72
     1
  1
{\W0.833333;備考}
 73
     1
 44
1.0
  0
MTEXT
  5
FA
330
42
100
AcDbEntity
  8
0
 62
     0
100
AcDbMText
 10
-13.71333342790604
 20
7.499999046325683
 30
0.0
 40
2.0
 41
0.0
 71
     7
 72
     1
  1
{\W0.833333;A3}
 73
     1
 44
1.0
  0
ENDBLK
  5
44
330
42
100
AcDbEntity
  8
0
100
AcDbBlockEnd
  0
BLOCK
  5
46
330
45
100
AcDbEntity
  8
0
100
AcDbBlockBegin
  2
VIS_ULD26R___DN0002
 70
     0
 10
0.0
 20
0.0
 30
0.0
  3
VIS_ULD26R___DN0002
  1

  0
LINE
  5
FB
330
45
100
AcDbEntity
  8
0
  6
Continuous
 62
     0
100
AcDbLine
 10
-297.132652613471
 20
85.00038286827447
 30
0.0
 11
-298.132652613471
 21
86.7324336758434
 31
0.0
  0
LINE
  5
FC
330
45
100
AcDbEntity
  8
0
  6
Continuous
 62
     0
100
AcDbLine
 10
-298.1326526134701
 20
86.73243367584413
 30
0.0
 11
-296.1326526134701
 21
86.73243367584413
 31
0.0
  0
LINE
  5
FD
330
45
100
AcDbEntity
  8
0
  6
Continuous
 62
     0
100
AcDbLine
 10
-297.1326526134712
 20
85.00038286827578
 30
0.0
 11
-296.1326526134712
 21
86.7324336758447
 31
0.0
  0
ENDBLK
  5
47
330
45
100
AcDbEntity
  8
0
100
AcDbBlockEnd
  0
BLOCK
  5
49
330
48
100
AcDbEntity
  8
0
100
AcDbBlockBegin
  2
VIS_ULD26R___DN0003
 70
     0
 10
0.0
 20
0.0
 30
0.0
  3
VIS_ULD26R___DN0003
  1

  0
LINE
  5
FE
330
48
100
AcDbEntity
  8
0
  6
Continuous
 62
     0
100
AcDbLine
 10
-308.6326526134718
 20
190.0003828682782
 30
0.0
 11
-306.9006018059029
 21
191.0003828682783
 31
0.0
  0
LINE
  5
FF
330
48
100
AcDbEntity
  8
0
  6
Continuous
 62
     0
100
AcDbLine
 10
-306.9006018059014
 20
191.0003828682756
 30
0.0
 11
-306.9006018059014
 21
189.0003828682756
 31
0.0
  0
LINE
  5
100
330
48
100
AcDbEntity
  8
0
  6
Continuous
 62
     0
100
AcDbLine
 10
-308.6326526134689
 20
190.0003828682764
 30
0.0
 11
-306.9006018059001
 21
189.0003828682764
 31
0.0
  0
ENDBLK
  5
4A
330
48
100
AcDbEntity
  8
0
100
AcDbBlockEnd
  0
BLOCK
  5
4C
330
4B
100
AcDbEntity
  8
0
100
AcDbBlockBegin
  2
VIS_ULD26R___DN0004
 70
     0
 10
0.0
 20
0.0
 30
0.0
  3
VIS_ULD26R___DN0004
  1

  0
LINE
  5
101
330
4B
100
AcDbEntity
  8
0
  6
Continuous
 62
     0
100
AcDbLine
 10
-224.1326526134692
 20
190.0003828682758
 30
0.0
 11
-225.8647034210381
 21
191.0003828682758
 31
0.0
  0
LINE
  5
102
330
4B
100
AcDbEntity
  8
0
  6
Continuous
 62
     0
100
AcDbLine
 10
-225.8647034210389
 20
191.0003828682756
 30
0.0
 11
-225.8647034210389
 21
189.0003828682756
 31
0.0
  0
LINE
  5
103
330
4B
100
AcDbEntity
  8
0
  6
Continuous
 62
     0
100
AcDbLine
 10
-224.1326526134726
 20
190.0003828682786
 30
0.0
 11
-225.8647034210414
 21
189.0003828682787
 31
0.0
  0
ENDBLK
  5
4D
330
4B
100
AcDbEntity
  8
0
100
AcDbBlockEnd
  0
BLOCK
  5
4F
330
4E
100
AcDbEntity
  8
0
100
AcDbBlockBegin
  2
VIS_ULD26R___DN0005
 70
     0
 10
0.0
 20
0.0
 30
0.0
  3
VIS_ULD26R___DN0005
  1

  0
LINE
  5
104
330
4E
100
AcDbEntity
  8
0
  6
Continuous
 62
     0
100
AcDbLine
 10
-142.1326526134696
 20
85.00038286827574
 30
0.0
 11
-143.1326526134696
 21
86.73243367584462
 31
0.0
  0
LINE
  5
105
330
4E
100
AcDbEntity
  8
0
  6
Continuous
 62
     0
100
AcDbLine
 10
-143.1326526134701
 20
86.73243367584413
 30
0.0
 11
-141.1326526134701
 21
86.73243367584413
 31
0.0
  0
LINE
  5
106
330
4E
100
AcDbEntity
  8
0
  6
Continuous
 62
     0
100
AcDbLine
 10
-142.1326526134704
 20
85.00038286827561
 30
0.0
 11
-141.1326526134704
 21
86.73243367584446
 31
0.0
  0
ENDBLK
  5
50
330
4E
100
AcDbEntity
  8
0
100
AcDbBlockEnd
  0
BLOCK
  5
52
330
51
100
AcDbEntity
  8
0
100
AcDbBlockBegin
  2
VIS_ULD26R___DN0006
 70
     0
 10
0.0
 20
0.0
 30
0.0
  3
VIS_ULD26R___DN0006
  1

  0
LINE
  5
107
330
51
100
AcDbEntity
  8
0
  6
Continuous
 62
     0
100
AcDbLine
 10
-120.6326526134692
 20
190.0003828682766
 30
0.0
 11
-122.3647034210381
 21
191.0003828682766
 31
0.0
  0
LINE
  5
108
330
51
100
AcDbEntity
  8
0
  6
Continuous
 62
     0
100
AcDbLine
 10
-122.3647034210389
 20
191.0003828682756
 30
0.0
 11
-122.3647034210389
 21
189.0003828682756
 31
0.0
  0
LINE
  5
109
330
51
100
AcDbEntity
  8
0
  6
Continuous
 62
     0
100
AcDbLine
 10
-120.6326526134721
 20
190.0003828682792
 30
0.0
 11
-122.3647034210409
 21
189.0003828682792
 31
0.0
  0
ENDBLK
  5
53
330
51
100
AcDbEntity
  8
0
100
AcDbBlockEnd
  0
BLOCK
  5
55
330
54
100
AcDbEntity
  8
0
100
AcDbBlockBegin
  2
VIS_ULD26R___DN0007
 70
     0
 10
0.0
 20
0.0
 30
0.0
  3
VIS_ULD26R___DN0007
  1

  0
LINE
  5
10A
330
54
100
AcDbEntity
  8
0
  6
Continuous
 62
     0
100
AcDbLine
 10
-160.6326526134713
 20
190.000382868278
 30
0.0
 11
-158.9006018059025
 21
191.000382868278
 31
0.0
  0
LINE
  5
10B
330
54
100
AcDbEntity
  8
0
  6
Continuous
 62
     0
100
AcDbLine
 10
-158.9006018059014
 20
191.0003828682756
 30
0.0
 11
-158.9006018059014
 21
189.0003828682756
 31
0.0
  0
LINE
  5
10C
330
54
100
AcDbEntity
  8
0
  6
Continuous
 62
     0
100
AcDbLine
 10
-160.6326526134689
 20
190.0003828682775
 30
0.0
 11
-158.9006018059
 21
189.0003828682774
 31
0.0
  0
ENDBLK
  5
56
330
54
100
AcDbEntity
  8
0
100
AcDbBlockEnd
  0
BLOCK
  5
58
330
57
100
AcDbEntity
  8
0
100
AcDbBlockBegin
  2
VIS_ULD26R___DN0008
 70
     0
 10
0.0
 20
0.0
 30
0.0
  3
VIS_ULD26R___DN0008
  1

  0
LINE
  5
10D
330
57
100
AcDbEntity
  8
0
  6
Continuous
 62
     0
100
AcDbLine
 10
-264.3826526134702
 20
120.0003828682752
 30
0.0
 11
-249.3826526134702
 21
120.0003828682752
 31
0.0
  0
LINE
  5
10E
330
57
100
AcDbEntity
  8
0
  6
Continuous
 62
     0
100
AcDbLine
 10
-264.6326526134702
 20
119.1003828682752
 30
0.0
 11
-249.1326526134702
 21
119.1003828682752
 31
0.0
  0
LINE
  5
10F
330
57
100
AcDbEntity
  8
0
  6
Continuous
 62
     0
100
AcDbLine
 10
-249.1326526134702
 20
119.7503828682752
 30
0.0
 11
-249.1326526134702
 21
119.1003828682751
 31
0.0
  0
LINE
  5
110
330
57
100
AcDbEntity
  8
0
  6
Continuous
 62
     0
100
AcDbLine
 10
-264.6326526134702
 20
119.7503828682752
 30
0.0
 11
-264.6326526134702
 21
119.1003828682751
 31
0.0
  0
ARC
  5
111
330
57
100
AcDbEntity
  8
0
  6
Continuous
 62
     0
100
AcDbCircle
 10
-264.3826526134702
 20
119.7503828682752
 30
0.0
 40
0.25
100
AcDbArc
 50
90.00000000000003
 51
180.0
  0
ARC
  5
112
330
57
100
AcDbEntity
  8
0
  6
Continuous
 62
     0
100
AcDbCircle
 10
-249.3826526134702
 20
119.7503828682752
 30
0.0
 40
0.25
100
AcDbArc
 50
0.0
 51
90.00000000000003
  0
ENDBLK
  5
59
330
57
100
AcDbEntity
  8
0
100
AcDbBlockEnd
  0
BLOCK
  5
5B
330
5A
100
AcDbEntity
  8
0
100
AcDbBlockBegin
  2
VIS_ULD26R___DN0009
 70
     0
 10
0.0
 20
0.0
 30
0.0
  3
VIS_ULD26R___DN0009
  1

  0
LINE
  5
113
330
5A
100
AcDbEntity
  8
0
  6
Continuous
 62
     0
100
AcDbLine
 10
-120.6326526134702
 20
120.0003828682751
 30
0.0
 11
-120.6326526134702
 21
119.1003828682751
 31
0.0
  0
LINE
  5
114
330
5A
100
AcDbEntity
  8
0
  6
Continuous
 62
     0
100
AcDbLine
 10
-125.1326526134702
 20
119.7503828682751
 30
0.0
 11
-125.1326526134702
 21
119.1003828682751
 31
0.0
  0
LINE
  5
115
330
5A
100
AcDbEntity
  8
0
  6
Continuous
 62
     0
100
AcDbLine
 10
-120.6326526134702
 20
120.0003828682752
 30
0.0
 11
-124.8826526134702
 21
120.0003828682752
 31
0.0
  0
LINE
  5
116
330
5A
100
AcDbEntity
  8
0
  6
Continuous
 62
     0
100
AcDbLine
 10
-120.6326526134702
 20
119.1003828682752
 30
0.0
 11
-125.1326526134702
 21
119.1003828682752
 31
0.0
  0
LINE
  5
117
330
5A
100
AcDbEntity
  8
0
  6
Continuous
 62
    20
100
AcDbLine
 10
-120.6326526134702
 20
119.1003828682752
 30
0.0
 11
-124.1576526134702
 21
119.1003828682752
 31
0.0
  0
ARC
  5
118
330
5A
100
AcDbEntity
  8
0
  6
Continuous
 62
     0
100
AcDbCircle
 10
-124.8826526134702
 20
119.7503828682752
 30
0.0
 40
0.25
100
AcDbArc
 50
90.00000000000003
 51
180.0
  0
ENDBLK
  5
5C
330
5A
100
AcDbEntity
  8
0
100
AcDbBlockEnd
  0
BLOCK
  5
5E
330
5D
100
AcDbEntity
  8
0
100
AcDbBlockBegin
  2
VIS_ULD26R___DN0010
 70
     0
 10
0.0
 20
0.0
 30
0.0
  3
VIS_ULD26R___DN0010
  1

  0
LINE
  5
119
330
5D
100
AcDbEntity
  8
0
  6
Continuous
 62
     0
100
AcDbLine
 10
-264.3826523161613
 20
257.8003828682752
 30
0.0
 11
-264.1557074066531
 21
257.8003828682752
 31
0.0
  0
LINE
  5
11A
330
5D
100
AcDbEntity
  8
0
  6
Continuous
 62
     0
100
AcDbLine
 10
-249.1326523161613
 20
262.3003828682752
 30
0.0
 11
-249.1326523161613
 21
258.0503828682752
 31
0.0
  0
LINE
  5
11B
330
5D
100
AcDbEntity
  8
0
  6
Continuous
 62
     0
100
AcDbLine
 10
-264.6326523161613
 20
262.3003828682752
 30
0.0
 11
-249.1326523161613
 21
262.3003828682752
 31
0.0
  0
LINE
  5
11C
330
5D
100
AcDbEntity
  8
0
  6
Continuous
 62
     0
100
AcDbLine
 10
-249.6095972236731
 20
257.8003828682752
 30
0.0
 11
-249.3826523161613
 21
257.8003828682752
 31
0.0
  0
LINE
  5
11D
330
5D
100
AcDbEntity
  8
0
  6
Continuous
 62
     0
100
AcDbLine
 10
-264.6326523161613
 20
262.3003828682752
 30
0.0
 11
-264.6326523161613
 21
258.0503828682752
 31
0.0
  0
ARC
  5
11E
330
5D
100
AcDbEntity
  8
0
  6
Continuous
 62
     0
100
AcDbCircle
 10
-264.3826523161613
 20
258.0503828682752
 30
0.0
 40
0.25
100
AcDbArc
 50
180.0
 51
270.0
  0
ARC
  5
11F
330
5D
100
AcDbEntity
  8
0
  6
Continuous
 62
     0
100
AcDbCircle
 10
-249.3826523161613
 20
258.0503828682752
 30
0.0
 40
0.25
100
AcDbArc
 50
270.0
 51
0.0
  0
ENDBLK
  5
5F
330
5D
100
AcDbEntity
  8
0
100
AcDbBlockEnd
  0
BLOCK
  5
61
330
60
100
AcDbEntity
  8
0
100
AcDbBlockBegin
  2
VIS_ULD26R___DN0011
 70
     0
 10
0.0
 20
0.0
 30
0.0
  3
VIS_ULD26R___DN0011
  1

  0
LINE
  5
120
330
60
100
AcDbEntity
  8
0
  6
Continuous
 62
     0
100
AcDbLine
 10
-263.3362651061404
 20
260.8003828682752
 30
0.0
 11
-263.265287493546
 21
258.4817808568577
 31
0.0
  0
LINE
  5
121
330
60
100
AcDbEntity
  8
0
  6
Continuous
 62
     0
100
AcDbLine
 10
-250.4290387309319
 20
260.8003828682754
 30
0.0
 11
-250.5000163435263
 21
258.4817808568578
 31
0.0
  0
LINE
  5
122
330
60
100
AcDbEntity
  8
0
  6
DASHED
 62
     0
100
AcDbLine
 10
-262.6069702765035
 20
262.3185184216255
 30
0.0
 11
-261.6583335605688
 21
266.6822473149248
 31
0.0
  0
LINE
  5
123
330
60
100
AcDbEntity
  8
0
  6
DASHED
 62
     0
100
AcDbLine
 10
-259.0539871352166
 20
263.7103299828953
 30
0.0
 11
-259.5613167018549
 21
266.6756782351219
 31
0.0
  0
LINE
  5
124
330
60
100
AcDbEntity
  8
0
  6
DASHED
 62
     0
100
AcDbLine
 10
-251.1583335605684
 20
262.3185184216256
 30
0.0
 11
-252.106970276503
 21
266.6822473149249
 31
0.0
  0
LINE
  5
125
330
60
100
AcDbEntity
  8
0
  6
DASHED
 62
     0
100
AcDbLine
 10
-254.7113167018552
 20
263.7103299828955
 30
0.0
 11
-254.2039871352169
 21
266.6756782351222
 31
0.0
  0
LINE
  5
126
330
60
100
AcDbEntity
  8
0
  6
DASHED
 62
     0
100
AcDbLine
 10
-254.8591684668636
 20
263.5856253497421
 30
0.0
 11
-258.9061353556084
 21
263.5856253497421
 31
0.0
  0
LINE
  5
127
330
60
100
AcDbEntity
  8
0
  6
Continuous
 62
     0
100
AcDbLine
 10
-264.3826519185358
 20
262.3003824113076
 30
0.0
 11
-264.2542726338019
 21
258.1494882668362
 31
0.0
  0
LINE
  5
128
330
60
100
AcDbEntity
  8
0
  6
Continuous
 62
     0
100
AcDbLine
 10
-264.3826519185361
 20
262.3003828682752
 30
0.0
 11
-249.3826519185361
 21
262.3003828682752
 31
0.0
  0
LINE
  5
129
330
60
100
AcDbEntity
  8
0
  6
Continuous
 62
     0
100
AcDbLine
 10
-249.3826519185363
 20
262.3003828682753
 30
0.0
 11
-249.4639822987468
 21
261.0804271651181
 31
0.0
  0
LINE
  5
12A
330
60
100
AcDbEntity
  8
0
  6
Continuous
 62
     0
100
AcDbLine
 10
-264.0019859909686
 20
260.8003828682752
 30
0.0
 11
-249.7633178461035
 21
260.8003828682752
 31
0.0
  0
LINE
  5
12B
330
60
100
AcDbEntity
  8
0
  6
Continuous
 62
     0
100
AcDbLine
 10
-264.3826519185362
 20
262.3003828682753
 30
0.0
 11
-264.3013215383257
 21
261.0804271651181
 31
0.0
  0
LINE
  5
12C
330
60
100
AcDbEntity
  8
0
  6
DASHED
 62
     0
100
AcDbLine
 10
-252.2535467310918
 20
266.8003828682753
 30
0.0
 11
-261.5117571059803
 21
266.8003828682753
 31
0.0
  0
LINE
  5
12D
330
60
100
AcDbEntity
  8
0
  6
Continuous
 62
     0
100
AcDbLine
 10
-249.3826519185363
 20
262.3003828682753
 30
0.0
 11
-249.5110312052422
 21
258.1494882689431
 31
0.0
  0
LINE
  5
12E
330
60
100
AcDbEntity
  8
0
  6
Continuous
 62
     0
100
AcDbLine
 10
-264.2744035695621
 20
258.8003828682752
 30
0.0
 11
-264.3326516205161
 21
258.8003828682752
 31
0.0
  0
LINE
  5
12F
330
60
100
AcDbEntity
  8
0
  6
Continuous
 62
     0
100
AcDbLine
 10
-264.3326516205161
 20
258.2003828682753
 30
0.0
 11
-264.3326516205161
 21
258.8003828682753
 31
0.0
  0
LINE
  5
130
330
60
100
AcDbEntity
  8
0
  6
Continuous
 62
     0
100
AcDbLine
 10
-249.4326516205161
 20
258.2003828682753
 30
0.0
 11
-249.4326516205161
 21
258.8003828682753
 31
0.0
  0
LINE
  5
131
330
60
100
AcDbEntity
  8
0
  6
Continuous
 62
     0
100
AcDbLine
 10
-264.3826522165561
 20
262.3003828682752
 30
0.0
 11
-264.3826522165561
 21
259.0003828682752
 31
0.0
  0
LINE
  5
132
330
60
100
AcDbEntity
  8
0
  6
DASHED
 62
     0
100
AcDbLine
 10
-263.6326522165561
 20
266.8003828682752
 30
0.0
 11
-263.6326522165561
 21
262.3003828682752
 31
0.0
  0
LINE
  5
133
330
60
100
AcDbEntity
  8
0
  6
Continuous
 62
     0
100
AcDbLine
 10
-264.3826522165561
 20
259.0003828682752
 30
0.0
 11
-264.280589190311
 21
259.0003828682752
 31
0.0
  0
LINE
  5
134
330
60
100
AcDbEntity
  8
0
  6
DASHED
 62
     0
100
AcDbLine
 10
-263.6326522165562
 20
266.8003828682752
 30
0.0
 11
-250.1326516205161
 21
266.8003828682752
 31
0.0
  0
LINE
  5
135
330
60
100
AcDbEntity
  8
0
  6
Continuous
 62
     0
100
AcDbLine
 10
-249.3826516205161
 20
262.3003828682752
 30
0.0
 11
-249.3826516205161
 21
259.0003828682752
 31
0.0
  0
LINE
  5
136
330
60
100
AcDbEntity
  8
0
  6
Continuous
 62
     0
100
AcDbLine
 10
-249.382651620516
 20
262.3003828682752
 30
0.0
 11
-264.3826522165561
 21
262.3003828682752
 31
0.0
  0
LINE
  5
137
330
60
100
AcDbEntity
  8
0
  6
DASHED
 62
     0
100
AcDbLine
 10
-250.1326516205161
 20
266.8003828682752
 30
0.0
 11
-250.1326516205161
 21
262.3003828682752
 31
0.0
  0
LINE
  5
138
330
60
100
AcDbEntity
  8
0
  6
Continuous
 62
     0
100
AcDbLine
 10
-249.3826516205161
 20
259.0003828682752
 30
0.0
 11
-249.4847146512777
 21
259.0003828682752
 31
0.0
  0
LINE
  5
139
330
60
100
AcDbEntity
  8
0
  6
Continuous
 62
     0
100
AcDbLine
 10
-249.4326516205161
 20
258.8003828682752
 30
0.0
 11
-249.4909002714438
 21
258.8003828682752
 31
0.0
  0
ARC
  5
13A
330
60
100
AcDbEntity
  8
0
  6
Continuous
 62
     0
100
AcDbCircle
 10
-250.2606727570931
 20
258.1726732584456
 30
0.0
 40
0.75
100
AcDbArc
 50
272.115961615944
 51
358.228515046494
  0
ARC
  5
13B
330
60
100
AcDbEntity
  8
0
  6
Continuous
 62
     0
100
AcDbCircle
 10
-256.8826519185361
 20
437.4003828682752
 30
0.0
 40
179.5
100
AcDbArc
 50
268.1166239536525
 51
271.8833760463474
  0
ARC
  5
13C
330
60
100
AcDbEntity
  8
0
  6
Continuous
 62
     0
100
AcDbCircle
 10
-256.8826519185361
 20
437.4003828682752
 30
0.0
 40
180.1000000000001
100
AcDbArc
 50
267.884038320228
 51
272.1159616159441
  0
ARC
  5
13D
330
60
100
AcDbEntity
  8
0
  6
Continuous
 62
     0
100
AcDbCircle
 10
-250.9997822306706
 20
258.4970798125865
 30
0.0
 40
0.5
100
AcDbArc
 50
271.8833760463472
 51
358.2465951399315
  0
ARC
  5
13E
330
60
100
AcDbEntity
  8
0
  6
Continuous
 62
     0
100
AcDbCircle
 10
-262.7655216064015
 20
258.4970798125865
 30
0.0
 40
0.5
100
AcDbArc
 50
181.7534048600684
 51
268.1166239536525
  0
ARC
  5
13F
330
60
100
AcDbEntity
  8
0
  6
Continuous
 62
     0
100
AcDbCircle
 10
-263.5046310820185
 20
258.1726732585209
 30
0.0
 40
0.7499999999999993
100
AcDbArc
 50
181.7714851203123
 51
267.8840383834037
  0
ARC
  5
140
330
60
100
AcDbEntity
  8
0
  6
Continuous
 62
     0
100
AcDbCircle
 10
-249.7633178461035
 20
261.1003828682752
 30
0.0
 40
0.3
100
AcDbArc
 50
270.0
 51
356.1859251657119
  0
ARC
  5
141
330
60
100
AcDbEntity
  8
0
  6
Continuous
 62
     0
100
AcDbCircle
 10
-264.0019859909686
 20
261.1003828682752
 30
0.0
 40
0.3
100
AcDbArc
 50
183.8140748342881
 51
270.0
  0
ARC
  5
142
330
60
100
AcDbEntity
  8
0
  6
DASHED
 62
     0
100
AcDbCircle
 10
-256.8826519185361
 20
251.3003828682752
 30
0.0
 40
15.49999999999999
100
AcDbArc
 50
80.11599034405349
 51
99.88400965594637
  0
ARC
  5
143
330
60
100
AcDbEntity
  8
0
  6
Continuous
 62
     0
100
AcDbCircle
 10
-256.8826519185361
 20
262.3003828682752
 30
0.0
 40
1.55
100
AcDbArc
 50
270.0
 51
284.5925506020329
  0
ARC
  5
144
330
60
100
AcDbEntity
  8
0
  6
Continuous
 62
     0
100
AcDbCircle
 10
-256.8826519185361
 20
262.3003828682752
 30
0.0
 40
1.55
100
AcDbArc
 50
255.407449397967
 51
270.0
  0
ARC
  5
145
330
60
100
AcDbEntity
  8
0
  6
DASHED
 62
     0
100
AcDbCircle
 10
-261.5117571059803
 20
266.6503828682752
 30
0.0
 40
0.15
100
AcDbArc
 50
90.0
 51
167.7352262721038
  0
ARC
  5
146
330
60
100
AcDbEntity
  8
0
  6
DASHED
 62
     0
100
AcDbCircle
 10
-259.7091684668636
 20
266.6503828682752
 30
0.0
 40
0.15
100
AcDbArc
 50
9.708509836146
 51
90.0
  0
ARC
  5
147
330
60
100
AcDbEntity
  8
0
  6
Continuous
 62
     0
100
AcDbCircle
 10
-262.7535467310918
 20
262.3503828682752
 30
0.0
 40
0.1499999999999994
100
AcDbArc
 50
340.5287793655072
 51
347.7352262721103
  0
ARC
  5
148
330
60
100
AcDbEntity
  8
0
  6
DASHED
 62
     0
100
AcDbCircle
 10
-258.9061353702085
 20
263.7356253497421
 30
0.0
 40
0.1500000000000007
100
AcDbArc
 50
189.708509836146
 51
270.0
  0
ARC
  5
149
330
60
100
AcDbEntity
  8
0
  6
DASHED
 62
     0
100
AcDbCircle
 10
-252.2535467310918
 20
266.6503828682752
 30
0.0
 40
0.15
100
AcDbArc
 50
12.26477372789616
 51
90.0
  0
ARC
  5
14A
330
60
100
AcDbEntity
  8
0
  6
DASHED
 62
     0
100
AcDbCircle
 10
-254.0561353702085
 20
266.6503828682752
 30
0.0
 40
0.15
100
AcDbArc
 50
90.0
 51
170.291490163854
  0
ARC
  5
14B
330
60
100
AcDbEntity
  8
0
  6
DASHED
 62
     0
100
AcDbCircle
 10
-254.8591684668636
 20
263.7356253497421
 30
0.0
 40
0.1500000000000007
100
AcDbArc
 50
270.0
 51
350.291490163854
  0
ARC
  5
14C
330
60
100
AcDbEntity
  8
0
  6
Continuous
 62
     0
100
AcDbCircle
 10
-264.1826516205161
 20
258.2003828682753
 30
0.0
 40
0.15
100
AcDbArc
 50
180.0
 51
244.6667898782198
  0
ARC
  5
14D
330
60
100
AcDbEntity
  8
0
  6
Continuous
 62
     0
100
AcDbCircle
 10
-249.5826516205161
 20
258.2003828682753
 30
0.0
 40
0.15
100
AcDbArc
 50
295.3329386966011
 51
0.0
  0
ENDBLK
  5
62
330
60
100
AcDbEntity
  8
0
100
AcDbBlockEnd
  0
BLOCK
  5
64
330
63
100
AcDbEntity
  8
0
100
AcDbBlockBegin
  2
VIS_ULD26R___DN0012
 70
     0
 10
0.0
 20
0.0
 30
0.0
  3
VIS_ULD26R___DN0012
  1

  0
LINE
  5
14E
330
63
100
AcDbEntity
  8
0
  6
Continuous
 62
     0
100
AcDbLine
 10
-263.6326522158449
 20
119.1003828682752
 30
0.0
 11
-250.1326522158448
 21
119.1003828682752
 31
0.0
  0
LINE
  5
14F
330
63
100
AcDbEntity
  8
0
  6
Continuous
 62
     0
100
AcDbLine
 10
-249.3826522158448
 20
119.1003828682751
 30
0.0
 11
-249.3826522158448
 21
85.25038286827512
 31
0.0
  0
LINE
  5
150
330
63
100
AcDbEntity
  8
0
  6
Continuous
 62
     0
100
AcDbLine
 10
-249.382652215845
 20
119.1003828682753
 30
0.0
 11
-250.1326522158449
 21
119.1003828682753
 31
0.0
  0
LINE
  5
151
330
63
100
AcDbEntity
  8
0
  6
Continuous
 62
     0
100
AcDbLine
 10
-250.1326522158457
 20
119.100382868275
 30
0.0
 11
-250.1370159820777
 21
118.8503828682751
 31
0.0
  0
LINE
  5
152
330
63
100
AcDbEntity
  8
0
  6
Continuous
 62
     0
100
AcDbLine
 10
-264.3826522158449
 20
119.1003828682751
 30
0.0
 11
-264.3826522158449
 21
85.25038286827512
 31
0.0
  0
LINE
  5
153
330
63
100
AcDbEntity
  8
0
  6
Continuous
 62
     0
100
AcDbLine
 10
-263.6326522158449
 20
119.1003828682751
 30
0.0
 11
-263.6326522158449
 21
118.8503828682751
 31
0.0
  0
LINE
  5
154
330
63
100
AcDbEntity
  8
0
  6
Continuous
 62
     0
100
AcDbLine
 10
-264.3826522158449
 20
119.1003828682752
 30
0.0
 11
-263.6326522158449
 21
119.1003828682752
 31
0.0
  0
LINE
  5
155
330
63
100
AcDbEntity
  8
0
  6
Continuous
 62
     0
100
AcDbLine
 10
-264.2826522158449
 20
118.8503828682751
 30
0.0
 11
-264.2826522158449
 21
90.25038286827512
 31
0.0
  0
LINE
  5
156
330
63
100
AcDbEntity
  8
0
  6
Continuous
 62
     0
100
AcDbLine
 10
-249.4826522158448
 20
118.8503828682751
 30
0.0
 11
-249.4826522158448
 21
90.25038286827512
 31
0.0
  0
LINE
  5
157
330
63
100
AcDbEntity
  8
0
  6
Continuous
 62
     0
100
AcDbLine
 10
-264.2826522158449
 20
118.8503828682752
 30
0.0
 11
-249.4826522158449
 21
118.8503828682752
 31
0.0
  0
LINE
  5
158
330
63
100
AcDbEntity
  8
0
  6
Continuous
 62
     0
100
AcDbLine
 10
-264.2826522158449
 20
90.25038286827522
 30
0.0
 11
-249.4826522158449
 21
90.25038286827522
 31
0.0
  0
LINE
  5
159
330
63
100
AcDbEntity
  8
0
  6
Continuous
 62
     0
100
AcDbLine
 10
-263.757652215845
 20
85.25038286827512
 30
0.0
 11
-263.757652215845
 21
85.07538286827511
 31
0.0
  0
LINE
  5
15A
330
63
100
AcDbEntity
  8
0
  6
Continuous
 62
     0
100
AcDbLine
 10
-250.007651621227
 20
85.25038286827512
 30
0.0
 11
-250.007651621227
 21
85.07538286827511
 31
0.0
  0
LINE
  5
15B
330
63
100
AcDbEntity
  8
0
  6
Continuous
 62
     0
100
AcDbLine
 10
-249.4076516212272
 20
90.00038286827522
 30
0.0
 11
-264.357652215845
 21
90.00038286827522
 31
0.0
  0
LINE
  5
15C
330
63
100
AcDbEntity
  8
0
  6
Continuous
 62
     0
100
AcDbLine
 10
-263.6326522158449
 20
85.27538286827512
 30
0.0
 11
-263.6326522158449
 21
85.25038286827512
 31
0.0
  0
LINE
  5
15D
330
63
100
AcDbEntity
  8
0
  6
Continuous
 62
     0
100
AcDbLine
 10
-263.6326522158449
 20
90.25038286827512
 30
0.0
 11
-263.6326522158449
 21
90.00038286827512
 31
0.0
  0
LINE
  5
15E
330
63
100
AcDbEntity
  8
0
  6
Continuous
 62
     0
100
AcDbLine
 10
-264.257652215845
 20
85.25038286827512
 30
0.0
 11
-264.257652215845
 21
85.07538286827511
 31
0.0
  0
LINE
  5
15F
330
63
100
AcDbEntity
  8
0
  6
Continuous
 62
     0
100
AcDbLine
 10
-263.8326522158451
 20
85.00038286827522
 30
0.0
 11
-264.1826522158451
 21
85.00038286827522
 31
0.0
  0
LINE
  5
160
330
63
100
AcDbEntity
  8
0
  6
Continuous
 62
     0
100
AcDbLine
 10
-249.4076516212272
 20
85.27538286827522
 30
0.0
 11
-264.3576522158451
 21
85.27538286827522
 31
0.0
  0
LINE
  5
161
330
63
100
AcDbEntity
  8
0
  6
Continuous
 62
     0
100
AcDbLine
 10
-264.357652215845
 20
90.00038286827512
 30
0.0
 11
-264.357652215845
 21
85.27538286827512
 31
0.0
  0
LINE
  5
162
330
63
100
AcDbEntity
  8
0
  6
Continuous
 62
     0
100
AcDbLine
 10
-263.6326522158449
 20
85.25038286827521
 30
0.0
 11
-264.3826522158449
 21
85.25038286827521
 31
0.0
  0
LINE
  5
163
330
63
100
AcDbEntity
  8
0
  6
Continuous
 62
     0
100
AcDbLine
 10
-250.1326516212272
 20
85.27538286827512
 30
0.0
 11
-250.1326516212272
 21
85.25038286827512
 31
0.0
  0
LINE
  5
164
330
63
100
AcDbEntity
  8
0
  6
Continuous
 62
     0
100
AcDbLine
 10
-249.507651621227
 20
85.25038286827512
 30
0.0
 11
-249.507651621227
 21
85.07538286827511
 31
0.0
  0
LINE
  5
165
330
63
100
AcDbEntity
  8
0
  6
Continuous
 62
     0
100
AcDbLine
 10
-249.932651621227
 20
85.00038286827522
 30
0.0
 11
-249.582651621227
 21
85.00038286827522
 31
0.0
  0
LINE
  5
166
330
63
100
AcDbEntity
  8
0
  6
Continuous
 62
     0
100
AcDbLine
 10
-249.4076516212272
 20
90.00038286827512
 30
0.0
 11
-249.4076516212272
 21
85.27538286827512
 31
0.0
  0
LINE
  5
167
330
63
100
AcDbEntity
  8
0
  6
Continuous
 62
     0
100
AcDbLine
 10
-250.1326516212272
 20
85.25038286827521
 30
0.0
 11
-249.3826516212272
 21
85.25038286827521
 31
0.0
  0
LINE
  5
168
330
63
100
AcDbEntity
  8
0
  6
Continuous
 62
     0
100
AcDbLine
 10
-250.1326516212272
 20
90.25038286827512
 30
0.0
 11
-250.1326516212272
 21
90.00038286827512
 31
0.0
  0
LINE
  5
169
330
63
100
AcDbEntity
  8
0
  6
Continuous
 62
     0
100
AcDbLine
 10
-264.232651918536
 20
120.0003828682752
 30
0.0
 11
-249.5326519185361
 21
120.0003828682752
 31
0.0
  0
LINE
  5
16A
330
63
100
AcDbEntity
  8
0
  6
Continuous
 62
     0
100
AcDbLine
 10
-264.2826519185365
 20
125.2060453009774
 30
0.0
 11
-264.2195893594027
 21
124.9466533144991
 31
0.0
  0
LINE
  5
16B
330
63
100
AcDbEntity
  8
0
  6
Continuous
 62
     0
100
AcDbLine
 10
-256.4245355967934
 20
130.8754928498685
 30
0.0
 11
-257.340768365684
 21
130.8754928498685
 31
0.0
  0
LINE
  5
16C
330
63
100
AcDbEntity
  8
0
  6
Continuous
 62
     0
100
AcDbLine
 10
-257.4466524405948
 20
131.2754948310375
 30
0.0
 11
-257.3553705677251
 21
130.8870613294642
 31
0.0
  0
LINE
  5
16D
330
63
100
AcDbEntity
  8
0
  6
Continuous
 62
     0
100
AcDbLine
 10
-256.4099333823127
 20
130.8870613294638
 30
0.0
 11
-256.3186515094429
 21
131.2754948310373
 31
0.0
  0
LINE
  5
16E
330
63
100
AcDbEntity
  8
0
  6
Continuous
 62
     0
100
AcDbLine
 10
-256.0078849938666
 20
131.9773238836689
 30
0.0
 11
-256.0578849938666
 21
131.3445866185151
 31
0.0
  0
LINE
  5
16F
330
63
100
AcDbEntity
  8
0
  6
Continuous
 62
     0
100
AcDbLine
 10
-257.7574188432077
 20
131.9773238836684
 30
0.0
 11
-257.7074188432077
 21
131.3445866185145
 31
0.0
  0
LINE
  5
170
330
63
100
AcDbEntity
  8
0
  6
Continuous
 62
     0
100
AcDbLine
 10
-257.6326519185361
 20
133.0334671463494
 30
0.0
 11
-256.1326519185361
 21
133.0334671463494
 31
0.0
  0
LINE
  5
171
330
63
100
AcDbEntity
  8
0
  6
Continuous
 62
     0
100
AcDbLine
 10
-256.007651918536
 20
131.9832320961918
 30
0.0
 11
-256.007651918536
 21
133.9005558619206
 31
0.0
  0
LINE
  5
172
330
63
100
AcDbEntity
  8
0
  6
Continuous
 62
     0
100
AcDbLine
 10
-257.6326519185361
 20
131.2754948310376
 30
0.0
 11
-256.1326519185361
 21
131.2754948310376
 31
0.0
  0
LINE
  5
173
330
63
100
AcDbEntity
  8
0
  6
Continuous
 62
     0
100
AcDbLine
 10
-257.757651918536
 20
131.9832320961918
 30
0.0
 11
-257.757651918536
 21
133.9005558619206
 31
0.0
  0
LINE
  5
174
330
63
100
AcDbEntity
  8
0
  6
Continuous
 62
     0
100
AcDbLine
 10
-257.6826519185361
 20
133.9755558619202
 30
0.0
 11
-256.082651918536
 21
133.9755558619202
 31
0.0
  0
LINE
  5
175
330
63
100
AcDbEntity
  8
0
  6
Continuous
 62
     0
100
AcDbLine
 10
-249.4826519185372
 20
125.206045300978
 30
0.0
 11
-249.5457144776711
 21
124.9466533144997
 31
0.0
  0
LINE
  5
176
330
63
100
AcDbEntity
  8
0
  6
Continuous
 62
     0
100
AcDbLine
 10
-263.6276008928144
 20
125.2003828682752
 30
0.0
 11
-263.982651918536
 21
125.2003828682752
 31
0.0
  0
LINE
  5
177
330
63
100
AcDbEntity
  8
0
  6
Continuous
 62
     0
100
AcDbLine
 10
-249.5326519185361
 20
120.1503828682751
 30
0.0
 11
-249.5326519185361
 21
124.7503828682751
 31
0.0
  0
LINE
  5
178
330
63
100
AcDbEntity
  8
0
  6
Continuous
 62
     0
100
AcDbLine
 10
-250.1377029442577
 20
125.2003828682752
 30
0.0
 11
-249.7826519185361
 21
125.2003828682752
 31
0.0
  0
LINE
  5
179
330
63
100
AcDbEntity
  8
0
  6
Continuous
 62
     0
100
AcDbLine
 10
-264.3826519185363
 20
120.150382868275
 30
0.0
 11
-264.2326519185364
 21
120.0003828682751
 31
0.0
  0
LINE
  5
17A
330
63
100
AcDbEntity
  8
0
  6
Continuous
 62
     0
100
AcDbLine
 10
-249.3826519185358
 20
120.1503828682749
 30
0.0
 11
-249.5326519185358
 21
120.0003828682749
 31
0.0
  0
LINE
  5
17B
330
63
100
AcDbEntity
  8
0
  6
Continuous
 62
     0
100
AcDbLine
 10
-264.232651918536
 20
120.1503828682751
 30
0.0
 11
-264.232651918536
 21
124.7503828682751
 31
0.0
  0
LINE
  5
17C
330
63
100
AcDbEntity
  8
0
  6
Continuous
 62
     0
100
AcDbLine
 10
-263.982651918536
 20
137.5003828682752
 30
0.0
 11
-249.7826519185361
 21
137.5003828682752
 31
0.0
  0
LINE
  5
17D
330
63
100
AcDbEntity
  8
0
  6
Continuous
 62
     0
100
AcDbLine
 10
-263.982651918536
 20
125.0003828682752
 30
0.0
 11
-249.7826519185361
 21
125.0003828682752
 31
0.0
  0
LINE
  5
17E
330
63
100
AcDbEntity
  8
0
  6
Continuous
 62
     0
100
AcDbLine
 10
-264.382651918536
 20
120.1503828682751
 30
0.0
 11
-264.382651918536
 21
137.1003828682756
 31
0.0
  0
LINE
  5
17F
330
63
100
AcDbEntity
  8
0
  6
Continuous
 62
     0
100
AcDbLine
 10
-249.382651918536
 20
120.1503828682751
 30
0.0
 11
-249.382651918536
 21
137.1003828682756
 31
0.0
  0
LINE
  5
180
330
63
100
AcDbEntity
  8
0
  6
Continuous
 62
     0
100
AcDbLine
 10
-262.8826519185361
 20
135.7503828682752
 30
0.0
 11
-250.8826519185361
 21
135.7503828682752
 31
0.0
  0
LINE
  5
181
330
63
100
AcDbEntity
  8
0
  6
Continuous
 62
     0
100
AcDbLine
 10
-251.820390788471
 20
134.2431396963922
 30
0.0
 11
-251.1547108433933
 21
134.7194451743358
 31
0.0
  0
LINE
  5
182
330
63
100
AcDbEntity
  8
0
  6
Continuous
 62
     0
100
AcDbLine
 10
-261.9449130486036
 20
134.2431396963905
 30
0.0
 11
-262.6105929936812
 21
134.719445174334
 31
0.0
  0
LINE
  5
183
330
63
100
AcDbEntity
  8
0
  6
Continuous
 62
     0
100
AcDbLine
 10
-253.6928654500132
 20
127.5700549071589
 30
0.0
 11
-251.882651918537
 21
133.7503828682756
 31
0.0
  0
LINE
  5
184
330
63
100
AcDbEntity
  8
0
  6
Continuous
 62
     0
100
AcDbLine
 10
-260.0724383870601
 20
127.5700549071585
 30
0.0
 11
-261.8826519185363
 21
133.7503828682752
 31
0.0
  0
LINE
  5
185
330
63
100
AcDbEntity
  8
0
  6
Continuous
 62
     0
100
AcDbLine
 10
-263.382651918536
 20
125.0003828682751
 30
0.0
 11
-263.382651918536
 21
135.2503828682756
 31
0.0
  0
LINE
  5
186
330
63
100
AcDbEntity
  8
0
  6
Continuous
 62
     0
100
AcDbLine
 10
-250.382651918536
 20
125.0003828682751
 30
0.0
 11
-250.382651918536
 21
135.2503828682756
 31
0.0
  0
LINE
  5
187
330
63
100
AcDbEntity
  8
0
  6
Continuous
 62
     0
100
AcDbLine
 10
-260.0299972407084
 20
125.0003828682751
 30
0.0
 11
-260.0299972407084
 21
127.2157638006508
 31
0.0
  0
LINE
  5
188
330
63
100
AcDbEntity
  8
0
  6
Continuous
 62
     0
100
AcDbLine
 10
-253.7353065963636
 20
125.0003828682751
 30
0.0
 11
-253.7353065963636
 21
127.2157638006508
 31
0.0
  0
LINE
  5
189
330
63
100
AcDbEntity
  8
0
  6
PHANTOM
 62
     0
100
AcDbLine
 10
-264.2826522158449
 20
118.8503828682753
 30
0.0
 11
-249.4826522158449
 21
104.5503828682751
 31
0.0
  0
LINE
  5
18A
330
63
100
AcDbEntity
  8
0
  6
PHANTOM
 62
     0
100
AcDbLine
 10
-249.4826522158448
 20
104.5503828682751
 30
0.0
 11
-264.2826522158449
 21
90.25038286827522
 31
0.0
  0
ARC
  5
18B
330
63
100
AcDbEntity
  8
0
  6
Continuous
 62
     0
100
AcDbCircle
 10
-264.1826522158451
 20
85.07538286827523
 30
0.0
 40
0.075
100
AcDbArc
 50
180.0000000000001
 51
270.0000000000001
  0
ARC
  5
18C
330
63
100
AcDbEntity
  8
0
  6
Continuous
 62
     0
100
AcDbCircle
 10
-263.8326522158451
 20
85.07538286827523
 30
0.0
 40
0.075
100
AcDbArc
 50
270.0000000000001
 51
0.000000000000102
  0
ARC
  5
18D
330
63
100
AcDbEntity
  8
0
  6
Continuous
 62
     0
100
AcDbCircle
 10
-249.582651621227
 20
85.07538286827523
 30
0.0
 40
0.075
100
AcDbArc
 50
270.0
 51
0.0
  0
ARC
  5
18E
330
63
100
AcDbEntity
  8
0
  6
Continuous
 62
     0
100
AcDbCircle
 10
-249.932651621227
 20
85.07538286827523
 30
0.0
 40
0.075
100
AcDbArc
 50
180.0
 51
269.9999999999999
  0
ARC
  5
18F
330
63
100
AcDbEntity
  8
0
  6
Continuous
 62
     0
100
AcDbCircle
 10
-257.6826519185361
 20
133.9005558619202
 30
0.0
 40
0.075
100
AcDbArc
 50
90.00000000000003
 51
180.0
  0
ARC
  5
190
330
63
100
AcDbEntity
  8
0
  6
Continuous
 62
     0
100
AcDbCircle
 10
-257.632651918536
 20
131.3504948310376
 30
0.0
 40
0.075
100
AcDbArc
 50
180.0
 51
270.0
  0
ARC
  5
191
330
63
100
AcDbEntity
  8
0
  6
Continuous
 62
     0
100
AcDbCircle
 10
-257.6826519185361
 20
131.9832320961914
 30
0.0
 40
0.075
100
AcDbArc
 50
180.0
 51
184.5182232478292
  0
ARC
  5
192
330
63
100
AcDbEntity
  8
0
  6
Continuous
 62
     0
100
AcDbCircle
 10
-256.082651918536
 20
131.9832320961914
 30
0.0
 40
0.075
100
AcDbArc
 50
355.4817767521707
 51
0.0
  0
ARC
  5
193
330
63
100
AcDbEntity
  8
0
  6
Continuous
 62
     0
100
AcDbCircle
 10
-256.082651918536
 20
133.9005558619202
 30
0.0
 40
0.075
100
AcDbArc
 50
0.0
 51
90.00000000000003
  0
ARC
  5
194
330
63
100
AcDbEntity
  8
0
  6
Continuous
 62
     0
100
AcDbCircle
 10
-256.132651918536
 20
131.3504948310376
 30
0.0
 40
0.075
100
AcDbArc
 50
270.0
 51
0.0
  0
ARC
  5
195
330
63
100
AcDbEntity
  8
0
  6
Continuous
 62
     0
100
AcDbCircle
 10
-257.632651918536
 20
132.9584671463494
 30
0.0
 40
0.075
100
AcDbArc
 50
90.0
 51
180.0
  0
ARC
  5
196
330
63
100
AcDbEntity
  8
0
  6
Continuous
 62
     0
100
AcDbCircle
 10
-256.132651918536
 20
132.9584671463494
 30
0.0
 40
0.075
100
AcDbArc
 50
0.0
 51
90.00000000000003
  0
ARC
  5
197
330
63
100
AcDbEntity
  8
0
  6
Continuous
 62
     0
100
AcDbCircle
 10
-256.4245355967934
 20
130.8904928498673
 30
0.0
 40
0.0150000000000034
100
AcDbArc
 50
270.0000000000005
 51
346.7754488077856
  0
ARC
  5
198
330
63
100
AcDbEntity
  8
0
  6
Continuous
 62
     0
100
AcDbCircle
 10
-257.3407683532438
 20
130.8904928498673
 30
0.0
 40
0.0150000000000034
100
AcDbArc
 50
193.2245511922139
 51
270.0000000000004
  0
ARC
  5
199
330
63
100
AcDbEntity
  8
0
  6
Continuous
 62
     0
100
AcDbCircle
 10
-263.6276008928144
 20
124.9503828682752
 30
0.0
 40
0.25
100
AcDbArc
 50
11.53695903281552
 51
90.0
  0
ARC
  5
19A
330
63
100
AcDbEntity
  8
0
  6
Continuous
 62
     0
100
AcDbCircle
 10
-250.1377029442577
 20
124.9503828682752
 30
0.0
 40
0.25
100
AcDbArc
 50
90.0
 51
168.4630409671845
  0
ARC
  5
19B
330
63
100
AcDbEntity
  8
0
  6
Continuous
 62
     0
100
AcDbCircle
 10
-261.5299972407084
 20
127.2157638006509
 30
0.0
 40
1.5
100
AcDbArc
 50
0.0
 51
13.66201962080777
  0
ARC
  5
19C
330
63
100
AcDbEntity
  8
0
  6
Continuous
 62
     0
100
AcDbCircle
 10
-252.2353065963636
 20
127.2157638006509
 30
0.0
 40
1.5
100
AcDbArc
 50
166.3379803791922
 51
180.0
  0
ARC
  5
19D
330
63
100
AcDbEntity
  8
0
  6
Continuous
 62
     0
100
AcDbCircle
 10
-263.982651918536
 20
124.9503828682752
 30
0.0
 40
0.25
100
AcDbArc
 50
90.0
 51
147.0614706539728
  0
ARC
  5
19E
330
63
100
AcDbEntity
  8
0
  6
Continuous
 62
     0
100
AcDbCircle
 10
-249.7826519185361
 20
124.9503828682752
 30
0.0
 40
0.25
100
AcDbArc
 50
32.93852934602718
 51
90.0
  0
ARC
  5
19F
330
63
100
AcDbEntity
  8
0
  6
Continuous
 62
     0
100
AcDbCircle
 10
-262.882651918536
 20
135.2503828682752
 30
0.0
 40
0.5
100
AcDbArc
 50
90.00000000000003
 51
180.0
  0
ARC
  5
1A0
330
63
100
AcDbEntity
  8
0
  6
Continuous
 62
     0
100
AcDbCircle
 10
-250.882651918536
 20
135.2503828682752
 30
0.0
 40
0.5
100
AcDbArc
 50
0.0
 51
90.00000000000003
  0
ARC
  5
1A1
330
63
100
AcDbEntity
  8
0
  6
Continuous
 62
     0
100
AcDbCircle
 10
-249.7826519185361
 20
124.7503828682752
 30
0.0
 40
0.25
100
AcDbArc
 50
0.0
 51
90.0
  0
ARC
  5
1A2
330
63
100
AcDbEntity
  8
0
  6
Continuous
 62
     0
100
AcDbCircle
 10
-263.982651918536
 20
124.7503828682752
 30
0.0
 40
0.25
100
AcDbArc
 50
90.0
 51
180.0
  0
ARC
  5
1A3
330
63
100
AcDbEntity
  8
0
  6
Continuous
 62
     0
100
AcDbCircle
 10
-263.982651918536
 20
137.1003828682752
 30
0.0
 40
0.4
100
AcDbArc
 50
90.0
 51
180.0
  0
ARC
  5
1A4
330
63
100
AcDbEntity
  8
0
  6
Continuous
 62
     0
100
AcDbCircle
 10
-249.7826519185361
 20
137.1003828682752
 30
0.0
 40
0.4
100
AcDbArc
 50
0.0
 51
90.0
  0
ENDBLK
  5
65
330
63
100
AcDbEntity
  8
0
100
AcDbBlockEnd
  0
BLOCK
  5
67
330
66
100
AcDbEntity
  8
0
100
AcDbBlockBegin
  2
VIS_ULD26R___DN0013
 70
     0
 10
0.0
 20
0.0
 30
0.0
  3
VIS_ULD26R___DN0013
  1

  0
LINE
  5
1A5
330
66
100
AcDbEntity
  8
0
  6
Continuous
 62
     0
100
AcDbLine
 10
-124.1326526134705
 20
118.850382868275
 30
0.0
 11
-124.8826526134705
 21
118.850382868275
 31
0.0
  0
LINE
  5
1A6
330
66
100
AcDbEntity
  8
0
  6
Continuous
 62
     0
100
AcDbLine
 10
-124.8826526134705
 20
118.8503828682749
 30
0.0
 11
-124.8826526134705
 21
90.25038286827488
 31
0.0
  0
LINE
  5
1A7
330
66
100
AcDbEntity
  8
0
  6
Continuous
 62
     0
100
AcDbLine
 10
-124.1326526134705
 20
118.8503828682749
 30
0.0
 11
-124.1326526134705
 21
90.25038286827488
 31
0.0
  0
LINE
  5
1A8
330
66
100
AcDbEntity
  8
0
  6
Continuous
 62
     0
100
AcDbLine
 10
-124.1326526134705
 20
90.25038286827497
 30
0.0
 11
-124.8826526134705
 21
90.25038286827497
 31
0.0
  0
LINE
  5
1A9
330
66
100
AcDbEntity
  8
0
  6
Continuous
 62
     0
100
AcDbLine
 10
-120.6326526134705
 20
119.1003828682741
 30
0.0
 11
-120.6326526134705
 21
90.3503828682741
 31
0.0
  0
LINE
  5
1AA
330
66
100
AcDbEntity
  8
0
  6
Continuous
 62
     0
100
AcDbLine
 10
-123.9326526134705
 20
119.1003828682742
 30
0.0
 11
-120.6326526134705
 21
119.1003828682742
 31
0.0
  0
LINE
  5
1AB
330
66
100
AcDbEntity
  8
0
  6
DASHED
 62
     0
100
AcDbLine
 10
-120.6326526134702
 20
90.8503828682742
 30
0.0
 11
-116.1326526134704
 21
90.8503828682742
 31
0.0
  0
LINE
  5
1AC
330
66
100
AcDbEntity
  8
0
  6
DASHED
 62
     0
100
AcDbLine
 10
-116.1326526134705
 20
119.1003828682741
 30
0.0
 11
-116.1326526134705
 21
90.85038286827411
 31
0.0
  0
LINE
  5
1AD
330
66
100
AcDbEntity
  8
0
  6
DASHED
 62
     0
100
AcDbLine
 10
-117.1733697877289
 20
119.9758191784349
 30
0.0
 11
-117.1585101350733
 21
119.1245102479522
 31
0.0
  0
LINE
  5
1AE
330
66
100
AcDbEntity
  8
0
  6
DASHED
 62
     0
100
AcDbLine
 10
-118.3919354392144
 20
119.975819178435
 30
0.0
 11
-118.40679509187
 21
119.1245102479522
 31
0.0
  0
LINE
  5
1AF
330
66
100
AcDbEntity
  8
0
  6
DASHED
 62
     0
100
AcDbLine
 10
-118.3669392552675
 20
120.0003828682742
 30
0.0
 11
-117.1983659716732
 21
120.0003828682742
 31
0.0
  0
LINE
  5
1B0
330
66
100
AcDbEntity
  8
0
  6
Continuous
 62
     0
100
AcDbLine
 10
-123.9326526134705
 20
119.1003828682741
 30
0.0
 11
-123.9326526134705
 21
90.3503828682741
 31
0.0
  0
LINE
  5
1B1
330
66
100
AcDbEntity
  8
0
  6
DASHED
 62
     0
100
AcDbLine
 10
-120.6326526134705
 20
119.1003828682742
 30
0.0
 11
-116.1326526134704
 21
119.1003828682742
 31
0.0
  0
LINE
  5
1B2
330
66
100
AcDbEntity
  8
0
  6
DASHED
 62
     0
100
AcDbLine
 10
-120.6326526134697
 20
119.1003828682741
 30
0.0
 11
-120.63265261347
 21
91.75038286827407
 31
0.0
  0
LINE
  5
1B3
330
66
100
AcDbEntity
  8
0
  6
Continuous
 62
     0
100
AcDbLine
 10
-123.9326526134704
 20
85.25038286827483
 30
0.0
 11
-120.6326526134703
 21
85.25038286827478
 31
0.0
  0
LINE
  5
1B4
330
66
100
AcDbEntity
  8
0
  6
Continuous
 62
     0
100
AcDbLine
 10
-120.63265261347
 20
91.75038286827407
 30
0.0
 11
-120.6326526134701
 21
85.25038286827412
 31
0.0
  0
LINE
  5
1B5
330
66
100
AcDbEntity
  8
0
  6
DASHED
 62
     0
100
AcDbLine
 10
-121.2326526134704
 20
119.1003828682747
 30
0.0
 11
-120.6326526134705
 21
119.1003828682747
 31
0.0
  0
LINE
  5
1B6
330
66
100
AcDbEntity
  8
0
  6
Continuous
 62
     0
100
AcDbLine
 10
-123.9326526134704
 20
119.1003828682747
 30
0.0
 11
-121.2326526134704
 21
119.1003828682747
 31
0.0
  0
LINE
  5
1B7
330
66
100
AcDbEntity
  8
0
  6
Continuous
 62
     0
100
AcDbLine
 10
-123.9326526134698
 20
119.1003828682741
 30
0.0
 11
-123.9326526134702
 21
85.25038286827409
 31
0.0
  0
LINE
  5
1B8
330
66
100
AcDbEntity
  8
0
  6
Continuous
 62
     0
100
AcDbLine
 10
-122.8826526134701
 20
85.25038286827535
 30
0.0
 11
-123.38265261347
 21
85.25038286827537
 31
0.0
  0
LINE
  5
1B9
330
66
100
AcDbEntity
  8
0
  6
Continuous
 62
     0
100
AcDbLine
 10
-122.9576526134701
 20
85.00038286827521
 30
0.0
 11
-123.30765261347
 21
85.00038286827522
 31
0.0
  0
LINE
  5
1BA
330
66
100
AcDbEntity
  8
0
  6
Continuous
 62
     0
100
AcDbLine
 10
-122.8826526134699
 20
85.25038286827471
 30
0.0
 11
-122.8826526134699
 21
85.07538286827474
 31
0.0
  0
LINE
  5
1BB
330
66
100
AcDbEntity
  8
0
  6
Continuous
 62
     0
100
AcDbLine
 10
-123.38265261347
 20
85.25038286827466
 30
0.0
 11
-123.38265261347
 21
85.0753828682747
 31
0.0
  0
LINE
  5
1BC
330
66
100
AcDbEntity
  8
0
  6
Continuous
 62
     0
100
AcDbLine
 10
-121.3826526134701
 20
85.25038286827534
 30
0.0
 11
-121.88265261347
 21
85.25038286827534
 31
0.0
  0
LINE
  5
1BD
330
66
100
AcDbEntity
  8
0
  6
Continuous
 62
     0
100
AcDbLine
 10
-121.4576526134701
 20
85.0003828682752
 30
0.0
 11
-121.80765261347
 21
85.0003828682752
 31
0.0
  0
LINE
  5
1BE
330
66
100
AcDbEntity
  8
0
  6
Continuous
 62
     0
100
AcDbLine
 10
-121.3826526134699
 20
85.25038286827468
 30
0.0
 11
-121.3826526134699
 21
85.07538286827473
 31
0.0
  0
LINE
  5
1BF
330
66
100
AcDbEntity
  8
0
  6
Continuous
 62
     0
100
AcDbLine
 10
-121.88265261347
 20
85.25038286827466
 30
0.0
 11
-121.88265261347
 21
85.0753828682747
 31
0.0
  0
LINE
  5
1C0
330
66
100
AcDbEntity
  8
0
  6
Continuous
 62
     0
100
AcDbLine
 10
-124.5326526134701
 20
85.27538286827588
 30
0.0
 11
-123.9326526134701
 21
85.27538286827587
 31
0.0
  0
LINE
  5
1C1
330
66
100
AcDbEntity
  8
0
  6
Continuous
 62
     0
100
AcDbLine
 10
-124.5326526134698
 20
90.0003828682752
 30
0.0
 11
-124.5326526134698
 21
85.27538286827524
 31
0.0
  0
LINE
  5
1C2
330
66
100
AcDbEntity
  8
0
  6
Continuous
 62
     0
100
AcDbLine
 10
-123.9326526134702
 20
90.0003828682759
 30
0.0
 11
-124.5326526134701
 21
90.00038286827592
 31
0.0
  0
LINE
  5
1C3
330
66
100
AcDbEntity
  8
0
  6
Continuous
 62
     0
100
AcDbLine
 10
-123.9326526134699
 20
90.00038286827521
 30
0.0
 11
-123.9326526134699
 21
85.2753828682752
 31
0.0
  0
LINE
  5
1C4
330
66
100
AcDbEntity
  8
0
  6
DASHED
 62
     0
100
AcDbLine
 10
-116.4455378050558
 20
126.7946682328671
 30
0.0
 11
-116.8823444602004
 21
126.9709430395843
 31
0.0
  0
LINE
  5
1C5
330
66
100
AcDbEntity
  8
0
  6
DASHED
 62
     0
100
AcDbLine
 10
-118.9826526134697
 20
120.0003828682746
 30
0.0
 11
-118.9826526134697
 21
120.1503828682746
 31
0.0
  0
LINE
  5
1C6
330
66
100
AcDbEntity
  8
0
  6
Continuous
 62
     0
100
AcDbLine
 10
-120.6326526134697
 20
120.0003828682746
 30
0.0
 11
-120.6326526134697
 21
137.5003828682751
 31
0.0
  0
LINE
  5
1C7
330
66
100
AcDbEntity
  8
0
  6
Continuous
 62
     0
100
AcDbLine
 10
-122.1326526134697
 20
125.8553169205941
 30
0.0
 11
-122.1326526134697
 21
137.1197169407076
 31
0.0
  0
LINE
  5
1C8
330
66
100
AcDbEntity
  8
0
  6
DASHED
 62
     0
100
AcDbLine
 10
-116.4455378050558
 20
128.8446682328673
 30
0.0
 11
-116.8823444602003
 21
129.0209430395845
 31
0.0
  0
LINE
  5
1C9
330
66
100
AcDbEntity
  8
0
  6
DASHED
 62
     0
100
AcDbLine
 10
-116.1326526134697
 20
120.2503828682746
 30
0.0
 11
-116.1326526134697
 21
128.3810001959344
 31
0.0
  0
LINE
  5
1CA
330
66
100
AcDbEntity
  8
0
  6
DASHED
 62
     0
100
AcDbLine
 10
-116.1326526134697
 20
134.2353793908779
 30
0.0
 11
-116.1326526134697
 21
130.1190839467755
 31
0.0
  0
LINE
  5
1CB
330
66
100
AcDbEntity
  8
0
  6
DASHED
 62
     0
100
AcDbLine
 10
-120.6326526134697
 20
135.4639039646653
 30
0.0
 11
-119.9773715546707
 21
135.0867283249696
 31
0.0
  0
LINE
  5
1CC
330
66
100
AcDbEntity
  8
0
  6
DASHED
 62
     0
100
AcDbLine
 10
-116.8823444602007
 20
129.6478421816265
 30
0.0
 11
-116.2890952092629
 21
129.8872499283093
 31
0.0
  0
LINE
  5
1CD
330
66
100
AcDbEntity
  8
0
  6
DASHED
 62
     0
100
AcDbLine
 10
-118.9826526134698
 20
120.1503828682752
 30
0.0
 11
-116.1326526134698
 21
120.2503828682752
 31
0.0
  0
LINE
  5
1CE
330
66
100
AcDbEntity
  8
0
  6
Continuous
 62
     0
100
AcDbLine
 10
-120.6326526134696
 20
137.5003828682756
 30
0.0
 11
-121.8526083166268
 21
137.4190524880651
 31
0.0
  0
LINE
  5
1CF
330
66
100
AcDbEntity
  8
0
  6
DASHED
 62
     0
100
AcDbLine
 10
-117.1326526134697
 20
127.341877469129
 30
0.0
 11
-117.1326526134697
 21
129.276907752081
 31
0.0
  0
LINE
  5
1D0
330
66
100
AcDbEntity
  8
0
  6
DASHED
 62
     0
100
AcDbLine
 10
-116.4810675961681
 20
134.6320391770806
 30
0.0
 11
-119.9773715546706
 21
135.0867283249707
 31
0.0
  0
LINE
  5
1D1
330
66
100
AcDbEntity
  8
0
  6
Continuous
 62
     0
100
AcDbLine
 10
-124.7326526134697
 20
120.0003828682747
 30
0.0
 11
-120.6326526134697
 21
120.0003828682747
 31
0.0
  0
LINE
  5
1D2
330
66
100
AcDbEntity
  8
0
  6
Continuous
 62
     0
100
AcDbLine
 10
-124.8826526134692
 20
120.1503828682749
 30
0.0
 11
-124.7326526134693
 21
120.0003828682749
 31
0.0
  0
LINE
  5
1D3
330
66
100
AcDbEntity
  8
0
  6
Continuous
 62
     0
100
AcDbLine
 10
-122.8507665760011
 20
125.105995040083
 30
0.0
 11
-125.3326526134697
 21
125.0003828682758
 31
0.0
  0
LINE
  5
1D4
330
66
100
AcDbEntity
  8
0
  6
DASHED
 62
     0
100
AcDbLine
 10
-120.6326526134697
 20
120.0003828682747
 30
0.0
 11
-118.9826526134697
 21
120.0003828682747
 31
0.0
  0
LINE
  5
1D5
330
66
100
AcDbEntity
  8
0
  6
CENTER
 62
     0
100
AcDbLine
 10
-118.3056526134699
 20
109.3503828682752
 30
0.0
 11
-118.9596526134699
 21
109.3503828682752
 31
0.0
  0
LINE
  5
1D6
330
66
100
AcDbEntity
  8
0
  6
CENTER
 62
     0
100
AcDbLine
 10
-118.6326526134699
 20
109.6773828682751
 30
0.0
 11
-118.6326526134699
 21
109.0233828682751
 31
0.0
  0
LINE
  5
1D7
330
66
100
AcDbEntity
  8
0
  6
CENTER
 62
     0
100
AcDbLine
 10
-118.30565261347
 20
96.35038286827522
 30
0.0
 11
-118.95965261347
 21
96.35038286827522
 31
0.0
  0
LINE
  5
1D8
330
66
100
AcDbEntity
  8
0
  6
CENTER
 62
     0
100
AcDbLine
 10
-118.63265261347
 20
96.67738286827512
 30
0.0
 11
-118.63265261347
 21
96.02338286827512
 31
0.0
  0
ARC
  5
1D9
330
66
100
AcDbEntity
  8
0
  6
DASHED
 62
     0
100
AcDbCircle
 10
-118.366939246834
 20
119.9753828682742
 30
0.0
 40
0.025
100
AcDbArc
 50
90.0
 51
179.0000000000113
  0
ARC
  5
1DA
330
66
100
AcDbEntity
  8
0
  6
DASHED
 62
     0
100
AcDbCircle
 10
-118.4567874766262
 20
119.1253828682743
 30
0.0
 40
0.05
100
AcDbArc
 50
329.9999999999849
 51
358.9999999999982
  0
ARC
  5
1DB
330
66
100
AcDbEntity
  8
0
  6
DASHED
 62
     0
100
AcDbCircle
 10
-117.1085177503143
 20
119.1253828682743
 30
0.0
 40
0.05
100
AcDbArc
 50
181.0000000000018
 51
210.0000000000151
  0
ARC
  5
1DC
330
66
100
AcDbEntity
  8
0
  6
DASHED
 62
     0
100
AcDbCircle
 10
-117.1983659801067
 20
119.9753828682742
 30
0.0
 40
0.025
100
AcDbArc
 50
0.999999999988745
 51
90.0
  0
ARC
  5
1DD
330
66
100
AcDbEntity
  8
0
  6
Continuous
 62
     0
100
AcDbCircle
 10
-122.9576526134703
 20
85.07538286827484
 30
0.0
 40
0.075
100
AcDbArc
 50
269.9999999999994
 51
359.9999999999994
  0
ARC
  5
1DE
330
66
100
AcDbEntity
  8
0
  6
Continuous
 62
     0
100
AcDbCircle
 10
-123.3076526134702
 20
85.07538286827479
 30
0.0
 40
0.075
100
AcDbArc
 50
179.9999999999993
 51
269.9999999999994
  0
ARC
  5
1DF
330
66
100
AcDbEntity
  8
0
  6
Continuous
 62
     0
100
AcDbCircle
 10
-121.4576526134703
 20
85.07538286827481
 30
0.0
 40
0.075
100
AcDbArc
 50
269.9999999999994
 51
359.9999999999994
  0
ARC
  5
1E0
330
66
100
AcDbEntity
  8
0
  6
Continuous
 62
     0
100
AcDbCircle
 10
-121.8076526134702
 20
85.07538286827479
 30
0.0
 40
0.075
100
AcDbArc
 50
179.9999999999993
 51
269.9999999999994
  0
ARC
  5
1E1
330
66
100
AcDbEntity
  8
0
  6
Continuous
 62
     0
100
AcDbCircle
 10
-125.3326526134697
 20
124.7003828682747
 30
0.0
 40
0.3
100
AcDbArc
 50
90.0
 51
180.0000000000023
  0
ARC
  5
1E2
330
66
100
AcDbEntity
  8
0
  6
Continuous
 62
     0
100
AcDbCircle
 10
-75.97586506204212
 20
130.5487544426858
 30
0.0
 40
49.99999999999998
100
AcDbArc
 50
186.7171165296123
 51
192.0032650742143
  0
ARC
  5
1E3
330
66
100
AcDbEntity
  8
0
  6
DASHED
 62
     0
100
AcDbCircle
 10
-116.6326526134697
 20
128.3810001959344
 30
0.0
 40
0.5
100
AcDbArc
 50
0.0
 51
68.02329354015389
  0
ARC
  5
1E4
330
66
100
AcDbEntity
  8
0
  6
DASHED
 62
     0
100
AcDbCircle
 10
-116.3826526134697
 20
130.1190839467751
 30
0.0
 40
0.25
100
AcDbArc
 50
291.9767064598461
 51
0.0
  0
ARC
  5
1E5
330
66
100
AcDbEntity
  8
0
  6
DASHED
 62
     0
100
AcDbCircle
 10
-116.7326526134697
 20
129.2769077520807
 30
0.0
 40
0.4
100
AcDbArc
 50
111.9767064598461
 51
180.0
  0
ARC
  5
1E6
330
66
100
AcDbEntity
  8
0
  6
DASHED
 62
     0
100
AcDbCircle
 10
-116.5326526134697
 20
134.2353793908775
 30
0.0
 40
0.4
100
AcDbArc
 50
0.0
 51
82.59035421727698
  0
ARC
  5
1E7
330
66
100
AcDbEntity
  8
0
  6
DASHED
 62
     0
100
AcDbCircle
 10
-116.7326526134697
 20
129.3918774691292
 30
0.0
 40
0.4
100
AcDbArc
 50
188.2627095455478
 51
248.0232935401539
  0
ARC
  5
1E8
330
66
100
AcDbEntity
  8
0
  6
Continuous
 62
     0
100
AcDbCircle
 10
-121.8326526134697
 20
137.1197169407072
 30
0.0
 40
0.3
100
AcDbArc
 50
93.81407483429135
 51
180.0
  0
ARC
  5
1E9
330
66
100
AcDbEntity
  8
0
  6
DASHED
 62
     0
100
AcDbCircle
 10
-116.7326526134697
 20
127.3418774691291
 30
0.0
 40
0.4
100
AcDbArc
 50
180.0
 51
248.0232935401539
  0
ARC
  5
1EA
330
66
100
AcDbEntity
  8
0
  6
Continuous
 62
     0
100
AcDbCircle
 10
-122.8826526134697
 20
125.8553169205943
 30
0.0
 40
0.75
100
AcDbArc
 50
272.436648246809
 51
0.0
  0
ARC
  5
1EB
330
66
100
AcDbEntity
  8
0
  6
DASHED
 62
     0
100
AcDbCircle
 10
-116.6326526134697
 20
126.3310001959344
 30
0.0
 40
0.5
100
AcDbArc
 50
0.0
 51
68.02329354015389
  0
CIRCLE
  5
1EC
330
66
100
AcDbEntity
  8
0
  6
DASHED
 62
     0
100
AcDbCircle
 10
-118.6326526134699
 20
109.3503828682752
 30
0.0
 40
0.2
  0
CIRCLE
  5
1ED
330
66
100
AcDbEntity
  8
0
  6
DASHED
 62
     0
100
AcDbCircle
 10
-118.63265261347
 20
96.35038286827522
 30
0.0
 40
0.2
  0
ENDBLK
  5
68
330
66
100
AcDbEntity
  8
0
100
AcDbBlockEnd
  0
BLOCK
  5
22E
330
22D
100
AcDbEntity
  8
0
100
AcDbBlockBegin
  2
_DOT
 70
     0
 10
0.0
 20
0.0
 30
0.0
  3
_DOT
  1

  0
POLYLINE
  5
230
330
22D
100
AcDbEntity
  8
0
  6
ByBlock
 62
     0
100
AcDb2dPolyline
 66
     1
 10
0.0
 20
0.0
 30
0.0
 70
     1
 40
0.5
 41
0.5
  0
VERTEX
  5
232
330
230
100
AcDbEntity
  8
0
  6
ByBlock
 62
     0
100
AcDbVertex
100
AcDb2dVertex
 10
-0.25
 20
0.0
 30
0.0
 42
1.0
  0
VERTEX
  5
233
330
230
100
AcDbEntity
  8
0
  6
ByBlock
 62
     0
100
AcDbVertex
100
AcDb2dVertex
 10
0.25
 20
0.0
 30
0.0
 42
1.0
  0
SEQEND
  5
234
330
230
100
AcDbEntity
  8
0
  6
ByBlock
 62
     0
  0
LINE
  5
231
330
22D
100
AcDbEntity
  8
0
  6
ByBlock
 62
     0
370
    -2
100
AcDbLine
 10
-0.5
 20
0.0
 30
0.0
 11
-1.0
 21
0.0
 31
0.0
  0
ENDBLK
  5
22F
330
22D
100
AcDbEntity
  8
0
100
AcDbBlockEnd
  0
BLOCK
  5
243
330
236
100
AcDbEntity
  8
0
100
AcDbBlockBegin
  2
*D16
 70
     1
 10
0.0
 20
0.0
 30
0.0
  3
*D16
  1

  0
LINE
  5
237
330
236
100
AcDbEntity
  8
0
 62
     0
370
    -2
100
AcDbLine
 10
-118.6326526134702
 20
93.48338286827511
 30
0.0
 11
-118.6326526134702
 21
64.6999999999999
 31
0.0
  0
LINE
  5
238
330
236
100
AcDbEntity
  8
0
 62
     0
370
    -2
100
AcDbLine
 10
-120.6326526134702
 20
82.46038286827512
 30
0.0
 11
-120.6326526134702
 21
64.6999999999999
 31
0.0
  0
LINE
  5
239
330
236
100
AcDbEntity
  8
0
 62
     0
370
    -2
100
AcDbLine
 10
-120.6326526134702
 20
66.7
 30
0.0
 11
-157.6403966483505
 21
66.7
 31
0.0
  0
LINE
  5
23A
330
236
100
AcDbEntity
  8
0
 62
     0
370
    -2
100
AcDbLine
 10
-118.6326526134702
 20
66.7
 30
0.0
 11
-120.6326526134702
 21
66.7
 31
0.0
  0
LINE
  5
23B
330
236
100
AcDbEntity
  8
0
 62
     0
370
    -2
100
AcDbLine
 10
-117.6326526134702
 20
66.7
 30
0.0
 11
-116.6326526134702
 21
66.7
 31
0.0
  0
LINE
  5
23C
330
236
100
AcDbEntity
  8
0
 62
     0
370
    -2
100
AcDbLine
 10
-121.6326526134702
 20
66.7
 30
0.0
 11
-122.6326526134702
 21
66.7
 31
0.0
  0
INSERT
  5
23D
330
236
100
AcDbEntity
  8
0
 62
     0
370
    -2
100
AcDbBlockReference
  2
_DOT
 10
-118.6326526134702
 20
66.7
 30
0.0
 50
180.0
  0
INSERT
  5
23E
330
236
100
AcDbEntity
  8
0
 62
     0
370
    -2
100
AcDbBlockReference
  2
_DOT
 10
-120.6326526134702
 20
66.7
 30
0.0
  0
MTEXT
  5
23F
330
236
100
AcDbEntity
  8
0
 62
     0
100
AcDbMText
 10
-140.6046823626363
 20
68.95
 30
0.0
 40
3.0
 41
0.0
 71
     5
 72
     1
  1
４０（手洗器キャビネット）
 73
     1
 44
1.0
  0
POINT
  5
240
330
236
100
AcDbEntity
  8
Defpoints
 62
     0
100
AcDbPoint
 10
-118.6326526134702
 20
96.02338286827512
 30
0.0
  0
POINT
  5
241
330
236
100
AcDbEntity
  8
Defpoints
 62
     0
100
AcDbPoint
 10
-120.6326526134702
 20
85.00038286827512
 30
0.0
  0
POINT
  5
242
330
236
100
AcDbEntity
  8
Defpoints
 62
     0
100
AcDbPoint
 10
-120.6326526134702
 20
66.7
 30
0.0
  0
ENDBLK
  5
244
330
236
100
AcDbEntity
  8
0
100
AcDbBlockEnd
  0
BLOCK
  5
251
330
246
100
AcDbEntity
  8
0
100
AcDbBlockBegin
  2
*D17
 70
     1
 10
0.0
 20
0.0
 30
0.0
  3
*D17
  1

  0
LINE
  5
247
330
246
100
AcDbEntity
  8
0
 62
     0
370
    -2
100
AcDbLine
 10
-115.7656526134702
 20
96.35038286827522
 30
0.0
 11
-107.7653052269403
 21
96.35038286827522
 31
0.0
  0
LINE
  5
248
330
246
100
AcDbEntity
  8
0
 62
     0
370
    -2
100
AcDbLine
 10
-118.0926526134701
 20
85.00038286827522
 30
0.0
 11
-107.7653052269403
 21
85.00038286827522
 31
0.0
  0
LINE
  5
249
330
246
100
AcDbEntity
  8
0
 62
     0
370
    -2
100
AcDbLine
 10
-109.7653052269403
 20
85.00038286827522
 30
0.0
 11
-109.7653052269403
 21
45.77865949876887
 31
0.0
  0
LINE
  5
24A
330
246
100
AcDbEntity
  8
0
 62
     0
370
    -2
100
AcDbLine
 10
-109.7653052269403
 20
95.35038286827522
 30
0.0
 11
-109.7653052269403
 21
86.00038286827522
 31
0.0
  0
INSERT
  5
24B
330
246
100
AcDbEntity
  8
0
 62
     0
370
    -2
100
AcDbBlockReference
  2
_DOT
 10
-109.7653052269403
 20
96.35038286827522
 30
0.0
 50
90.0
  0
INSERT
  5
24C
330
246
100
AcDbEntity
  8
0
 62
     0
370
    -2
100
AcDbBlockReference
  2
_DOT
 10
-109.7653052269403
 20
85.00038286827522
 30
0.0
 50
270.0
  0
MTEXT
  5
24D
330
246
100
AcDbEntity
  8
0
 62
     0
100
AcDbMText
 10
-112.0153052269403
 20
64.10008807019743
 30
0.0
 40
3.0
 41
0.0
 71
     5
 72
     1
  1
２２７（手洗器キャビネット）
 11
0.0
 21
1.0
 31
0.0
 73
     1
 44
1.0
  0
POINT
  5
24E
330
246
100
AcDbEntity
  8
Defpoints
 62
     0
100
AcDbPoint
 10
-118.3056526134702
 20
96.35038286827522
 30
0.0
  0
POINT
  5
24F
330
246
100
AcDbEntity
  8
Defpoints
 62
     0
100
AcDbPoint
 10
-120.6326526134701
 20
85.00038286827522
 30
0.0
  0
POINT
  5
250
330
246
100
AcDbEntity
  8
Defpoints
 62
     0
100
AcDbPoint
 10
-109.7653052269403
 20
85.00038286827522
 30
0.0
  0
ENDBLK
  5
252
330
246
100
AcDbEntity
  8
0
100
AcDbBlockEnd
  0
BLOCK
  5
25D
330
254
100
AcDbEntity
  8
0
100
AcDbBlockBegin
  2
*D18
 70
     1
 10
0.0
 20
0.0
 30
0.0
  3
*D18
  1

  0
LINE
  5
255
330
254
100
AcDbEntity
  8
0
 62
     0
370
    -2
100
AcDbLine
 10
-115.7656526134702
 20
109.3503828682752
 30
0.0
 11
-107.7653052269403
 21
109.3503828682752
 31
0.0
  0
LINE
  5
256
330
254
100
AcDbEntity
  8
0
 62
     0
370
    -2
100
AcDbLine
 10
-109.7653052269403
 20
97.3503828682752
 30
0.0
 11
-109.7653052269403
 21
108.3503828682752
 31
0.0
  0
INSERT
  5
257
330
254
100
AcDbEntity
  8
0
 62
     0
370
    -2
100
AcDbBlockReference
  2
_DOT
 10
-109.7653052269403
 20
96.3503828682752
 30
0.0
 50
270.0
  0
INSERT
  5
258
330
254
100
AcDbEntity
  8
0
 62
     0
370
    -2
100
AcDbBlockReference
  2
_DOT
 10
-109.7653052269403
 20
109.3503828682752
 30
0.0
 50
90.0
  0
MTEXT
  5
259
330
254
100
AcDbEntity
  8
0
 62
     0
100
AcDbMText
 10
-112.0153052269403
 20
102.8503828682752
 30
0.0
 40
3.0
 41
0.0
 71
     5
 72
     1
  1
260
 11
0.0
 21
1.0
 31
0.0
 73
     1
 44
1.0
  0
POINT
  5
25A
330
254
100
AcDbEntity
  8
Defpoints
 62
     0
100
AcDbPoint
 10
-118.3056526134702
 20
96.35038286827522
 30
0.0
  0
POINT
  5
25B
330
254
100
AcDbEntity
  8
Defpoints
 62
     0
100
AcDbPoint
 10
-118.3056526134702
 20
109.3503828682752
 30
0.0
  0
POINT
  5
25C
330
254
100
AcDbEntity
  8
Defpoints
 62
     0
100
AcDbPoint
 10
-109.7653052269403
 20
109.3503828682752
 30
0.0
  0
ENDBLK
  5
25E
330
254
100
AcDbEntity
  8
0
100
AcDbBlockEnd
  0
ENDSEC
  0
SECTION
  2
ENTITIES
  0
LINE
  5
1EE
330
1F
100
AcDbEntity
  8
0
  6
PHANTOM
 62
     7
100
AcDbLine
 10
-224.1326526134701
 20
85.00038286827522
 30
0.0
 11
-308.6326526134701
 21
85.00038286827522
 31
0.0
  0
LINE
  5
1EF
330
1F
100
AcDbEntity
  8
0
  6
PHANTOM
 62
     7
100
AcDbLine
 10
-308.6326526134702
 20
205.0003828682756
 30
0.0
 11
-308.6326526134702
 21
85.00038286827512
 31
0.0
  0
LINE
  5
1F0
330
1F
100
AcDbEntity
  8
0
  6
PHANTOM
 62
     7
100
AcDbLine
 10
-224.1326526134701
 20
205.0003828682752
 30
0.0
 11
-308.6326526134701
 21
205.0003828682752
 31
0.0
  0
LINE
  5
1F1
330
1F
100
AcDbEntity
  8
0
  6
PHANTOM
 62
     7
100
AcDbLine
 10
-120.6326526134701
 20
85.00038286827522
 30
0.0
 11
-160.6326526134701
 21
85.00038286827522
 31
0.0
  0
LINE
  5
1F2
330
1F
100
AcDbEntity
  8
0
  6
PHANTOM
 62
     7
100
AcDbLine
 10
-120.6326526134702
 20
205.0003828682756
 30
0.0
 11
-120.6326526134702
 21
85.00038286827512
 31
0.0
  0
LINE
  5
1F3
330
1F
100
AcDbEntity
  8
0
  6
PHANTOM
 62
     7
100
AcDbLine
 10
-120.6326526134701
 20
205.0003828682752
 30
0.0
 11
-159.6326526134701
 21
205.0003828682752
 31
0.0
  0
LINE
  5
1F4
330
1F
100
AcDbEntity
  8
0
  6
PHANTOM
 62
     7
100
AcDbLine
 10
-224.1326526134702
 20
262.3003828682752
 30
0.0
 11
-224.1326526134702
 21
222.3003828682752
 31
0.0
  0
LINE
  5
1F5
330
1F
100
AcDbEntity
  8
0
  6
PHANTOM
 62
     7
100
AcDbLine
 10
-308.6326526134702
 20
262.3003828682752
 30
0.0
 11
-308.6326526134702
 21
222.3003828682752
 31
0.0
  0
LINE
  5
1F6
330
1F
100
AcDbEntity
  8
0
  6
PHANTOM
 62
     7
100
AcDbLine
 10
-224.1326526134701
 20
262.3003828682752
 30
0.0
 11
-308.6326526134701
 21
262.3003828682752
 31
0.0
  0
LINE
  5
1F7
330
1F
100
AcDbEntity
  8
0
  6
PHANTOM
 62
     7
100
AcDbLine
 10
-160.6326526134702
 20
205.0003828682756
 30
0.0
 11
-160.6326526134702
 21
85.00038286827512
 31
0.0
  0
LINE
  5
1F8
330
1F
100
AcDbEntity
  8
0
  6
PHANTOM
 62
     7
100
AcDbLine
 10
-224.1326526134701
 20
222.3003828682752
 30
0.0
 11
-308.6326526134701
 21
222.3003828682752
 31
0.0
  0
LINE
  5
1F9
330
1F
100
AcDbEntity
  8
0
  6
PHANTOM
 62
     7
100
AcDbLine
 10
-224.1326526134702
 20
205.0003828682756
 30
0.0
 11
-224.1326526134702
 21
85.00038286827512
 31
0.0
  0
LINE
  5
1FA
330
1F
100
AcDbEntity
  8
0
  6
Continuous
 62
     7
100
AcDbLine
 10
-156.6737803544829
 20
272.5449533980282
 30
0.0
 11
-19.67378035448291
 21
272.5449533980282
 31
0.0
  0
LINE
  5
1FB
330
1F
100
AcDbEntity
  8
0
  6
Continuous
 62
     7
100
AcDbLine
 10
-114.4237803544829
 20
277.3449533980283
 30
0.0
 11
-114.4237803544829
 21
230.0449533980283
 31
0.0
  0
LINE
  5
1FC
330
1F
100
AcDbEntity
  8
0
  6
Continuous
 62
     7
100
AcDbLine
 10
-156.6737803544829
 20
230.0449533980283
 30
0.0
 11
-156.6737803544829
 21
277.3449533980283
 31
0.0
  0
LINE
  5
1FD
330
1F
100
AcDbEntity
  8
0
  6
Continuous
 62
     7
100
AcDbLine
 10
-19.67378035448291
 20
230.0449533980283
 30
0.0
 11
-156.6737803544829
 21
230.0449533980283
 31
0.0
  0
LINE
  5
1FE
330
1F
100
AcDbEntity
  8
0
  6
Continuous
 62
     7
100
AcDbLine
 10
-19.67378035448283
 20
277.3449533980283
 30
0.0
 11
-19.67378035448283
 21
230.0449533980283
 31
0.0
  0
LINE
  5
1FF
330
1F
100
AcDbEntity
  8
0
  6
Continuous
 62
     7
100
AcDbLine
 10
-156.6737803544829
 20
277.3449533980283
 30
0.0
 11
-19.67378035448291
 21
277.3449533980283
 31
0.0
  0
MTEXT
  5
200
330
1F
100
AcDbEntity
  8
0
 62
     7
100
AcDbMText
 10
-305.3077417576026
 20
188.8345673363829
 30
0.0
 40
2.5
 41
0.0
 71
     7
 72
     1
  1
{\W0.833333;Ｗ．Ｌ}
 73
     1
 44
1.0
  0
MTEXT
  5
201
330
1F
100
AcDbEntity
  8
0
 62
     7
100
AcDbMText
 10
-299.8187419255576
 20
87.82638956605103
 30
0.0
 40
2.5
 41
0.0
 71
     7
 72
     1
  1
{\W0.833333;Ｆ．Ｌ}
 73
     1
 44
1.0
  0
MTEXT
  5
202
330
1F
100
AcDbEntity
  8
0
 62
     7
100
AcDbMText
 10
-72.13378051183912
 20
273.7799534361752
 30
0.0
 40
2.329999923706055
 41
0.0
 71
     7
 72
     1
  1
{\W0.758226;詳　　　細}
 73
     1
 44
1.0
  0
MTEXT
  5
203
330
1F
100
AcDbEntity
  8
0
 62
     7
100
AcDbMText
 10
-139.823780241234
 20
273.7799534361752
 30
0.0
 40
2.329999923706055
 41
0.0
 71
     7
 72
     1
  1
{\W0.804721;品　　番}
 73
     1
 44
1.0
  0
MTEXT
  5
204
330
1F
100
AcDbEntity
  8
0
 62
     7
100
AcDbMText
 10
-155.9737803664038
 20
278.0594533980282
 30
0.0
 40
2.5
 41
0.0
 71
     7
 72
     1
  1
{\W0.833333;主要商品一覧}
 73
     1
 44
1.0
  0
MTEXT
  5
205
330
1F
100
AcDbEntity
  8
0
 62
     7
100
AcDbMText
 10
-152.2737803664038
 20
265.1514533980283
 30
0.0
 40
2.5
 41
0.0
 71
     7
 72
     1
  1
{\W0.833333;手洗器カラー}
 73
     1
 44
1.0
  0
MTEXT
  5
206
330
1F
100
AcDbEntity
  8
0
 62
     7
100
AcDbMText
 10
-155.1357300486395
 20
268.9014533980283
 30
0.0
 40
2.5
 41
0.0
 71
     7
 72
     1
  1
{\W0.555556;ＵＬＤ26R***DN****A}
 73
     1
 44
1.0
  0
MTEXT
  5
207
330
1F
100
AcDbEntity
  8
0
 62
     7
100
AcDbMText
 10
-113.2237803664038
 20
268.9014533980283
 30
0.0
 40
2.5
 41
0.0
 71
     7
 72
     1
  1
{\W0.833333;スリムシリーズ(埋込あり）　単体タイプ}
 73
     1
 44
1.0
  0
MTEXT
  5
208
330
1F
100
AcDbEntity
  8
0
 62
     7
100
AcDbMText
 10
-152.2737803664038
 20
261.4014533980283
 30
0.0
 40
2.5
 41
0.0
 71
     7
 72
     1
  1
{\W0.833333;キャビネットカラー}
 73
     1
 44
1.0
  0
MTEXT
  5
209
330
1F
100
AcDbEntity
  8
0
 62
     7
100
AcDbMText
 10
-152.2737803664038
 20
257.6514533980283
 30
0.0
 40
2.5
 41
0.0
 71
     7
 72
     1
  1
{\W0.833333;カウンターカラー}
 73
     1
 44
1.0
  0
MTEXT
  5
20A
330
1F
100
AcDbEntity
  8
0
 62
     7
100
AcDbMText
 10
-152.2737803664038
 20
253.9014533980283
 30
0.0
 40
2.5
 41
0.0
 71
     7
 72
     1
  1
{\W0.833333;水栓}
 73
     1
 44
1.0
  0
MTEXT
  5
20B
330
1F
100
AcDbEntity
  8
0
 62
     7
100
AcDbMText
 10
-152.2737803664038
 20
250.1514533980283
 30
0.0
 40
2.5
 41
0.0
 71
     7
 72
     1
  1
{\W0.833333;紙巻器}
 73
     1
 44
1.0
  0
MTEXT
  5
20C
330
1F
100
AcDbEntity
  8
0
 62
     7
100
AcDbMText
 10
-152.2737803664038
 20
246.4014533980283
 30
0.0
 40
2.5
 41
0.0
 71
     7
 72
     1
  1
{\W0.833333;化粧鏡}
 73
     1
 44
1.0
  0
MTEXT
  5
20D
330
1F
100
AcDbEntity
  8
0
 62
     7
100
AcDbMText
 10
-152.2737803664038
 20
242.6514533980283
 30
0.0
 40
2.5
 41
0.0
 71
     7
 72
     1
  1
{\W0.833333;タオル掛け}
 73
     1
 44
1.0
  0
MTEXT
  5
20E
330
1F
100
AcDbEntity
  8
0
 62
     7
100
AcDbMText
 10
-152.2737803664038
 20
238.9014533980283
 30
0.0
 40
2.5
 41
0.0
 71
     7
 72
     1
  1
{\W0.833333;手すり}
 73
     1
 44
1.0
  0
MTEXT
  5
20F
330
1F
100
AcDbEntity
  8
0
 62
     7
100
AcDbMText
 10
-152.2737803664038
 20
235.1514533980283
 30
0.0
 40
2.5
 41
0.0
 71
     7
 72
     1
  1
{\W0.833333;石けん受け}
 73
     1
 44
1.0
  0
MTEXT
  5
210
330
1F
100
AcDbEntity
  8
0
 62
     7
100
AcDbMText
 10
-152.2737803664038
 20
231.4014533980283
 30
0.0
 40
2.5
 41
0.0
 71
     7
 72
     1
  1
{\W0.833333;給排水位置}
 73
     1
 44
1.0
  0
MTEXT
  5
211
330
1F
100
AcDbEntity
  8
0
 62
     7
100
AcDbMText
 10
-110.7237803664038
 20
265.1514533980283
 30
0.0
 40
2.5
 41
0.0
 71
     7
 72
     1
  1
{\W0.833333;***}
 73
     1
 44
1.0
  0
MTEXT
  5
212
330
1F
100
AcDbEntity
  8
0
 62
     7
100
AcDbMText
 10
-110.7237803664038
 20
261.4014533980283
 30
0.0
 40
2.5
 41
0.0
 71
     7
 72
     1
  1
{\W0.833333;***}
 73
     1
 44
1.0
  0
MTEXT
  5
213
330
1F
100
AcDbEntity
  8
0
 62
     7
100
AcDbMText
 10
-110.7237803664038
 20
257.6514533980283
 30
0.0
 40
2.5
 41
0.0
 71
     7
 72
     1
  1
{\W0.833333;***}
 73
     1
 44
1.0
  0
MTEXT
  5
214
330
1F
100
AcDbEntity
  8
0
 62
     7
100
AcDbMText
 10
-110.7237803664038
 20
253.9014533980283
 30
0.0
 40
2.5
 41
0.0
 71
     7
 72
     1
  1
{\W0.833333;自動水栓（電気温水器付）}
 73
     1
 44
1.0
  0
MTEXT
  5
215
330
1F
100
AcDbEntity
  8
0
 62
     7
100
AcDbMText
 10
-110.7237803664038
 20
250.1514533980283
 30
0.0
 40
2.5
 41
0.0
 71
     7
 72
     1
  1
{\W0.833333;なし}
 73
     1
 44
1.0
  0
MTEXT
  5
216
330
1F
100
AcDbEntity
  8
0
 62
     7
100
AcDbMText
 10
-110.7237803664038
 20
246.4014533980283
 30
0.0
 40
2.5
 41
0.0
 71
     7
 72
     1
  1
{\W0.833333;***(ビス位置は単品図にてご確認ください）}
 73
     1
 44
1.0
  0
MTEXT
  5
217
330
1F
100
AcDbEntity
  8
0
 62
     7
100
AcDbMText
 10
-110.7237803664038
 20
242.6514533980283
 30
0.0
 40
2.5
 41
0.0
 71
     7
 72
     1
  1
{\W0.833333;***(ビス位置は単品図にてご確認ください）}
 73
     1
 44
1.0
  0
MTEXT
  5
218
330
1F
100
AcDbEntity
  8
0
 62
     7
100
AcDbMText
 10
-110.7237803664038
 20
238.9014533980283
 30
0.0
 40
2.5
 41
0.0
 71
     7
 72
     1
  1
{\W0.833333;***(ビス位置は単品図にてご確認ください）}
 73
     1
 44
1.0
  0
MTEXT
  5
219
330
1F
100
AcDbEntity
  8
0
 62
     7
100
AcDbMText
 10
-110.7237803664038
 20
235.1514533980283
 30
0.0
 40
2.5
 41
0.0
 71
     7
 72
     1
  1
{\W0.833333;***}
 73
     1
 44
1.0
  0
MTEXT
  5
21A
330
1F
100
AcDbEntity
  8
0
 62
     7
100
AcDbMText
 10
-110.7237803664038
 20
231.4014533980283
 30
0.0
 40
2.5
 41
0.0
 71
     7
 72
     1
  1
{\W0.833333;床給水/床排水}
 73
     1
 44
1.0
  0
MTEXT
  5
21B
330
1F
100
AcDbEntity
  8
0
 62
     7
100
AcDbMText
 10
-233.5575634931796
 20
188.8345673363829
 30
0.0
 40
2.5
 41
0.0
 71
     7
 72
     1
  1
{\W0.833333;Ｗ．Ｌ}
 73
     1
 44
1.0
  0
MTEXT
  5
21C
330
1F
100
AcDbEntity
  8
0
 62
     7
100
AcDbMText
 10
-144.8187419255576
 20
87.82638956605103
 30
0.0
 40
2.5
 41
0.0
 71
     7
 72
     1
  1
{\W0.833333;Ｆ．Ｌ}
 73
     1
 44
1.0
  0
MTEXT
  5
21D
330
1F
100
AcDbEntity
  8
0
 62
     7
100
AcDbMText
 10
-130.0575634931796
 20
188.8345673363829
 30
0.0
 40
2.5
 41
0.0
 71
     7
 72
     1
  1
{\W0.833333;Ｗ．Ｌ}
 73
     1
 44
1.0
  0
MTEXT
  5
21E
330
1F
100
AcDbEntity
  8
0
 62
     7
100
AcDbMText
 10
-157.3077417576026
 20
188.8345673363829
 30
0.0
 40
2.5
 41
0.0
 71
     7
 72
     1
  1
{\W0.833333;Ｗ．Ｌ}
 73
     1
 44
1.0
  0
MTEXT
  5
21F
330
1F
100
AcDbEntity
  8
0
 62
     7
100
AcDbMText
 10
-102.8805228976587
 20
44.79912072607433
 30
0.0
 40
2.5
 41
0.0
 71
     7
 72
     1
  1
{\W0.833333;※　自動水栓(A）の場合は、当図を参照ください。}
 73
     1
 44
1.0
  0
INSERT
  5
220
330
1F
100
AcDbEntity
  8
0
 62
     7
100
AcDbBlockReference
  2
VIS_ULD26R___DN0002
 10
0.0
 20
0.0
 30
0.0
  0
INSERT
  5
221
330
1F
100
AcDbEntity
  8
0
 62
     7
100
AcDbBlockReference
  2
VIS_ULD26R___DN0003
 10
0.0
 20
0.0
 30
0.0
  0
INSERT
  5
222
330
1F
100
AcDbEntity
  8
0
 62
     7
100
AcDbBlockReference
  2
VIS_ULD26R___DN0004
 10
0.0
 20
0.0
 30
0.0
  0
INSERT
  5
223
330
1F
100
AcDbEntity
  8
0
 62
     7
100
AcDbBlockReference
  2
VIS_ULD26R___DN0005
 10
0.0
 20
0.0
 30
0.0
  0
INSERT
  5
224
330
1F
100
AcDbEntity
  8
0
 62
     7
100
AcDbBlockReference
  2
VIS_ULD26R___DN0006
 10
0.0
 20
0.0
 30
0.0
  0
INSERT
  5
225
330
1F
100
AcDbEntity
  8
0
 62
     7
100
AcDbBlockReference
  2
VIS_ULD26R___DN0007
 10
0.0
 20
0.0
 30
0.0
  0
INSERT
  5
226
330
1F
100
AcDbEntity
  8
0
 62
     7
100
AcDbBlockReference
  2
VIS_ULD26R___DN0008
 10
0.0
 20
0.0
 30
0.0
  0
INSERT
  5
227
330
1F
100
AcDbEntity
  8
0
 62
     7
100
AcDbBlockReference
  2
VIS_ULD26R___DN0009
 10
0.0
 20
0.0
 30
0.0
  0
INSERT
  5
228
330
1F
100
AcDbEntity
  8
0
 62
     7
100
AcDbBlockReference
  2
VIS_ULD26R___DN0010
 10
0.0
 20
0.0
 30
0.0
  0
INSERT
  5
229
330
1F
100
AcDbEntity
  8
0
 62
     7
100
AcDbBlockReference
  2
VIS_ULD26R___DN0011
 10
0.0
 20
0.0
 30
0.0
  0
INSERT
  5
22A
330
1F
100
AcDbEntity
  8
0
 62
     7
100
AcDbBlockReference
  2
VIS_ULD26R___DN0012
 10
0.0
 20
0.0
 30
0.0
  0
INSERT
  5
22B
330
1F
100
AcDbEntity
  8
0
 62
     7
100
AcDbBlockReference
  2
VIS_ULD26R___DN0013
 10
0.0
 20
0.0
 30
0.0
  0
DIMENSION
  5
22C
330
1F
100
AcDbEntity
  8
0
 62
     7
100
AcDbDimension
  2
*D16
 10
-120.6326526134702
 20
66.7
 30
0.0
 11
-140.6046823626363
 21
66.7
 31
0.0
 70
   160
  1
４０（手洗器キャビネット）
 71
     5
 42
2.0
  3
ISO-25
100
AcDbAlignedDimension
 13
-118.6326526134702
 23
96.02338286827512
 33
0.0
 14
-120.6326526134702
 24
85.00038286827512
 34
0.0
100
AcDbRotatedDimension
1001
ACAD
1000
DSTYLE
1002
{
1070
   278
1070
    46
1070
   147
1040
0.75
1070
    77
1070
     1
1070
    74
1070
     0
1070
    73
1070
     0
1070
    42
1040
2.54
1070
    44
1040
2.000000000000099
1070
    76
1070
     0
1070
    75
1070
     0
1070
   279
1070
     0
1070
   271
1070
     0
1070
   173
1070
     1
1070
    41
1040
1.0
1070
   140
1040
3.0
1070
   344
1005
22D
1070
   343
1005
22D
1002
}
  0
DIMENSION
  5
245
330
1F
100
AcDbEntity
  8
0
 62
     7
100
AcDbDimension
  2
*D17
 10
-109.7653052269403
 20
85.00038286827522
 30
0.0
 11
-109.7653052269403
 21
64.10008807019743
 31
0.0
 70
   160
  1
２２７（手洗器キャビネット）
 71
     5
 42
11.34999999999999
  3
ISO-25
100
AcDbAlignedDimension
 13
-118.3056526134702
 23
96.35038286827522
 33
0.0
 14
-120.6326526134701
 24
85.00038286827522
 34
0.0
 50
90.00000000000003
100
AcDbRotatedDimension
1001
ACAD
1000
DSTYLE
1002
{
1070
   278
1070
    46
1070
   147
1040
0.75
1070
    77
1070
     1
1070
    74
1070
     0
1070
    73
1070
     0
1070
    42
1040
2.54
1070
    44
1040
2.0
1070
    76
1070
     0
1070
    75
1070
     0
1070
   279
1070
     0
1070
   271
1070
     0
1070
   173
1070
     1
1070
    41
1040
1.0
1070
   140
1040
3.0
1070
   344
1005
22D
1070
   343
1005
22D
1002
}
  0
DIMENSION
  5
253
330
1F
100
AcDbEntity
  8
0
 62
     7
100
AcDbDimension
  2
*D18
 10
-109.7653052269403
 20
109.3503828682752
 30
0.0
 11
-109.7653052269403
 21
102.8503828682752
 31
0.0
 70
   160
  1
260
 71
     5
 42
13.0
  3
ISO-25
100
AcDbAlignedDimension
 13
-118.3056526134702
 23
96.35038286827522
 33
0.0
 14
-118.3056526134702
 24
109.3503828682752
 34
0.0
 50
270.0
100
AcDbRotatedDimension
1001
ACAD
1000
DSTYLE
1002
{
1070
   278
1070
    46
1070
   147
1040
0.75
1070
    77
1070
     1
1070
    74
1070
     0
1070
    73
1070
     0
1070
    42
1040
2.54
1070
    44
1040
2.0
1070
    76
1070
     0
1070
    75
1070
     1
1070
   279
1070
     0
1070
   271
1070
     0
1070
   173
1070
     1
1070
    41
1040
1.0
1070
   140
1040
3.0
1070
   344
1005
22D
1070
   343
1005
22D
1002
}
  0
MTEXT
  5
260
330
1F
100
AcDbEntity
  8
AV
 62
     7
100
AcDbMText
 10
-108.5130000412464
 20
22.48332832579763
 30
0.0
 40
2.700000047683716
 41
0.0
 71
     7
 72
     1
  1
{\W1;1:20}
 73
     1
 44
1.0
  0
MTEXT
  5
261
330
1F
100
AcDbEntity
  8
AV
 62
     7
100
AcDbMText
 10
-66.96299999952316
 20
13.81666372542531
 30
0.0
 40
2.700000047683716
 41
0.0
 71
     7
 72
     1
  1
{\W0.833333;ULD26R***DN}
 73
     1
 44
1.0
  0
MTEXT
  5
262
330
1F
100
AcDbEntity
  8
AV
 62
     7
100
AcDbMText
 10
-159.4815000295639
 20
12.649999125053
 30
0.0
 40
2.700000047683716
 41
0.0
 71
     7
 72
     1
  1
{\W0.833333;ねじ固定位置詳細図}
 73
     1
 44
1.0
  0
MTEXT
  5
263
330
1F
100
AcDbEntity
  8
AV
 62
     7
100
AcDbMText
 10
-73.71299996972084
 20
24.15000007872731
 30
0.0
 40
2.700000047683716
 41
0.0
 71
     7
 72
     1
  1
{\W0.833333;ULD26R***DN****A}
 73
     1
 44
1.0
  0
MTEXT
  5
264
330
1F
100
AcDbEntity
  8
AV
 62
     7
100
AcDbMText
 10
-158.2200000524521
 20
26.01667185549886
 30
0.0
 40
3.0
 41
0.0
 71
     7
 72
     1
  1
{\W0.833333;谷}
 73
     1
 44
1.0
  0
MTEXT
  5
265
330
1F
100
AcDbEntity
  8
AV
 62
     7
100
AcDbMText
 10
-158.2200000524521
 20
22.01667185549886
 30
0.0
 40
3.0
 41
0.0
 71
     7
 72
     1
  1
{\W0.833333;口}
 73
     1
 44
1.0
  0
MTEXT
  5
266
330
1F
100
AcDbEntity
  8
AV
 62
     7
100
AcDbMText
 10
-141.1431107210392
 20
26.01667185549886
 30
0.0
 40
3.0
 41
0.0
 71
     7
 72
     1
  1
{\W0.833333;荒}
 73
     1
 44
1.0
  0
MTEXT
  5
267
330
1F
100
AcDbEntity
  8
AV
 62
     7
100
AcDbMText
 10
-141.1431107210392
 20
22.01667185549886
 30
0.0
 40
3.0
 41
0.0
 71
     7
 72
     1
  1
{\W0.833333;川}
 73
     1
 44
1.0
  0
MTEXT
  5
268
330
1F
100
AcDbEntity
  8
AV
 62
     7
100
AcDbMText
 10
-135.2200000524521
 20
24.01667185549886
 30
0.0
 40
3.0
 41
0.0
 71
     7
 72
     1
  1
{\W0.833333;西}
 73
     1
 44
1.0
  0
MTEXT
  5
269
330
1F
100
AcDbEntity
  8
AV
 62
     7
100
AcDbMText
 10
-128.4630000591278
 20
22.48332832579763
 30
0.0
 40
2.700000047683716
 41
0.0
 71
     7
 72
     1
  1
{\W0.617284;19.12.02}
 73
     1
 44
1.0
  0
MTEXT
  5
26A
330
1F
100
AcDbEntity
  8
AV
 62
     7
100
AcDbMText
 10
-69.66299998760223
 20
34.48333595519216
 30
0.0
 40
2.700000047683716
 41
0.0
 71
     7
 72
     1
  1
{\W0.833333;スリムシリーズ(埋込あり）}
 73
     1
 44
1.0
  0
INSERT
  5
26B
330
1F
100
AcDbEntity
  8
AV
 62
     7
100
AcDbBlockReference
  2
VIS_ULD26R___DN0000
 10
0.0
 20
0.0
 30
0.0
  0
INSERT
  5
26C
330
1F
100
AcDbEntity
  8
AV
 62
     7
100
AcDbBlockReference
  2
VIS_ULD26R___DN0001
 10
0.0
 20
0.0
 30
0.0
  0
ENDSEC
  0
SECTION
  2
OBJECTS
  0
DICTIONARY
  5
C
330
0
100
AcDbDictionary
281
     1
  3
ACAD_GROUP
350
D
  3
ACAD_LAYOUT
350
1A
  3
ACAD_MLEADERSTYLE
350
26F
  3
ACAD_MLINESTYLE
350
17
  3
ACAD_PLOTSETTINGS
350
19
  3
ACAD_PLOTSTYLENAME
350
E
  3
ACAD_SCALELIST
350
CE
  3
ACAD_VISUALSTYLE
350
2A
  3
AcDbVariableDictionary
350
26D
  0
DICTIONARY
  5
D
102
{ACAD_REACTORS
330
C
102
}
330
C
100
AcDbDictionary
281
     1
  0
DICTIONARY
  5
1A
102
{ACAD_REACTORS
330
C
102
}
330
C
100
AcDbDictionary
281
     1
  3
Layout1
350
1E
  3
Layout2
350
26
  3
Model
350
22
  0
DICTIONARY
  5
26F
102
{ACAD_REACTORS
330
C
102
}
330
C
100
AcDbDictionary
281
     1
  0
DICTIONARY
  5
17
102
{ACAD_REACTORS
330
C
102
}
330
C
100
AcDbDictionary
281
     1
  3
Standard
350
18
  0
DICTIONARY
  5
19
102
{ACAD_REACTORS
330
C
102
}
330
C
100
AcDbDictionary
281
     1
  0
ACDBDICTIONARYWDFLT
  5
E
102
{ACAD_REACTORS
330
C
102
}
330
C
100
AcDbDictionary
281
     1
  3
Normal
350
F
100
AcDbDictionaryWithDefault
340
F
  0
DICTIONARY
  5
CE
102
{ACAD_REACTORS
330
C
102
}
330
C
100
AcDbDictionary
281
     1
  3
A0
350
CF
  3
A1
350
D0
  3
A2
350
D1
  3
A3
350
D2
  3
A4
350
D3
  3
A5
350
D4
  3
A6
350
D5
  3
A7
350
D6
  3
A8
350
D7
  3
A9
350
D8
  3
B0
350
D9
  3
B1
350
DA
  3
B2
350
DB
  3
B3
350
DC
  3
B4
350
DD
  3
B5
350
DE
  3
B6
350
DF
  3
B7
350
E0
  3
B8
350
E1
  3
B9
350
E2
  3
C0
350
E3
  3
C1
350
E4
  3
C2
350
E5
  3
C3
350
E6
  3
C4
350
E7
  3
C5
350
E8
  3
C6
350
E9
  3
C7
350
EA
  3
C8
350
EB
  3
C9
350
EC
  3
D0
350
ED
  3
D1
350
EE
  3
D2
350
EF
  0
DICTIONARY
  5
2A
102
{ACAD_REACTORS
330
C
102
}
330
C
100
AcDbDictionary
281
     1
  3
2dWireframe
350
2F
  3
3D Hidden
350
31
  3
3dWireframe
350
30
  3
Basic
350
32
  3
Brighten
350
36
  3
ColorChange
350
3A
  3
Conceptual
350
34
  3
Dim
350
35
  3
Facepattern
350
39
  3
Flat
350
2B
  3
FlatWithEdges
350
2C
  3
Gouraud
350
2D
  3
GouraudWithEdges
350
2E
  3
Linepattern
350
38
  3
Realistic
350
33
  3
Thicken
350
37
  0
DICTIONARY
  5
26D
102
{ACAD_REACTORS
330
C
102
}
330
C
100
AcDbDictionary
281
     1
  3
CANNOSCALE
350
272
  3
PSOLHEIGHT
350
271
  3
PSOLWIDTH
350
270
  0
LAYOUT
  5
1E
102
{ACAD_REACTORS
330
1A
102
}
330
1A
100
AcDbPlotSettings
  1

  2
none_device
  4

  6

 40
0.0
 41
0.0
 42
0.0
 43
0.0
 44
0.0
 45
0.0
 46
0.0
 47
0.0
 48
0.0
 49
0.0
140
0.0
141
0.0
142
1.0
143
1.0
 70
   688
 72
     0
 73
     0
 74
     5
  7

 75
    16
147
1.0
148
0.0
149
0.0
100
AcDbLayout
  1
Layout1
 70
     1
 71
     1
 10
-420.0
 20
0.0
 11
0.0
 21
297.0
 12
0.0
 22
0.0
 32
0.0
 14
1.000000000000000E+20
 24
1.000000000000000E+20
 34
1.000000000000000E+20
 15
-1.000000000000000E+20
 25
-1.000000000000000E+20
 35
-1.000000000000000E+20
146
0.0
 13
0.0
 23
0.0
 33
0.0
 16
1.0
 26
0.0
 36
0.0
 17
0.0
 27
1.0
 37
0.0
 76
     0
330
1B
  0
LAYOUT
  5
26
102
{ACAD_REACTORS
330
1A
102
}
330
1A
100
AcDbPlotSettings
  1

  2
none_device
  4

  6

 40
0.0
 41
0.0
 42
0.0
 43
0.0
 44
0.0
 45
0.0
 46
0.0
 47
0.0
 48
0.0
 49
0.0
140
0.0
141
0.0
142
1.0
143
1.0
 70
   688
 72
     0
 73
     0
 74
     5
  7

 75
    16
147
1.0
148
0.0
149
0.0
100
AcDbLayout
  1
Layout2
 70
     1
 71
     2
 10
0.0
 20
0.0
 11
0.0
 21
0.0
 12
0.0
 22
0.0
 32
0.0
 14
0.0
 24
0.0
 34
0.0
 15
0.0
 25
0.0
 35
0.0
146
0.0
 13
0.0
 23
0.0
 33
0.0
 16
1.0
 26
0.0
 36
0.0
 17
0.0
 27
1.0
 37
0.0
 76
     0
330
23
  0
LAYOUT
  5
22
102
{ACAD_REACTORS
330
1A
102
}
330
1A
100
AcDbPlotSettings
  1

  2
none_device
  4

  6

 40
0.0
 41
0.0
 42
0.0
 43
0.0
 44
0.0
 45
0.0
 46
0.0
 47
0.0
 48
0.0
 49
0.0
140
0.0
141
0.0
142
1.0
143
1.0
 70
  1712
 72
     0
 73
     0
 74
     0
  7

 75
     0
147
1.0
148
0.0
149
0.0
100
AcDbLayout
  1
Model
 70
     1
 71
     0
 10
-420.0
 20
0.0
 11
0.0
 21
297.0
 12
0.0
 22
0.0
 32
0.0
 14
-420.0
 24
0.0
 34
0.0
 15
0.0
 25
297.0
 35
0.0
146
0.0
 13
0.0
 23
0.0
 33
0.0
 16
1.0
 26
0.0
 36
0.0
 17
0.0
 27
1.0
 37
0.0
 76
     0
330
1F
331
29
  0
MLINESTYLE
  5
18
102
{ACAD_REACTORS
330
17
102
}
330
17
100
AcDbMlineStyle
  2
Standard
 70
     0
  3

 62
   256
 51
90.0
 52
90.0
 71
     2
 49
0.5
 62
   256
  6
BYLAYER
 49
-0.5
 62
   256
  6
BYLAYER
  0
ACDBPLACEHOLDER
  5
F
102
{ACAD_REACTORS
330
E
102
}
330
E
  0
SCALE
  5
CF
102
{ACAD_REACTORS
330
CE
102
}
330
CE
100
AcDbScale
 70
     0
300
1:1
140
1.0
141
1.0
290
     1
  0
SCALE
  5
D0
102
{ACAD_REACTORS
330
CE
102
}
330
CE
100
AcDbScale
 70
     0
300
1:2
140
1.0
141
2.0
290
     0
  0
SCALE
  5
D1
102
{ACAD_REACTORS
330
CE
102
}
330
CE
100
AcDbScale
 70
     0
300
1:4
140
1.0
141
4.0
290
     0
  0
SCALE
  5
D2
102
{ACAD_REACTORS
330
CE
102
}
330
CE
100
AcDbScale
 70
     0
300
1:5
140
1.0
141
5.0
290
     0
  0
SCALE
  5
D3
102
{ACAD_REACTORS
330
CE
102
}
330
CE
100
AcDbScale
 70
     0
300
1:8
140
1.0
141
8.0
290
     0
  0
SCALE
  5
D4
102
{ACAD_REACTORS
330
CE
102
}
330
CE
100
AcDbScale
 70
     0
300
1:10
140
1.0
141
10.0
290
     0
  0
SCALE
  5
D5
102
{ACAD_REACTORS
330
CE
102
}
330
CE
100
AcDbScale
 70
     0
300
1:16
140
1.0
141
16.0
290
     0
  0
SCALE
  5
D6
102
{ACAD_REACTORS
330
CE
102
}
330
CE
100
AcDbScale
 70
     0
300
1:20
140
1.0
141
20.0
290
     0
  0
SCALE
  5
D7
102
{ACAD_REACTORS
330
CE
102
}
330
CE
100
AcDbScale
 70
     0
300
1:30
140
1.0
141
30.0
290
     0
  0
SCALE
  5
D8
102
{ACAD_REACTORS
330
CE
102
}
330
CE
100
AcDbScale
 70
     0
300
1:40
140
1.0
141
40.0
290
     0
  0
SCALE
  5
D9
102
{ACAD_REACTORS
330
CE
102
}
330
CE
100
AcDbScale
 70
     0
300
1:50
140
1.0
141
50.0
290
     0
  0
SCALE
  5
DA
102
{ACAD_REACTORS
330
CE
102
}
330
CE
100
AcDbScale
 70
     0
300
1:100
140
1.0
141
100.0
290
     0
  0
SCALE
  5
DB
102
{ACAD_REACTORS
330
CE
102
}
330
CE
100
AcDbScale
 70
     0
300
2:1
140
2.0
141
1.0
290
     0
  0
SCALE
  5
DC
102
{ACAD_REACTORS
330
CE
102
}
330
CE
100
AcDbScale
 70
     0
300
4:1
140
4.0
141
1.0
290
     0
  0
SCALE
  5
DD
102
{ACAD_REACTORS
330
CE
102
}
330
CE
100
AcDbScale
 70
     0
300
8:1
140
8.0
141
1.0
290
     0
  0
SCALE
  5
DE
102
{ACAD_REACTORS
330
CE
102
}
330
CE
100
AcDbScale
 70
     0
300
10:1
140
10.0
141
1.0
290
     0
  0
SCALE
  5
DF
102
{ACAD_REACTORS
330
CE
102
}
330
CE
100
AcDbScale
 70
     0
300
100:1
140
100.0
141
1.0
290
     0
  0
SCALE
  5
E0
102
{ACAD_REACTORS
330
CE
102
}
330
CE
100
AcDbScale
 70
     0
300
1/128" = 1'-0"
140
0.0078125
141
12.0
290
     0
  0
SCALE
  5
E1
102
{ACAD_REACTORS
330
CE
102
}
330
CE
100
AcDbScale
 70
     0
300
1/64" = 1'-0"
140
0.015625
141
12.0
290
     0
  0
SCALE
  5
E2
102
{ACAD_REACTORS
330
CE
102
}
330
CE
100
AcDbScale
 70
     0
300
1/32" = 1'-0"
140
0.03125
141
12.0
290
     0
  0
SCALE
  5
E3
102
{ACAD_REACTORS
330
CE
102
}
330
CE
100
AcDbScale
 70
     0
300
1/16" = 1'-0"
140
0.0625
141
12.0
290
     0
  0
SCALE
  5
E4
102
{ACAD_REACTORS
330
CE
102
}
330
CE
100
AcDbScale
 70
     0
300
3/32" = 1'-0"
140
0.09375
141
12.0
290
     0
  0
SCALE
  5
E5
102
{ACAD_REACTORS
330
CE
102
}
330
CE
100
AcDbScale
 70
     0
300
1/8" = 1'-0"
140
0.125
141
12.0
290
     0
  0
SCALE
  5
E6
102
{ACAD_REACTORS
330
CE
102
}
330
CE
100
AcDbScale
 70
     0
300
3/16" = 1'-0"
140
0.1875
141
12.0
290
     0
  0
SCALE
  5
E7
102
{ACAD_REACTORS
330
CE
102
}
330
CE
100
AcDbScale
 70
     0
300
1/4" = 1'-0"
140
0.25
141
12.0
290
     0
  0
SCALE
  5
E8
102
{ACAD_REACTORS
330
CE
102
}
330
CE
100
AcDbScale
 70
     0
300
3/8" = 1'-0"
140
0.375
141
12.0
290
     0
  0
SCALE
  5
E9
102
{ACAD_REACTORS
330
CE
102
}
330
CE
100
AcDbScale
 70
     0
300
1/2" = 1'-0"
140
0.5
141
12.0
290
     0
  0
SCALE
  5
EA
102
{ACAD_REACTORS
330
CE
102
}
330
CE
100
AcDbScale
 70
     0
300
3/4" = 1'-0"
140
0.75
141
12.0
290
     0
  0
SCALE
  5
EB
102
{ACAD_REACTORS
330
CE
102
}
330
CE
100
AcDbScale
 70
     0
300
1" = 1'-0"
140
1.0
141
12.0
290
     0
  0
SCALE
  5
EC
102
{ACAD_REACTORS
330
CE
102
}
330
CE
100
AcDbScale
 70
     0
300
1-1/2" = 1'-0"
140
1.5
141
12.0
290
     0
  0
SCALE
  5
ED
102
{ACAD_REACTORS
330
CE
102
}
330
CE
100
AcDbScale
 70
     0
300
3" = 1'-0"
140
3.0
141
12.0
290
     0
  0
SCALE
  5
EE
102
{ACAD_REACTORS
330
CE
102
}
330
CE
100
AcDbScale
 70
     0
300
6" = 1'-0"
140
6.0
141
12.0
290
     0
  0
SCALE
  5
EF
102
{ACAD_REACTORS
330
CE
102
}
330
CE
100
AcDbScale
 70
     0
300
1'-0" = 1'-0"
140
12.0
141
12.0
290
     0
  0
VISUALSTYLE
  5
2F
102
{ACAD_REACTORS
330
2A
102
}
330
2A
100
AcDbVisualStyle
  2
2dWireframe
 70
     4
 71
     0
 72
     2
 73
     0
 90
        0
 40
-0.6
 41
-30.0
 62
     5
 63
     7
 74
     1
 91
        4
 64
     7
 65
   257
 75
     1
175
     1
 42
1.0
 92
        0
 66
   257
 43
1.0
 76
     1
 77
     6
 78
     2
 67
     7
 79
     5
170
     0
171
     0
290
     0
174
     0
 93
        1
 44
0.0
173
     0
291
     0
 45
0.0
1001
ACAD
1000
AcDbSavedByObjectVersion
1070
     0
  0
VISUALSTYLE
  5
31
102
{ACAD_REACTORS
330
2A
102
}
330
2A
100
AcDbVisualStyle
  2
3D Hidden
 70
     6
 71
     1
 72
     2
 73
     2
 90
        0
 40
-0.6
 41
-30.0
 62
     5
 63
     7
 74
     2
 91
        2
 64
     7
 65
   257
 75
     2
175
     1
 42
40.0
 92
        0
 66
   257
 43
1.0
 76
     1
 77
     6
 78
     2
 67
     7
 79
     3
170
     0
171
     0
290
     0
174
     0
 93
        1
 44
0.0
173
     0
291
     0
 45
0.0
1001
ACAD
1000
AcDbSavedByObjectVersion
1070
     0
  0
VISUALSTYLE
  5
30
102
{ACAD_REACTORS
330
2A
102
}
330
2A
100
AcDbVisualStyle
  2
3dWireframe
 70
     5
 71
     0
 72
     2
 73
     0
 90
        0
 40
-0.6
 41
-30.0
 62
     5
 63
     7
 74
     1
 91
        4
 64
     7
 65
   257
 75
     1
175
     1
 42
1.0
 92
        0
 66
   257
 43
1.0
 76
     1
 77
     6
 78
     2
 67
     7
 79
     5
170
     0
171
     0
290
     0
174
     0
 93
        1
 44
0.0
173
     0
291
     0
 45
0.0
1001
ACAD
1000
AcDbSavedByObjectVersion
1070
     0
  0
VISUALSTYLE
  5
32
102
{ACAD_REACTORS
330
2A
102
}
330
2A
100
AcDbVisualStyle
  2
Basic
 70
     7
 71
     1
 72
     0
 73
     1
 90
        0
 40
-0.6
 41
-30.0
 62
     5
 63
     7
 74
     0
 91
        4
 64
     7
 65
   257
 75
     1
175
     1
 42
1.0
 92
        8
 66
     7
 43
1.0
 76
     1
 77
     6
 78
     2
 67
     7
 79
     5
170
     0
171
     0
290
     0
174
     0
 93
        1
 44
0.0
173
     0
291
     1
 45
0.0
1001
ACAD
1000
AcDbSavedByObjectVersion
1070
     0
  0
VISUALSTYLE
  5
36
102
{ACAD_REACTORS
330
2A
102
}
330
2A
100
AcDbVisualStyle
  2
Brighten
 70
    12
 71
     2
 72
     2
 73
     0
 90
        0
 40
-0.6
 41
-30.0
 62
     5
 63
     7
 74
     1
 91
        4
 64
     7
 65
   257
 75
     1
175
     1
 42
1.0
 92
        8
 66
     7
 43
1.0
 76
     1
 77
     6
 78
     2
 67
     7
 79
     5
170
     0
171
     0
290
     0
174
     0
 93
        1
 44
50.0
173
     0
291
     1
 45
0.0
1001
ACAD
1000
AcDbSavedByObjectVersion
1070
     0
  0
VISUALSTYLE
  5
3A
102
{ACAD_REACTORS
330
2A
102
}
330
2A
100
AcDbVisualStyle
  2
ColorChange
 70
    16
 71
     2
 72
     2
 73
     3
 90
        0
 40
-0.6
 41
-30.0
 62
     5
 63
     8
 74
     1
 91
        4
 64
     7
 65
   257
 75
     1
175
     1
 42
1.0
 92
        8
 66
     8
 43
1.0
 76
     1
 77
     6
 78
     2
 67
     7
 79
     5
170
     0
171
     0
290
     0
174
     0
 93
        1
 44
0.0
173
     0
291
     1
 45
0.0
1001
ACAD
1000
AcDbSavedByObjectVersion
1070
     0
  0
VISUALSTYLE
  5
34
102
{ACAD_REACTORS
330
2A
102
}
330
2A
100
AcDbVisualStyle
  2
Conceptual
 70
     9
 71
     3
 72
     2
 73
     0
 90
        0
 40
-0.6
 41
-30.0
 62
     5
 63
     7
 74
     2
 91
        2
 64
     7
 65
   257
 75
     1
175
     1
 42
40.0
 92
        8
 66
     7
 43
1.0
 76
     1
 77
     6
 78
     2
 67
     7
 79
     3
170
     0
171
     0
290
     0
174
     0
 93
        1
 44
0.0
173
     0
291
     0
 45
0.0
1001
ACAD
1000
AcDbSavedByObjectVersion
1070
     0
  0
VISUALSTYLE
  5
35
102
{ACAD_REACTORS
330
2A
102
}
330
2A
100
AcDbVisualStyle
  2
Dim
 70
    11
 71
     2
 72
     2
 73
     0
 90
        0
 40
-0.6
 41
-30.0
 62
     5
 63
     7
 74
     1
 91
        4
 64
     7
 65
   257
 75
     1
175
     1
 42
1.0
 92
        8
 66
     7
 43
1.0
 76
     1
 77
     6
 78
     2
 67
     7
 79
     5
170
     0
171
     0
290
     0
174
     0
 93
        1
 44
-50.0
173
     0
291
     1
 45
0.0
1001
ACAD
1000
AcDbSavedByObjectVersion
1070
     0
  0
VISUALSTYLE
  5
39
102
{ACAD_REACTORS
330
2A
102
}
330
2A
100
AcDbVisualStyle
  2
Facepattern
 70
    15
 71
     2
 72
     2
 73
     0
 90
        0
 40
-0.6
 41
-30.0
 62
     5
 63
     7
 74
     1
 91
        4
 64
     7
 65
   257
 75
     1
175
     1
 42
1.0
 92
        8
 66
     7
 43
1.0
 76
     1
 77
     6
 78
     2
 67
     7
 79
     5
170
     0
171
     0
290
     0
174
     0
 93
        1
 44
0.0
173
     0
291
     1
 45
0.0
1001
ACAD
1000
AcDbSavedByObjectVersion
1070
     0
  0
VISUALSTYLE
  5
2B
102
{ACAD_REACTORS
330
2A
102
}
330
2A
100
AcDbVisualStyle
  2
Flat
 70
     0
 71
     2
 72
     1
 73
     1
 90
        2
 40
-0.6
 41
30.0
 62
     5
 63
     7
 74
     0
 91
        4
 64
     7
 65
   257
 75
     1
175
     1
 42
1.0
 92
        8
 66
     7
 43
1.0
 76
     1
 77
     6
 78
     2
 67
     7
 79
     5
170
     0
171
     0
290
     0
174
     0
 93
       13
 44
0.0
173
     0
291
     1
 45
0.0
1001
ACAD
1000
AcDbSavedByObjectVersion
1070
     0
  0
VISUALSTYLE
  5
2C
102
{ACAD_REACTORS
330
2A
102
}
330
2A
100
AcDbVisualStyle
  2
FlatWithEdges
 70
     1
 71
     2
 72
     1
 73
     1
 90
        2
 40
-0.6
 41
30.0
 62
     5
 63
     7
 74
     1
 91
        4
 64
     7
 65
   257
 75
     1
175
     1
 42
1.0
 92
        0
 66
   257
 43
1.0
 76
     1
 77
     6
 78
     2
 67
     7
 79
     5
170
     0
171
     0
290
     0
174
     0
 93
       13
 44
0.0
173
     0
291
     1
 45
0.0
1001
ACAD
1000
AcDbSavedByObjectVersion
1070
     0
  0
VISUALSTYLE
  5
2D
102
{ACAD_REACTORS
330
2A
102
}
330
2A
100
AcDbVisualStyle
  2
Gouraud
 70
     2
 71
     2
 72
     2
 73
     1
 90
        2
 40
-0.6
 41
30.0
 62
     5
 63
     7
 74
     0
 91
        4
 64
     7
 65
   257
 75
     1
175
     1
 42
1.0
 92
        0
 66
     7
 43
1.0
 76
     1
 77
     6
 78
     2
 67
     7
 79
     5
170
     0
171
     0
290
     0
174
     0
 93
       13
 44
0.0
173
     0
291
     1
 45
0.0
1001
ACAD
1000
AcDbSavedByObjectVersion
1070
     0
  0
VISUALSTYLE
  5
2E
102
{ACAD_REACTORS
330
2A
102
}
330
2A
100
AcDbVisualStyle
  2
GouraudWithEdges
 70
     3
 71
     2
 72
     2
 73
     1
 90
        2
 40
-0.6
 41
30.0
 62
     5
 63
     7
 74
     1
 91
        4
 64
     7
 65
   257
 75
     1
175
     1
 42
1.0
 92
        0
 66
   257
 43
1.0
 76
     1
 77
     6
 78
     2
 67
     7
 79
     5
170
     0
171
     0
290
     0
174
     0
 93
       13
 44
0.0
173
     0
291
     1
 45
0.0
1001
ACAD
1000
AcDbSavedByObjectVersion
1070
     0
  0
VISUALSTYLE
  5
38
102
{ACAD_REACTORS
330
2A
102
}
330
2A
100
AcDbVisualStyle
  2
Linepattern
 70
    14
 71
     2
 72
     2
 73
     0
 90
        0
 40
-0.6
 41
-30.0
 62
     5
 63
     7
 74
     1
 91
        4
 64
     7
 65
   257
 75
     7
175
     7
 42
1.0
 92
        8
 66
     7
 43
1.0
 76
     1
 77
     6
 78
     2
 67
     7
 79
     5
170
     0
171
     0
290
     0
174
     0
 93
        1
 44
0.0
173
     0
291
     1
 45
0.0
1001
ACAD
1000
AcDbSavedByObjectVersion
1070
     0
  0
VISUALSTYLE
  5
33
102
{ACAD_REACTORS
330
2A
102
}
330
2A
100
AcDbVisualStyle
  2
Realistic
 70
     8
 71
     2
 72
     2
 73
     0
 90
        0
 40
-0.6
 41
-30.0
 62
     5
 63
     7
 74
     1
 91
        0
 64
     7
 65
   257
 75
     1
175
     1
 42
1.0
 92
        8
 66
     8
 43
1.0
 76
     1
 77
     6
 78
     2
 67
     7
 79
     5
170
     0
171
     0
290
     0
174
     0
 93
       13
 44
0.0
173
     0
291
     0
 45
0.0
1001
ACAD
1000
AcDbSavedByObjectVersion
1070
     0
  0
VISUALSTYLE
  5
37
102
{ACAD_REACTORS
330
2A
102
}
330
2A
100
AcDbVisualStyle
  2
Thicken
 70
    13
 71
     2
 72
     2
 73
     0
 90
        0
 40
-0.6
 41
-30.0
 62
     5
 63
     7
 74
     1
 91
        4
 64
     7
 65
   257
 75
     1
175
     1
 42
1.0
 92
       12
 66
     7
 43
1.0
 76
     1
 77
     6
 78
     2
 67
     7
 79
     5
170
     0
171
     0
290
     0
174
     0
 93
        1
 44
0.0
173
     0
291
     1
 45
0.0
1001
ACAD
1000
AcDbSavedByObjectVersion
1070
     0
  0
DICTIONARYVAR
  5
272
102
{ACAD_REACTORS
330
26D
102
}
330
26D
100
DictionaryVariables
280
     0
  1
1:1
  0
DICTIONARYVAR
  5
271
102
{ACAD_REACTORS
330
26D
102
}
330
26D
100
DictionaryVariables
280
     0
  1
80.000000
  0
DICTIONARYVAR
  5
270
102
{ACAD_REACTORS
330
26D
102
}
330
26D
100
DictionaryVariables
280
     0
  1
5.000000
  0
ENDSEC
  0
EOF
